osu file format v14

[General]
AudioFilename: FELTLittle NovaTouhou.mp3
AudioLeadIn: 0
PreviewTime: 71169
Countdown: 0
SampleSet: Normal
StackLeniency: 0.7
Mode: 1
LetterboxInBreaks: 0
SkinPreference:taikyuyuko
WidescreenStoryboard: 0

[Editor]
Bookmarks: 143337
DistanceSpacing: 0.8
BeatDivisor: 4
GridSize: 32
TimelineZoom: 1

[Metadata]
Title:Little Nova
TitleUnicode:Little Nova
Artist:FELT
ArtistUnicode:FELT
Creator:Flaus
Version:Oni
Source:東方 Project
Tags:touhou yuyuko saigyouji FELT vocal NAGI☆ Maika Little Planet perfect cherry blossom
BeatmapID:684480
BeatmapSetID:305677

[Difficulty]
HPDrainRate:5
CircleSize:5
OverallDifficulty:5
ApproachRate:5
SliderMultiplier:1.4
SliderTickRate:2

[Events]
//Background and Video events
0,0,"Saigyouji.Yuyuko.full.1708688.jpg",0,65
//Break Periods
2,105774,117801
2,223257,235283
//Storyboard Layer 0 (Background)
//Storyboard Layer 1 (Fail)
//Storyboard Layer 2 (Pass)
//Storyboard Layer 3 (Foreground)
//Storyboard Sound Samples

[TimingPoints]
23337,419.58041958042,4,1,0,100,1,0
23757,-100,4,1,0,60,0,0
36764,-100,4,1,0,100,0,0
38232,-100,4,1,0,60,0,0
40120,-100,4,1,0,100,0,0
40959,-100,4,1,0,60,0,0
41379,-100,4,1,0,60,0,0
41589,-100,4,1,0,80,0,0
42848,-100,4,1,0,60,0,0
43477,-100,4,1,0,100,0,0
44316,-100,4,1,0,60,0,0
44945,-100,4,1,0,60,0,0
46834,-100,4,1,0,100,0,0
48092,-100,4,1,0,60,0,0
50190,-90.9090909090909,4,1,0,100,0,0
50820,-90.9090909090909,4,1,0,80,0,0
53547,-90.9090909090909,4,1,0,100,0,0
53862,-90.9090909090909,4,1,0,80,0,0
62568,-90.9090909090909,4,1,0,100,0,0
62987,-90.9090909090909,4,1,0,80,0,0
70540,-83.3333333333333,4,1,0,90,0,0
70750,-76.9230769230769,4,1,0,100,0,0
71169,-83.3333333333333,4,1,0,100,0,1
98861,-83.3333333333333,4,1,0,100,0,0
99176,-100,4,1,0,80,0,0
102218,-100,4,1,0,100,0,0
102638,-100,4,1,0,80,0,0
103267,-100,4,1,0,100,0,0
103897,-100,4,1,0,60,0,0
119001,-100,4,1,0,100,0,0
120470,-100,4,1,0,60,0,0
125715,-100,4,1,0,100,0,0
126554,-100,4,1,0,60,0,0
126973,-100,4,1,0,60,0,0
132428,-90.9090909090909,4,1,0,100,0,0
132848,-90.9090909090909,4,1,0,80,0,0
135785,-90.9090909090909,4,1,0,100,0,0
136414,-90.9090909090909,4,1,0,80,0,0
139141,-90.9090909090909,4,1,0,100,0,0
139771,-90.9090909090909,4,1,0,80,0,0
142498,-90.9090909090909,4,1,0,100,0,0
142813,-90.9090909090909,4,1,0,80,0,0
145855,-90.9090909090909,4,1,0,100,0,0
146169,-90.9090909090909,4,1,0,80,0,0
151519,-90.9090909090909,4,1,0,100,0,0
151938,-90.9090909090909,4,1,0,80,0,0
152778,-83.3333333333333,4,1,0,80,0,0
152987,-76.9230769230769,4,1,0,90,0,0
153197,-71.4285714285714,4,1,0,100,0,0
153617,-66.6666666666667,4,1,0,100,0,0
154246,-83.3333333333333,4,1,0,100,0,1
181728,-100,4,1,0,60,0,0
181729,-100,4,1,0,30,0,0
184456,-100,4,1,0,20,0,0
185085,-100,4,1,0,45,0,0
185504,-100,4,1,0,35,0,0
185924,-100,4,1,0,45,0,0
186343,-100,4,1,0,35,0,0
186763,-100,4,1,0,45,0,0
188861,-100,4,1,0,35,0,0
189281,-100,4,1,0,45,0,0
189700,-100,4,1,0,35,0,0
190120,-100,4,1,0,25,0,0
190539,-100,4,1,0,15,0,0
191169,-100,4,1,0,35,0,0
191798,-100,4,1,0,45,0,0
192008,-100,4,1,0,35,0,0
192637,-100,4,1,0,45,0,0
194525,-100,4,1,0,60,0,0
207952,-90.9090909090909,4,1,0,80,0,0
211938,-90.9090909090909,4,1,0,100,0,0
212358,-90.9090909090909,4,1,0,80,0,0
216344,-90.9090909090909,4,1,0,100,0,0
217393,-90.9090909090909,4,1,0,80,0,0
218232,-100,4,1,0,100,0,0
219701,-100,4,1,0,60,0,0
237113,-100,4,1,0,60,0,0
243197,-100,4,1,0,100,0,0
245924,-100,4,1,0,60,0,0
246554,-100,4,1,0,100,0,0
246973,-100,4,1,0,60,0,0
248442,-90.9090909090909,4,1,0,60,0,0
248652,-83.3333333333333,4,1,0,80,0,0
248862,-76.9230769230769,4,1,0,100,0,0
249281,-71.4285714285714,4,1,0,100,0,0
249491,-66.6666666666667,4,1,0,100,0,0
249910,-83.3333333333333,4,1,0,100,0,1
276973,-90.9090909090909,4,1,0,80,0,0
303617,-90.9090909090909,4,1,0,30,0,0
310330,-90.9090909090909,4,1,0,20,0,0

[HitObjects]
256,192,23337,5,12,0:0:0:0:
256,192,23756,1,8,0:0:0:0:
256,192,24176,1,8,0:0:0:0:
256,192,24595,1,8,0:0:0:0:
192,192,24805,1,0,0:0:0:0:
192,192,25644,1,8,0:0:0:0:
256,192,25854,1,8,0:0:0:0:
256,192,26274,1,0,0:0:0:0:
256,192,26483,1,8,0:0:0:0:
256,192,26903,1,8,0:0:0:0:
256,192,27113,1,8,0:0:0:0:
192,192,27952,1,8,0:0:0:0:
256,192,28162,1,0,0:0:0:0:
192,192,28581,1,8,0:0:0:0:
256,192,29001,1,0,0:0:0:0:
192,192,29211,1,8,0:0:0:0:
192,192,29420,1,0,0:0:0:0:
256,192,29630,5,8,0:0:0:0:
192,192,29735,1,0,0:0:0:0:
192,192,29840,1,0,0:0:0:0:
192,192,29945,1,0,0:0:0:0:
192,192,30050,1,8,0:0:0:0:
256,192,30469,1,8,0:0:0:0:
256,192,30889,1,8,0:0:0:0:
192,192,31309,1,0,0:0:0:0:
256,192,31518,1,8,0:0:0:0:
192,192,31938,1,0,0:0:0:0:
192,192,32357,1,0,0:0:0:0:
256,192,32567,1,8,0:0:0:0:
192,192,32987,1,0,0:0:0:0:
256,192,33197,1,8,0:0:0:0:
256,192,33302,1,8,0:0:0:0:
256,192,33406,1,8,0:0:0:0:
256,192,33616,1,8,0:0:0:0:
192,192,34036,1,0,0:0:0:0:
256,192,34665,1,8,0:0:0:0:
256,192,34875,1,8,0:0:0:0:
256,192,35085,1,8,0:0:0:0:
192,192,35295,1,0,0:0:0:0:
192,192,35399,1,0,0:0:0:0:
192,192,35504,1,0,0:0:0:0:
256,192,35714,1,8,0:0:0:0:
192,192,36134,1,0,0:0:0:0:
256,192,36343,1,8,0:0:0:0:
192,192,36763,1,12,0:0:0:0:
192,192,37812,1,8,0:0:0:0:
192,192,38232,1,4,0:0:0:0:
256,192,39490,1,0,0:0:0:0:
256,192,39595,1,0,0:0:0:0:
256,192,39700,1,0,0:0:0:0:
192,192,39910,1,8,0:0:0:0:
192,192,40120,1,12,0:0:0:0:
192,192,40959,1,0,0:0:0:0:
192,192,41378,1,0,0:0:0:0:
256,192,41588,1,8,0:0:0:0:
192,192,42847,1,0,0:0:0:0:
256,192,43057,1,8,0:0:0:0:
256,192,43162,1,8,0:0:0:0:
256,192,43267,1,8,0:0:0:0:
192,192,43476,1,12,0:0:0:0:
256,192,44316,1,8,0:0:0:0:
192,192,44735,1,0,0:0:0:0:
192,192,44945,1,0,0:0:0:0:
256,192,45364,1,8,0:0:0:0:
256,192,45574,1,8,0:0:0:0:
256,192,46204,1,0,0:0:0:0:
256,192,46623,1,8,0:0:0:0:
192,192,46833,1,12,0:0:0:0:
256,192,48092,1,8,0:0:0:0:
192,192,48302,1,0,0:0:0:0:
256,192,48721,1,8,0:0:0:0:
256,192,49141,1,8,0:0:0:0:
256,192,49246,1,8,0:0:0:0:
256,192,49350,1,8,0:0:0:0:
192,192,49560,1,0,0:0:0:0:
192,192,49770,1,0,0:0:0:0:
192,192,50190,1,12,0:0:0:0:
192,192,50819,1,0,0:0:0:0:
192,192,51239,1,0,0:0:0:0:
256,192,51448,1,8,0:0:0:0:
192,192,51658,1,0,0:0:0:0:
192,192,51868,1,0,0:0:0:0:
256,192,51973,1,8,0:0:0:0:
192,192,52183,1,0,0:0:0:0:
256,192,52288,1,8,0:0:0:0:
192,192,52497,1,0,0:0:0:0:
192,192,52917,1,0,0:0:0:0:
256,192,53127,1,8,0:0:0:0:
192,192,53546,1,12,0:0:0:0:
192,192,53861,1,8,0:0:0:0:
192,192,54176,1,0,0:0:0:0:
192,192,54595,1,0,0:0:0:0:
256,192,54805,1,8,0:0:0:0:
192,192,55015,1,0,0:0:0:0:
192,192,55225,1,8,0:0:0:0:
192,192,55539,5,0,0:0:0:0:
192,192,55854,1,0,0:0:0:0:
192,192,56274,1,0,0:0:0:0:
192,192,56378,1,0,0:0:0:0:
192,192,56483,5,8,0:0:0:0:
128,192,56693,1,0,0:0:0:0:
192,192,56903,1,12,0:0:0:0:
192,192,57532,1,0,0:0:0:0:
192,192,57952,1,0,0:0:0:0:
256,192,58162,1,8,0:0:0:0:
192,192,58371,1,0,0:0:0:0:
192,192,58581,1,0,0:0:0:0:
192,192,58896,1,0,0:0:0:0:
192,192,59211,1,0,0:0:0:0:
256,192,59420,1,8,0:0:0:0:
256,192,59525,1,8,0:0:0:0:
192,192,59630,1,0,0:0:0:0:
256,192,59840,1,8,0:0:0:0:
192,192,60260,1,12,0:0:0:0:
192,192,60574,1,0,0:0:0:0:
192,192,60889,1,0,0:0:0:0:
256,192,61099,1,8,0:0:0:0:
192,192,61309,1,0,0:0:0:0:
256,192,61518,1,8,0:0:0:0:
192,192,61728,1,0,0:0:0:0:
192,192,61938,1,0,0:0:0:0:
192,192,62148,1,0,0:0:0:0:
256,192,62253,1,8,0:0:0:0:
192,192,62567,1,12,0:0:0:0:
192,192,62987,1,0,0:0:0:0:
256,192,63197,1,8,0:0:0:0:
256,192,63302,1,8,0:0:0:0:
192,192,63406,1,0,0:0:0:0:
192,192,63616,1,8,0:0:0:0:
192,192,63931,1,0,0:0:0:0:
192,192,64246,1,0,0:0:0:0:
256,192,64455,1,12,0:0:0:0:
384,96,65295,1,8,0:0:0:0:
192,192,65609,1,0,0:0:0:0:
192,192,65924,1,0,0:0:0:0:
256,192,66134,1,12,0:0:0:0:
192,192,66973,1,8,0:0:0:0:
192,192,67183,1,0,0:0:0:0:
192,192,67288,1,0,0:0:0:0:
256,192,67392,1,8,0:0:0:0:
192,192,67602,1,0,0:0:0:0:
192,192,67707,1,0,0:0:0:0:
256,192,67812,1,8,0:0:0:0:
192,192,67917,1,0,0:0:0:0:
192,192,68022,1,0,0:0:0:0:
256,192,68232,1,8,0:0:0:0:
192,192,68337,1,0,0:0:0:0:
192,192,68441,1,0,0:0:0:0:
192,192,68546,1,0,0:0:0:0:
192,192,68651,1,8,0:0:0:0:
192,192,69071,1,0,0:0:0:0:
256,192,69281,1,8,0:0:0:0:
192,192,69700,1,0,0:0:0:0:
256,192,69910,1,0,0:0:0:0:
256,192,70015,1,0,0:0:0:0:
192,192,70120,1,8,0:0:0:0:
192,192,70539,1,4,0:0:0:0:
256,192,70749,1,12,0:0:0:0:
256,192,71169,1,0,0:0:0:0:
256,192,71274,1,0,0:0:0:0:
192,192,71378,1,0,0:0:0:0:
192,192,71483,1,0,0:0:0:0:
256,192,71588,1,8,0:0:0:0:
256,192,71693,1,8,0:0:0:0:
192,192,71798,1,8,0:0:0:0:
192,192,71903,1,8,0:0:0:0:
192,192,72008,1,0,0:0:0:0:
192,192,72323,1,0,0:0:0:0:
256,192,72427,1,8,0:0:0:0:
192,192,72637,1,0,0:0:0:0:
192,192,73057,1,0,0:0:0:0:
256,192,73267,1,8,0:0:0:0:
192,192,73476,1,0,0:0:0:0:
192,192,73581,1,0,0:0:0:0:
192,192,73686,1,0,0:0:0:0:
192,192,73896,1,0,0:0:0:0:
256,192,74106,1,8,0:0:0:0:
192,192,74316,1,0,0:0:0:0:
192,192,74735,1,0,0:0:0:0:
256,192,74945,1,8,0:0:0:0:
192,192,75155,1,0,0:0:0:0:
192,192,75364,1,0,0:0:0:0:
192,192,75574,1,0,0:0:0:0:
192,192,75679,1,0,0:0:0:0:
256,192,75784,1,8,0:0:0:0:
192,192,75994,1,0,0:0:0:0:
192,192,76204,1,0,0:0:0:0:
192,192,76413,1,0,0:0:0:0:
256,192,76623,1,8,0:0:0:0:
192,192,76833,1,0,0:0:0:0:
192,192,77253,1,0,0:0:0:0:
256,192,77462,1,8,0:0:0:0:
192,192,77672,1,0,0:0:0:0:
256,192,77882,1,8,0:0:0:0:
256,192,77987,1,8,0:0:0:0:
192,192,78092,1,0,0:0:0:0:
256,192,78302,1,8,0:0:0:0:
192,192,78406,1,0,0:0:0:0:
192,192,78511,1,0,0:0:0:0:
192,192,78616,1,0,0:0:0:0:
192,192,78721,1,8,0:0:0:0:
192,192,78931,1,0,0:0:0:0:
192,192,79036,1,0,0:0:0:0:
256,192,79141,1,8,0:0:0:0:
192,192,79350,1,0,0:0:0:0:
192,192,79770,1,0,0:0:0:0:
256,192,79980,1,8,0:0:0:0:
192,192,80190,1,0,0:0:0:0:
192,192,80295,1,0,0:0:0:0:
192,192,80399,1,0,0:0:0:0:
192,192,80609,1,0,0:0:0:0:
256,192,80819,1,8,0:0:0:0:
192,192,81029,1,0,0:0:0:0:
192,192,81448,1,0,0:0:0:0:
256,192,81658,1,8,0:0:0:0:
256,192,81868,1,8,0:0:0:0:
256,192,81973,1,8,0:0:0:0:
192,192,82078,1,0,0:0:0:0:
192,192,82392,1,0,0:0:0:0:
256,192,82497,1,8,0:0:0:0:
192,192,82707,1,0,0:0:0:0:
192,192,83127,1,0,0:0:0:0:
256,192,83337,1,8,0:0:0:0:
256,192,83546,1,12,0:0:0:0:
192,192,83966,1,0,0:0:0:0:
256,192,84176,1,8,0:0:0:0:
192,192,84385,1,0,0:0:0:0:
256,192,84595,1,8,0:0:0:0:
256,192,84700,1,8,0:0:0:0:
192,192,84805,1,0,0:0:0:0:
256,192,85015,1,8,0:0:0:0:
192,192,85120,1,8,0:0:0:0:
192,192,85225,1,0,0:0:0:0:
192,192,85330,1,0,0:0:0:0:
192,192,85434,1,8,0:0:0:0:
192,192,85749,1,0,0:0:0:0:
256,192,85854,1,8,0:0:0:0:
192,192,86064,1,0,0:0:0:0:
192,192,86483,1,0,0:0:0:0:
192,192,86588,1,0,0:0:0:0:
256,192,86693,1,8,0:0:0:0:
192,192,86903,1,0,0:0:0:0:
192,192,87113,1,8,0:0:0:0:
192,192,87427,1,0,0:0:0:0:
256,192,87532,1,8,0:0:0:0:
192,192,87742,1,0,0:0:0:0:
192,160,87847,1,0,0:0:0:0:
256,192,87952,1,8,0:0:0:0:
256,192,88057,1,8,0:0:0:0:
192,192,88162,1,0,0:0:0:0:
192,192,88267,1,0,0:0:0:0:
256,192,88371,1,8,0:0:0:0:
192,192,88476,1,0,0:0:0:0:
192,192,88581,1,0,0:0:0:0:
192,192,88686,1,0,0:0:0:0:
192,192,88791,1,8,0:0:0:0:
192,192,89106,1,0,0:0:0:0:
256,192,89211,1,8,0:0:0:0:
192,192,89420,1,0,0:0:0:0:
256,192,89630,1,8,0:0:0:0:
256,192,89735,1,8,0:0:0:0:
192,192,89840,1,0,0:0:0:0:
256,192,90050,1,8,0:0:0:0:
192,192,90155,1,8,0:0:0:0:
192,192,90260,1,0,0:0:0:0:
192,192,90469,1,0,0:0:0:0:
192,192,90784,1,0,0:0:0:0:
256,192,90889,1,8,0:0:0:0:
192,192,91099,1,0,0:0:0:0:
256,192,91413,1,8,0:0:0:0:
192,192,91518,1,0,0:0:0:0:
256,192,91728,1,8,0:0:0:0:
256,192,91938,1,8,0:0:0:0:
256,192,92043,1,8,0:0:0:0:
192,192,92148,1,0,0:0:0:0:
192,192,92462,1,0,0:0:0:0:
192,192,92567,1,8,0:0:0:0:
256,192,92777,1,8,0:0:0:0:
192,192,93197,1,0,0:0:0:0:
256,192,93406,1,8,0:0:0:0:
192,192,93616,1,0,0:0:0:0:
192,192,93721,1,0,0:0:0:0:
192,192,93826,1,0,0:0:0:0:
192,192,94036,1,0,0:0:0:0:
256,192,94246,1,8,0:0:0:0:
192,192,94455,1,0,0:0:0:0:
192,192,94560,1,0,0:0:0:0:
256,192,94665,1,8,0:0:0:0:
192,192,94875,1,0,0:0:0:0:
256,192,95085,1,8,0:0:0:0:
192,192,95295,1,0,0:0:0:0:
192,192,95504,1,0,0:0:0:0:
192,192,95819,1,0,0:0:0:0:
256,192,95924,1,8,0:0:0:0:
192,192,96134,1,0,0:0:0:0:
256,192,96343,1,8,0:0:0:0:
192,192,96553,1,0,0:0:0:0:
192,192,96763,1,0,0:0:0:0:
192,192,96973,1,12,0:0:0:0:
192,192,97392,1,0,0:0:0:0:
256,192,97602,1,8,0:0:0:0:
192,192,97812,1,0,0:0:0:0:
256,192,98022,1,8,0:0:0:0:
256,192,98127,1,8,0:0:0:0:
192,192,98232,1,0,0:0:0:0:
256,192,98441,1,8,0:0:0:0:
256,192,98546,1,8,0:0:0:0:
256,192,98651,1,8,0:0:0:0:
256,192,98756,1,8,0:0:0:0:
192,192,98861,1,0,0:0:0:0:
192,192,99176,1,0,0:0:0:0:
256,192,99281,1,8,0:0:0:0:
192,192,99490,1,0,0:0:0:0:
256,192,99700,1,8,0:0:0:0:
192,192,99910,1,0,0:0:0:0:
192,192,100330,1,4,0:0:0:0:
192,192,100749,1,0,0:0:0:0:
256,192,100959,1,8,0:0:0:0:
192,192,101169,1,0,0:0:0:0:
256,192,101378,1,8,0:0:0:0:
192,192,101588,1,0,0:0:0:0:
192,192,101798,1,0,0:0:0:0:
192,192,102008,1,0,0:0:0:0:
192,192,102218,1,12,0:0:0:0:
192,192,102637,1,0,0:0:0:0:
256,192,102847,1,8,0:0:0:0:
256,192,103267,1,12,0:0:0:0:
192,192,103686,1,4,0:0:0:0:
256,192,103896,12,0,105574,0:0:0:0:
256,192,119001,5,12,0:0:0:0:
192,192,120469,1,0,0:0:0:0:
256,192,120889,1,8,0:0:0:0:
256,192,121099,1,8,0:0:0:0:
192,192,121728,1,0,0:0:0:0:
256,192,122148,1,8,0:0:0:0:
256,192,122253,1,8,0:0:0:0:
256,192,122357,1,8,0:0:0:0:
256,192,123197,1,8,0:0:0:0:
256,192,123616,1,8,0:0:0:0:
192,192,123826,1,0,0:0:0:0:
192,192,124246,1,0,0:0:0:0:
256,192,124455,1,8,0:0:0:0:
192,192,125085,1,0,0:0:0:0:
256,192,125295,1,8,0:0:0:0:
256,192,125399,1,8,0:0:0:0:
256,192,125504,1,0,0:0:0:0:
192,192,125714,1,12,0:0:0:0:
192,192,126553,1,0,0:0:0:0:
256,192,126973,1,8,0:0:0:0:
192,192,127183,1,0,0:0:0:0:
256,192,127602,1,8,0:0:0:0:
256,192,127812,1,8,0:0:0:0:
96,192,128441,1,0,0:0:0:0:
256,192,128861,1,8,0:0:0:0:
192,192,129071,1,12,0:0:0:0:
96,192,129700,1,0,0:0:0:0:
96,192,130120,1,0,0:0:0:0:
256,192,130330,1,8,0:0:0:0:
192,192,130539,1,0,0:0:0:0:
256,192,130959,1,8,0:0:0:0:
256,192,131378,1,8,0:0:0:0:
256,192,131483,1,8,0:0:0:0:
256,192,131588,1,8,0:0:0:0:
192,192,131798,1,0,0:0:0:0:
192,192,132008,1,0,0:0:0:0:
192,192,132218,1,0,0:0:0:0:
192,192,132427,1,12,0:0:0:0:
256,192,132847,1,8,0:0:0:0:
256,192,133267,1,8,0:0:0:0:
192,192,133476,1,0,0:0:0:0:
256,192,133686,1,8,0:0:0:0:
192,192,133896,1,0,0:0:0:0:
192,192,134106,1,0,0:0:0:0:
256,192,134211,1,8,0:0:0:0:
192,192,134420,1,0,0:0:0:0:
256,192,134525,1,8,0:0:0:0:
192,192,134735,1,0,0:0:0:0:
192,192,135155,1,0,0:0:0:0:
256,192,135364,1,8,0:0:0:0:
192,192,135784,1,12,0:0:0:0:
192,192,136413,1,0,0:0:0:0:
192,192,136833,1,0,0:0:0:0:
256,192,137043,1,8,0:0:0:0:
192,192,137253,1,0,0:0:0:0:
192,192,137462,1,0,0:0:0:0:
192,192,137672,1,0,0:0:0:0:
192,192,137777,1,0,0:0:0:0:
256,192,137882,1,8,0:0:0:0:
256,192,137987,1,8,0:0:0:0:
192,192,138092,1,0,0:0:0:0:
192,192,138302,1,0,0:0:0:0:
256,192,138406,1,8,0:0:0:0:
192,192,138511,1,0,0:0:0:0:
192,192,138616,1,0,0:0:0:0:
256,192,138721,1,8,0:0:0:0:
256,192,139141,1,12,0:0:0:0:
192,192,139770,1,0,0:0:0:0:
192,192,140190,1,0,0:0:0:0:
256,192,140399,1,8,0:0:0:0:
192,192,140609,1,0,0:0:0:0:
192,192,140819,1,0,0:0:0:0:
192,192,141134,1,0,0:0:0:0:
192,192,141448,1,0,0:0:0:0:
192,192,141658,1,0,0:0:0:0:
256,192,141763,1,8,0:0:0:0:
192,192,141868,1,0,0:0:0:0:
256,192,142078,1,8,0:0:0:0:
256,192,142288,1,8,0:0:0:0:
256,192,142392,1,8,0:0:0:0:
192,192,142497,1,0,0:0:0:0:
192,192,142812,5,0,0:0:0:0:
192,192,143127,1,0,0:0:0:0:
192,192,143546,1,0,0:0:0:0:
256,192,143756,1,8,0:0:0:0:
192,192,143966,1,0,0:0:0:0:
192,192,144071,1,0,0:0:0:0:
192,192,144176,1,0,0:0:0:0:
192,192,144385,1,0,0:0:0:0:
256,192,144490,1,8,0:0:0:0:
256,192,144700,1,8,0:0:0:0:
192,192,144805,1,0,0:0:0:0:
192,192,145225,1,0,0:0:0:0:
256,192,145434,1,8,0:0:0:0:
256,192,145539,1,8,0:0:0:0:
192,192,145644,1,0,0:0:0:0:
192,192,145854,1,12,0:0:0:0:
192,192,146169,1,0,0:0:0:0:
192,192,146483,1,0,0:0:0:0:
256,192,146693,1,12,0:0:0:0:
192,192,147532,1,8,0:0:0:0:
256,192,147847,1,0,0:0:0:0:
192,192,148162,1,0,0:0:0:0:
256,192,148371,1,8,0:0:0:0:
192,192,149211,1,8,0:0:0:0:
192,192,149420,1,0,0:0:0:0:
192,192,149525,1,0,0:0:0:0:
256,192,149630,1,8,0:0:0:0:
192,192,149840,1,0,0:0:0:0:
256,192,149945,1,0,0:0:0:0:
256,192,150050,1,8,0:0:0:0:
192,192,150155,1,0,0:0:0:0:
192,192,150260,1,0,0:0:0:0:
256,192,150469,1,8,0:0:0:0:
192,192,150574,1,0,0:0:0:0:
192,192,150679,1,0,0:0:0:0:
192,192,150784,1,0,0:0:0:0:
192,192,150889,1,8,0:0:0:0:
192,192,151309,1,0,0:0:0:0:
256,192,151518,1,12,0:0:0:0:
192,192,151938,1,8,0:0:0:0:
192,192,152148,1,0,0:0:0:0:
192,192,152253,1,0,0:0:0:0:
256,192,152357,1,8,0:0:0:0:
192,192,152777,1,0,0:0:0:0:
192,192,152987,1,0,0:0:0:0:
192,192,153197,1,0,0:0:0:0:
192,192,153616,1,4,0:0:0:0:
256,192,153826,1,12,0:0:0:0:
192,192,154246,1,4,0:0:0:0:
192,192,154455,1,0,0:0:0:0:
192,192,154560,1,0,0:0:0:0:
256,192,154665,1,8,0:0:0:0:
192,192,154875,1,0,0:0:0:0:
192,192,155085,1,0,0:0:0:0:
192,192,155295,1,0,0:0:0:0:
256,192,155504,1,8,0:0:0:0:
192,192,155714,1,0,0:0:0:0:
192,192,156134,1,0,0:0:0:0:
256,192,156343,1,8,0:0:0:0:
192,192,156553,1,0,0:0:0:0:
192,192,156658,1,0,0:0:0:0:
192,192,156763,1,0,0:0:0:0:
192,192,156973,1,0,0:0:0:0:
256,192,157183,1,8,0:0:0:0:
256,192,157392,1,12,0:0:0:0:
192,192,157602,1,0,0:0:0:0:
192,192,157812,1,0,0:0:0:0:
192,192,157917,1,0,0:0:0:0:
256,192,158022,1,8,0:0:0:0:
192,192,158232,1,0,0:0:0:0:
192,192,158441,1,8,0:0:0:0:
192,192,158546,1,8,0:0:0:0:
192,192,158651,1,0,0:0:0:0:
256,192,158861,1,8,0:0:0:0:
192,192,159071,1,4,0:0:0:0:
192,192,159490,1,0,0:0:0:0:
256,192,159700,1,8,0:0:0:0:
192,192,159910,1,0,0:0:0:0:
256,192,160120,1,8,0:0:0:0:
256,192,160225,1,8,0:0:0:0:
192,192,160330,1,0,0:0:0:0:
192,192,160434,1,0,0:0:0:0:
256,192,160539,1,8,0:0:0:0:
192,192,160644,1,0,0:0:0:0:
192,192,160749,1,0,0:0:0:0:
192,192,160854,1,0,0:0:0:0:
192,192,160959,1,8,0:0:0:0:
192,192,161169,1,0,0:0:0:0:
192,192,161274,1,0,0:0:0:0:
256,192,161378,1,8,0:0:0:0:
192,192,161588,1,0,0:0:0:0:
192,192,162008,1,0,0:0:0:0:
256,192,162218,1,8,0:0:0:0:
192,192,162427,1,0,0:0:0:0:
192,192,162532,1,0,0:0:0:0:
192,192,162637,1,0,0:0:0:0:
192,192,162847,1,0,0:0:0:0:
256,192,163057,1,8,0:0:0:0:
192,192,163267,1,0,0:0:0:0:
192,192,163686,1,0,0:0:0:0:
256,192,163896,1,8,0:0:0:0:
192,192,164106,1,8,0:0:0:0:
192,192,164211,1,8,0:0:0:0:
192,192,164316,1,0,0:0:0:0:
192,192,164525,1,0,0:0:0:0:
192,192,164630,1,0,0:0:0:0:
256,192,164735,1,8,0:0:0:0:
192,192,164945,1,0,0:0:0:0:
192,192,165155,1,8,0:0:0:0:
192,192,165364,1,0,0:0:0:0:
256,192,165574,1,8,0:0:0:0:
256,192,165784,1,12,0:0:0:0:
192,192,166204,1,0,0:0:0:0:
256,192,166413,1,8,0:0:0:0:
192,192,166623,1,0,0:0:0:0:
256,192,166833,1,8,0:0:0:0:
256,192,166938,1,8,0:0:0:0:
192,192,167043,1,0,0:0:0:0:
192,192,167148,1,0,0:0:0:0:
256,192,167253,1,8,0:0:0:0:
192,192,167357,1,8,0:0:0:0:
192,192,167462,1,0,0:0:0:0:
192,192,167567,1,0,0:0:0:0:
192,192,167672,1,0,0:0:0:0:
192,192,167987,1,0,0:0:0:0:
256,192,168092,1,8,0:0:0:0:
192,192,168302,1,0,0:0:0:0:
192,192,168406,1,0,0:0:0:0:
192,192,168511,1,0,0:0:0:0:
192,192,168721,1,0,0:0:0:0:
256,192,168931,1,8,0:0:0:0:
256,192,169141,1,8,0:0:0:0:
256,192,169246,1,8,0:0:0:0:
192,192,169350,1,0,0:0:0:0:
192,192,169560,1,0,0:0:0:0:
192,192,169665,1,0,0:0:0:0:
256,192,169770,1,8,0:0:0:0:
192,192,169980,1,0,0:0:0:0:
192,192,170190,1,0,0:0:0:0:
192,192,170295,1,0,0:0:0:0:
192,192,170399,1,0,0:0:0:0:
256,192,170609,1,8,0:0:0:0:
192,192,170819,1,8,0:0:0:0:
192,192,170924,1,8,0:0:0:0:
192,192,171029,1,0,0:0:0:0:
192,192,171343,1,0,0:0:0:0:
256,192,171448,1,8,0:0:0:0:
192,192,171658,1,0,0:0:0:0:
256,192,171868,1,8,0:0:0:0:
256,192,171973,1,8,0:0:0:0:
192,192,172078,1,0,0:0:0:0:
256,192,172288,1,8,0:0:0:0:
192,192,172497,1,0,0:0:0:0:
192,192,172602,1,0,0:0:0:0:
192,192,172707,1,0,0:0:0:0:
192,192,172917,1,0,0:0:0:0:
256,192,173127,1,8,0:0:0:0:
192,192,173337,1,0,0:0:0:0:
256,192,173651,1,8,0:0:0:0:
192,192,173756,1,0,0:0:0:0:
256,192,173966,1,8,0:0:0:0:
256,192,174176,1,8,0:0:0:0:
256,192,174281,1,8,0:0:0:0:
192,192,174385,1,0,0:0:0:0:
192,192,174700,1,0,0:0:0:0:
256,192,174805,1,8,0:0:0:0:
192,192,175015,1,0,0:0:0:0:
192,192,175434,1,0,0:0:0:0:
256,192,175644,1,8,0:0:0:0:
192,192,175854,1,0,0:0:0:0:
192,192,175959,1,0,0:0:0:0:
192,192,176064,1,0,0:0:0:0:
192,192,176274,1,0,0:0:0:0:
256,192,176483,1,8,0:0:0:0:
192,192,176693,1,0,0:0:0:0:
192,192,176798,1,0,0:0:0:0:
192,192,176903,1,8,0:0:0:0:
192,192,177113,1,0,0:0:0:0:
256,192,177323,1,8,0:0:0:0:
192,192,177532,1,8,0:0:0:0:
192,192,177637,1,8,0:0:0:0:
192,192,177742,1,0,0:0:0:0:
192,192,177952,1,0,0:0:0:0:
192,192,178057,1,0,0:0:0:0:
256,192,178162,1,8,0:0:0:0:
192,192,178371,1,0,0:0:0:0:
256,192,178581,1,8,0:0:0:0:
192,192,178791,1,0,0:0:0:0:
192,192,179001,1,0,0:0:0:0:
192,192,179211,1,12,0:0:0:0:
192,192,179630,1,0,0:0:0:0:
256,192,179840,1,8,0:0:0:0:
192,192,180050,1,0,0:0:0:0:
256,192,180260,1,8,0:0:0:0:
256,192,180364,1,8,0:0:0:0:
192,192,180469,1,0,0:0:0:0:
192,192,180574,1,0,0:0:0:0:
256,192,180679,1,8,0:0:0:0:
192,192,180784,1,0,0:0:0:0:
192,192,180889,1,0,0:0:0:0:
192,192,180994,1,0,0:0:0:0:
192,192,181099,1,8,0:0:0:0:
256,192,181728,12,0,184455,0:0:0:0:
256,192,185085,5,8,0:0:0:0:
192,192,185504,1,0,0:0:0:0:
192,192,185714,1,0,0:0:0:0:
256,192,185924,1,8,0:0:0:0:
192,192,186343,1,0,0:0:0:0:
256,192,186763,1,8,0:0:0:0:
256,192,187183,1,8,0:0:0:0:
256,192,187288,1,8,0:0:0:0:
256,192,187392,1,8,0:0:0:0:
256,192,187602,1,8,0:0:0:0:
256,192,187812,1,12,0:0:0:0:
256,192,188441,1,8,0:0:0:0:
192,192,188861,1,0,0:0:0:0:
256,192,189281,1,8,0:0:0:0:
256,192,189700,1,8,0:0:0:0:
256,192,190120,1,8,0:0:0:0:
256,192,190539,1,8,0:0:0:0:
256,192,190959,1,8,0:0:0:0:
192,192,191169,1,0,0:0:0:0:
256,192,191798,1,8,0:0:0:0:
192,192,192008,1,0,0:0:0:0:
192,192,192218,1,0,0:0:0:0:
192,192,192323,1,0,0:0:0:0:
192,192,192427,1,0,0:0:0:0:
256,192,192637,1,12,0:0:0:0:
256,192,194316,1,0,0:0:0:0:
256,192,194420,1,0,0:0:0:0:
192,192,194525,1,8,0:0:0:0:
192,192,194945,1,0,0:0:0:0:
256,192,195155,1,8,0:0:0:0:
192,192,195574,1,0,0:0:0:0:
256,192,195994,1,8,0:0:0:0:
192,192,196413,1,0,0:0:0:0:
256,192,196623,1,8,0:0:0:0:
192,192,196833,1,0,0:0:0:0:
256,192,197253,1,8,0:0:0:0:
256,192,197357,1,8,0:0:0:0:
256,192,197462,1,8,0:0:0:0:
256,192,197672,1,8,0:0:0:0:
192,192,197882,1,4,0:0:0:0:
192,192,198302,1,0,0:0:0:0:
256,192,198511,1,8,0:0:0:0:
256,192,198931,1,8,0:0:0:0:
256,192,199036,1,8,0:0:0:0:
256,192,199141,1,8,0:0:0:0:
256,192,199350,1,12,0:0:0:0:
192,192,199770,1,0,0:0:0:0:
192,192,199980,1,0,0:0:0:0:
256,192,200190,1,8,0:0:0:0:
192,192,200609,1,0,0:0:0:0:
192,192,200714,1,0,0:0:0:0:
256,192,200819,1,8,0:0:0:0:
256,192,200924,1,8,0:0:0:0:
256,192,201029,1,8,0:0:0:0:
192,192,201239,1,12,0:0:0:0:
192,192,201448,1,0,0:0:0:0:
256,192,201553,1,8,0:0:0:0:
192,192,201868,1,0,0:0:0:0:
256,192,202288,1,8,0:0:0:0:
192,192,202497,1,0,0:0:0:0:
192,192,202602,1,0,0:0:0:0:
256,192,202707,1,8,0:0:0:0:
192,192,203127,1,8,0:0:0:0:
256,192,203337,1,8,0:0:0:0:
192,192,203546,1,0,0:0:0:0:
192,192,203966,1,0,0:0:0:0:
192,192,204071,1,0,0:0:0:0:
192,192,204176,1,0,0:0:0:0:
192,192,204385,1,0,0:0:0:0:
192,192,204595,1,12,0:0:0:0:
192,192,205015,1,0,0:0:0:0:
256,192,205225,1,8,0:0:0:0:
192,192,205644,1,0,0:0:0:0:
256,192,205854,1,8,0:0:0:0:
192,192,206064,1,0,0:0:0:0:
192,192,206483,1,0,0:0:0:0:
256,192,206903,1,8,0:0:0:0:
256,192,207008,1,8,0:0:0:0:
256,192,207113,1,8,0:0:0:0:
192,192,207323,1,0,0:0:0:0:
192,192,207532,1,0,0:0:0:0:
192,192,207742,1,0,0:0:0:0:
192,192,207952,1,4,0:0:0:0:
256,192,208371,1,8,0:0:0:0:
256,192,208791,1,8,0:0:0:0:
192,192,209001,1,0,0:0:0:0:
256,192,209211,1,8,0:0:0:0:
192,192,209420,1,0,0:0:0:0:
192,192,209630,1,0,0:0:0:0:
192,192,209840,1,0,0:0:0:0:
192,192,209945,1,0,0:0:0:0:
256,192,210050,1,8,0:0:0:0:
192,192,210260,1,0,0:0:0:0:
192,192,210679,1,0,0:0:0:0:
256,192,210889,1,8,0:0:0:0:
192,192,211309,1,0,0:0:0:0:
192,192,211623,1,0,0:0:0:0:
192,192,211938,1,12,0:0:0:0:
192,192,212357,1,0,0:0:0:0:
256,192,212567,1,8,0:0:0:0:
192,192,212777,1,0,0:0:0:0:
192,192,212987,1,0,0:0:0:0:
256,192,213092,1,8,0:0:0:0:
256,192,213197,1,8,0:0:0:0:
192,192,213302,1,0,0:0:0:0:
256,192,213406,1,8,0:0:0:0:
256,192,213511,1,8,0:0:0:0:
192,192,213616,1,0,0:0:0:0:
192,192,214036,1,0,0:0:0:0:
256,192,214246,1,8,0:0:0:0:
256,192,214455,1,8,0:0:0:0:
256,192,214560,1,8,0:0:0:0:
192,192,214665,1,0,0:0:0:0:
192,192,214980,1,0,0:0:0:0:
192,192,215295,1,0,0:0:0:0:
256,192,215504,1,8,0:0:0:0:
192,192,215819,1,0,0:0:0:0:
256,192,216134,1,8,0:0:0:0:
256,192,216343,1,12,0:0:0:0:
192,192,216658,1,0,0:0:0:0:
192,192,216973,1,0,0:0:0:0:
192,192,217183,1,8,0:0:0:0:
256,192,217392,1,8,0:0:0:0:
256,192,217497,1,8,0:0:0:0:
256,192,217602,1,8,0:0:0:0:
256,192,217812,1,8,0:0:0:0:
256,192,217917,1,8,0:0:0:0:
192,192,218022,1,0,0:0:0:0:
192,192,218651,1,0,0:0:0:0:
192,192,219071,1,0,0:0:0:0:
192,192,219490,1,12,0:0:0:0:
256,192,219700,12,0,223057,0:0:0:0:
256,192,236483,5,12,0:0:0:0:
192,192,237113,1,0,0:0:0:0:
192,192,237952,1,8,0:0:0:0:
192,192,238791,1,0,0:0:0:0:
192,192,239211,1,8,0:0:0:0:
192,192,239630,1,8,0:0:0:0:
192,192,239840,1,4,0:0:0:0:
192,192,240469,1,8,0:0:0:0:
192,192,241099,1,0,0:0:0:0:
192,192,241309,1,8,0:0:0:0:
192,192,242148,1,0,0:0:0:0:
192,192,242567,1,0,0:0:0:0:
256,192,242777,1,8,0:0:0:0:
192,192,242987,1,0,0:0:0:0:
192,192,243197,1,12,0:0:0:0:
192,192,244665,1,4,0:0:0:0:
192,192,245924,1,0,0:0:0:0:
192,192,246029,1,0,0:0:0:0:
256,192,246134,1,8,0:0:0:0:
256,192,246343,1,8,0:0:0:0:
192,192,246553,1,4,0:0:0:0:
192,192,246973,1,0,0:0:0:0:
192,192,247183,1,8,0:0:0:0:
192,192,247602,1,0,0:0:0:0:
192,192,248022,1,4,0:0:0:0:
192,192,248441,1,4,0:0:0:0:
192,192,248651,1,4,0:0:0:0:
192,192,248861,1,4,0:0:0:0:
192,192,249281,1,4,0:0:0:0:
256,192,249490,1,12,0:0:0:0:
192,192,249910,1,4,0:0:0:0:
192,192,250120,1,0,0:0:0:0:
192,192,250225,1,0,0:0:0:0:
256,192,250330,1,8,0:0:0:0:
192,192,250539,1,0,0:0:0:0:
192,192,250959,1,0,0:0:0:0:
256,192,251169,1,8,0:0:0:0:
192,192,251378,1,4,0:0:0:0:
192,192,251798,1,0,0:0:0:0:
256,192,252008,1,8,0:0:0:0:
192,192,252218,1,0,0:0:0:0:
160,96,252323,1,0,0:0:0:0:
160,96,252427,1,8,0:0:0:0:
192,192,252637,1,0,0:0:0:0:
256,192,252847,1,8,0:0:0:0:
192,192,252952,1,0,0:0:0:0:
192,192,253057,1,0,0:0:0:0:
192,192,253267,1,4,0:0:0:0:
192,192,253581,1,0,0:0:0:0:
256,192,253686,1,8,0:0:0:0:
192,192,253896,1,0,0:0:0:0:
192,192,254316,1,0,0:0:0:0:
256,192,254525,1,8,0:0:0:0:
192,192,254735,1,0,0:0:0:0:
192,192,254840,1,0,0:0:0:0:
192,192,254945,1,0,0:0:0:0:
192,192,255155,1,0,0:0:0:0:
256,192,255364,1,8,0:0:0:0:
192,192,255574,1,0,0:0:0:0:
256,192,255784,1,8,0:0:0:0:
256,192,255889,1,8,0:0:0:0:
192,192,255994,1,0,0:0:0:0:
192,192,256099,1,0,0:0:0:0:
256,192,256204,1,8,0:0:0:0:
192,192,256309,1,8,0:0:0:0:
192,192,256413,1,0,0:0:0:0:
256,192,256518,1,0,0:0:0:0:
192,192,256623,1,8,0:0:0:0:
192,192,256833,1,0,0:0:0:0:
192,192,256938,1,0,0:0:0:0:
256,192,257043,1,8,0:0:0:0:
192,192,257253,1,0,0:0:0:0:
192,192,257672,1,0,0:0:0:0:
256,192,257882,1,8,0:0:0:0:
192,192,258092,1,8,0:0:0:0:
256,192,258197,1,8,0:0:0:0:
192,192,258302,1,0,0:0:0:0:
192,192,258511,1,0,0:0:0:0:
256,192,258721,1,8,0:0:0:0:
192,192,258931,1,0,0:0:0:0:
192,192,259350,1,0,0:0:0:0:
256,192,259560,1,12,0:0:0:0:
256,192,259770,1,8,0:0:0:0:
192,192,259980,1,4,0:0:0:0:
192,192,260295,1,0,0:0:0:0:
256,192,260399,1,8,0:0:0:0:
192,192,260609,1,0,0:0:0:0:
192,192,261029,1,0,0:0:0:0:
256,192,261239,1,8,0:0:0:0:
256,192,261448,1,12,0:0:0:0:
192,192,261868,1,0,0:0:0:0:
256,192,262078,1,12,0:0:0:0:
192,192,262288,1,0,0:0:0:0:
256,192,262497,1,8,0:0:0:0:
256,192,262602,1,8,0:0:0:0:
192,192,262707,1,0,0:0:0:0:
192,192,262812,1,0,0:0:0:0:
256,192,262917,1,8,0:0:0:0:
192,192,263022,1,0,0:0:0:0:
192,192,263127,1,0,0:0:0:0:
192,192,263232,1,0,0:0:0:0:
192,192,263337,1,8,0:0:0:0:
192,192,263651,1,0,0:0:0:0:
256,192,263756,1,8,0:0:0:0:
192,192,263966,1,0,0:0:0:0:
192,192,264385,1,0,0:0:0:0:
256,192,264595,1,8,0:0:0:0:
256,192,264805,1,8,0:0:0:0:
192,192,264910,1,8,0:0:0:0:
192,192,265015,1,0,0:0:0:0:
192,192,265225,1,0,0:0:0:0:
192,192,265330,1,0,0:0:0:0:
256,192,265434,1,8,0:0:0:0:
192,192,265644,1,0,0:0:0:0:
192,192,266064,1,0,0:0:0:0:
256,192,266274,1,8,0:0:0:0:
256,192,266483,1,8,0:0:0:0:
192,192,266693,1,0,0:0:0:0:
192,192,266903,1,0,0:0:0:0:
192,192,267008,1,0,0:0:0:0:
256,192,267113,1,8,0:0:0:0:
192,192,267323,1,0,0:0:0:0:
256,192,267532,1,8,0:0:0:0:
256,192,267637,1,8,0:0:0:0:
192,192,267742,1,0,0:0:0:0:
256,192,267952,1,8,0:0:0:0:
192,192,268162,1,4,0:0:0:0:
192,192,268581,1,0,0:0:0:0:
256,192,268791,1,8,0:0:0:0:
192,192,269001,1,4,0:0:0:0:
256,192,269316,1,8,0:0:0:0:
192,192,269420,1,0,0:0:0:0:
256,192,269630,1,8,0:0:0:0:
256,192,269840,1,8,0:0:0:0:
256,192,269945,1,8,0:0:0:0:
192,192,270050,1,0,0:0:0:0:
192,192,270260,1,0,0:0:0:0:
192,192,270364,1,0,0:0:0:0:
256,192,270469,1,8,0:0:0:0:
192,192,270679,1,0,0:0:0:0:
192,192,270889,1,0,0:0:0:0:
192,192,271099,1,0,0:0:0:0:
256,192,271309,1,8,0:0:0:0:
192,192,271518,1,0,0:0:0:0:
192,192,271938,1,0,0:0:0:0:
256,192,272148,1,0,0:0:0:0:
192,192,272357,1,8,0:0:0:0:
192,192,272777,1,0,0:0:0:0:
192,192,272882,1,0,0:0:0:0:
256,192,272987,1,8,0:0:0:0:
256,192,273197,1,8,0:0:0:0:
192,192,273406,1,0,0:0:0:0:
192,192,273616,1,0,0:0:0:0:
192,192,273721,1,0,0:0:0:0:
256,192,273826,1,8,0:0:0:0:
192,192,274036,1,0,0:0:0:0:
256,192,274246,1,8,0:0:0:0:
192,192,274455,1,0,0:0:0:0:
192,192,274665,1,0,0:0:0:0:
192,192,274875,1,12,0:0:0:0:
192,192,275295,1,0,0:0:0:0:
256,192,275504,1,8,0:0:0:0:
192,192,275714,1,0,0:0:0:0:
256,192,275924,1,8,0:0:0:0:
256,192,276029,1,8,0:0:0:0:
192,192,276134,1,0,0:0:0:0:
192,192,276239,1,0,0:0:0:0:
256,192,276343,1,8,0:0:0:0:
256,192,276448,1,8,0:0:0:0:
256,192,276553,1,8,0:0:0:0:
256,192,276658,1,8,0:0:0:0:
192,192,276763,1,0,0:0:0:0:
192,192,276973,1,0,0:0:0:0:
192,192,277078,1,0,0:0:0:0:
256,192,277183,1,8,0:0:0:0:
192,192,277392,1,0,0:0:0:0:
256,192,277602,1,8,0:0:0:0:
192,192,277812,1,0,0:0:0:0:
256,192,277917,1,8,0:0:0:0:
192,192,278127,1,0,0:0:0:0:
256,192,278232,1,8,0:0:0:0:
192,192,278651,1,0,0:0:0:0:
192,192,278756,1,0,0:0:0:0:
256,192,278861,1,8,0:0:0:0:
192,192,279071,1,0,0:0:0:0:
192,192,279176,1,0,0:0:0:0:
256,192,279281,1,8,0:0:0:0:
192,192,279385,1,0,0:0:0:0:
192,192,279490,1,0,0:0:0:0:
256,192,279595,1,8,0:0:0:0:
192,192,279700,1,0,0:0:0:0:
192,192,279805,1,0,0:0:0:0:
256,192,279910,1,8,0:0:0:0:
192,192,280120,1,0,0:0:0:0:
192,192,280330,1,0,0:0:0:0:
192,192,280434,1,0,0:0:0:0:
256,192,280539,1,8,0:0:0:0:
192,192,280749,1,0,0:0:0:0:
192,192,280854,1,0,0:0:0:0:
256,192,280959,1,8,0:0:0:0:
192,192,281169,1,0,0:0:0:0:
256,192,281274,1,8,0:0:0:0:
256,192,281588,1,8,0:0:0:0:
192,192,282008,1,0,0:0:0:0:
256,192,282218,1,8,0:0:0:0:
192,192,282427,1,0,0:0:0:0:
256,192,282742,1,8,0:0:0:0:
192,192,282847,1,0,0:0:0:0:
256,192,283057,1,8,0:0:0:0:
192,192,283267,1,0,0:0:0:0:
256,192,283371,1,8,0:0:0:0:
192,192,283476,1,0,0:0:0:0:
192,192,283686,1,0,0:0:0:0:
192,192,283791,1,0,0:0:0:0:
256,192,283896,1,8,0:0:0:0:
192,192,284106,1,0,0:0:0:0:
192,192,284211,1,0,0:0:0:0:
256,192,284316,1,8,0:0:0:0:
192,192,284525,1,0,0:0:0:0:
256,192,284630,1,8,0:0:0:0:
192,192,284945,1,0,0:0:0:0:
192,192,285364,1,0,0:0:0:0:
256,192,285574,1,8,0:0:0:0:
192,192,285784,1,0,0:0:0:0:
192,192,286204,1,0,0:0:0:0:
256,192,286413,1,8,0:0:0:0:
256,192,286623,1,8,0:0:0:0:
192,192,286833,1,4,0:0:0:0:
192,192,287043,1,0,0:0:0:0:
192,192,287148,1,0,0:0:0:0:
256,192,287253,1,8,0:0:0:0:
192,192,287462,1,0,0:0:0:0:
192,192,287567,1,0,0:0:0:0:
256,192,287672,1,8,0:0:0:0:
192,192,287882,1,0,0:0:0:0:
256,192,287987,1,8,0:0:0:0:
256,192,288302,1,12,0:0:0:0:
192,192,288721,1,0,0:0:0:0:
256,192,288931,1,12,0:0:0:0:
192,192,289141,1,0,0:0:0:0:
256,192,289350,1,8,0:0:0:0:
256,192,289455,1,8,0:0:0:0:
192,192,289560,1,0,0:0:0:0:
192,192,289665,1,0,0:0:0:0:
256,192,289770,1,8,0:0:0:0:
192,192,289875,1,0,0:0:0:0:
192,192,289980,1,0,0:0:0:0:
192,192,290085,1,0,0:0:0:0:
192,192,290190,1,0,0:0:0:0:
192,192,290504,1,0,0:0:0:0:
256,192,290609,1,8,0:0:0:0:
192,192,290819,1,0,0:0:0:0:
192,192,291239,1,0,0:0:0:0:
256,192,291448,1,8,0:0:0:0:
192,192,291658,1,0,0:0:0:0:
192,192,291763,1,0,0:0:0:0:
192,192,291868,1,0,0:0:0:0:
192,192,292078,1,0,0:0:0:0:
256,192,292288,1,8,0:0:0:0:
192,192,292497,1,0,0:0:0:0:
192,192,292917,1,0,0:0:0:0:
256,192,293127,1,8,0:0:0:0:
256,192,293337,1,8,0:0:0:0:
256,192,293441,1,8,0:0:0:0:
192,192,293546,1,0,0:0:0:0:
192,192,293756,1,0,0:0:0:0:
192,192,293861,1,0,0:0:0:0:
256,192,293966,1,8,0:0:0:0:
192,192,294176,1,0,0:0:0:0:
192,192,294595,1,0,0:0:0:0:
256,192,294805,1,8,0:0:0:0:
192,192,295015,1,0,0:0:0:0:
192,192,295434,1,0,0:0:0:0:
256,192,295644,1,8,0:0:0:0:
192,192,295854,1,0,0:0:0:0:
192,192,296064,1,0,0:0:0:0:
256,192,296169,1,8,0:0:0:0:
192,192,296274,1,0,0:0:0:0:
256,192,296483,1,8,0:0:0:0:
256,192,296693,1,8,0:0:0:0:
256,192,296798,1,8,0:0:0:0:
192,192,296903,1,0,0:0:0:0:
192,192,297113,1,0,0:0:0:0:
192,192,297218,1,0,0:0:0:0:
256,192,297323,1,8,0:0:0:0:
192,192,297532,1,0,0:0:0:0:
192,192,297742,1,0,0:0:0:0:
192,192,297847,1,0,0:0:0:0:
192,192,297952,1,0,0:0:0:0:
256,192,298162,1,8,0:0:0:0:
192,192,298371,1,0,0:0:0:0:
192,192,298791,1,0,0:0:0:0:
256,192,299001,1,8,0:0:0:0:
192,192,299211,1,0,0:0:0:0:
192,192,299630,1,0,0:0:0:0:
256,192,299840,1,12,0:0:0:0:
192,192,300050,1,0,0:0:0:0:
192,192,300260,1,0,0:0:0:0:
192,192,300469,1,0,0:0:0:0:
192,192,300574,1,0,0:0:0:0:
256,192,300679,1,8,0:0:0:0:
192,192,300889,1,0,0:0:0:0:
256,192,301099,1,8,0:0:0:0:
192,192,301309,1,0,0:0:0:0:
192,192,301518,1,0,0:0:0:0:
192,192,301728,1,12,0:0:0:0:
192,192,302148,1,0,0:0:0:0:
256,192,302357,1,8,0:0:0:0:
192,192,302567,1,0,0:0:0:0:
256,192,302777,1,8,0:0:0:0:
256,192,302882,1,8,0:0:0:0:
192,192,302987,1,0,0:0:0:0:
256,192,303197,1,8,0:0:0:0:
192,192,303302,1,0,0:0:0:0:
192,192,303406,1,0,0:0:0:0:
192,192,303511,1,0,0:0:0:0:
256,192,303616,12,0,310330,0:0:0:0:
