osu file format v14

[General]
AudioFilename: FELTLittle NovaTouhou.mp3
AudioLeadIn: 0
PreviewTime: 71169
Countdown: 0
SampleSet: Normal
StackLeniency: 0.7
Mode: 1
LetterboxInBreaks: 0
SkinPreference:taikyuyuko
WidescreenStoryboard: 0

[Editor]
DistanceSpacing: 0.5
BeatDivisor: 4
GridSize: 32
TimelineZoom: 1

[Metadata]
Title:Little Nova
TitleUnicode:Little Nova
Artist:FELT
ArtistUnicode:FELT
Creator:Flaus
Version:Kantan
Source:東方 Project
Tags:touhou yuyuko saigyouji FELT vocal NAGI☆ Maika Little Planet perfect cherry blossom
BeatmapID:687638
BeatmapSetID:305677

[Difficulty]
HPDrainRate:3
CircleSize:5
OverallDifficulty:3
ApproachRate:5
SliderMultiplier:1.4
SliderTickRate:2

[Events]
//Background and Video events
0,0,"Saigyouji.Yuyuko.full.1708688.jpg",0,65
//Break Periods
2,105774,117801
2,223257,235283
//Storyboard Layer 0 (Background)
//Storyboard Layer 1 (Fail)
//Storyboard Layer 2 (Pass)
//Storyboard Layer 3 (Foreground)
//Storyboard Sound Samples

[TimingPoints]
23337,419.58041958042,4,1,0,100,1,0
23757,-100,4,1,0,60,0,0
36764,-100,4,1,0,100,0,0
38232,-100,4,1,0,60,0,0
40120,-100,4,1,0,100,0,0
41589,-100,4,1,0,80,0,0
43477,-100,4,1,0,100,0,0
44945,-100,4,1,0,60,0,0
46834,-100,4,1,0,100,0,0
48092,-100,4,1,0,60,0,0
50190,-100,4,1,0,100,0,0
50820,-100,4,1,0,80,0,0
53547,-100,4,1,0,100,0,0
53862,-100,4,1,0,80,0,0
62568,-100,4,1,0,100,0,0
62987,-100,4,1,0,80,0,0
71169,-100,4,1,0,80,0,0
71589,-100,4,1,0,90,0,0
72008,-100,4,1,0,100,0,1
98862,-100,4,1,0,100,0,0
99176,-100,4,1,0,80,0,0
102218,-100,4,1,0,100,0,0
102638,-100,4,1,0,80,0,0
103267,-100,4,1,0,100,0,0
103897,-100,4,1,0,60,0,0
119001,-100,4,1,0,100,0,0
120470,-100,4,1,0,60,0,0
125715,-100,4,1,0,100,0,0
126973,-100,4,1,0,60,0,0
132428,-100,4,1,0,100,0,0
132848,-100,4,1,0,80,0,0
135785,-100,4,1,0,100,0,0
136414,-100,4,1,0,80,0,0
139141,-100,4,1,0,100,0,0
139771,-100,4,1,0,80,0,0
142498,-100,4,1,0,100,0,0
142813,-100,4,1,0,80,0,0
145855,-100,4,1,0,100,0,0
146169,-100,4,1,0,80,0,0
151519,-100,4,1,0,100,0,0
151938,-100,4,1,0,80,0,0
152778,-100,4,1,0,80,0,0
152987,-100,4,1,0,90,0,0
153197,-100,4,1,0,100,0,0
153617,-100,4,1,0,100,0,0
154246,-100,4,1,0,100,0,1
181099,-100,4,1,0,100,0,0
181729,-100,4,1,0,30,0,0
184456,-100,4,1,0,20,0,0
186973,-100,4,1,0,60,0,0
188442,-100,4,1,0,40,0,0
191169,-100,4,1,0,60,0,0
191799,-100,4,1,0,40,0,0
194526,-100,4,1,0,60,0,0
207952,-100,4,1,0,80,0,0
211938,-100,4,1,0,100,0,0
212358,-100,4,1,0,80,0,0
216344,-100,4,1,0,100,0,0
217393,-100,4,1,0,80,0,0
218232,-100,4,1,0,100,0,0
219701,-100,4,1,0,60,0,0
237113,-100,4,1,0,60,0,0
243197,-100,4,1,0,100,0,0
245924,-100,4,1,0,60,0,0
246554,-100,4,1,0,100,0,0
246973,-100,4,1,0,60,0,0
248442,-100,4,1,0,60,0,0
248652,-100,4,1,0,80,0,0
248862,-100,4,1,0,100,0,0
249281,-100,4,1,0,100,0,0
249491,-100,4,1,0,100,0,0
249911,-100,4,1,0,100,0,1
276764,-100,4,1,0,100,0,0
276973,-100,4,1,0,80,0,0
303617,-100,4,1,0,30,0,0
310330,-100,4,1,0,20,0,0

[HitObjects]
256,192,23337,5,12,0:0:0:0:
192,192,25015,1,0,0:0:0:0:
256,192,26693,1,0,0:0:0:0:
192,192,28371,1,0,0:0:0:0:
256,192,30050,1,12,0:0:0:0:
192,192,31728,1,0,0:0:0:0:
192,192,33406,1,0,0:0:0:0:
192,192,35085,1,0,0:0:0:0:
256,192,36763,1,12,0:0:0:0:
192,192,38441,1,0,0:0:0:0:
256,192,40120,1,12,0:0:0:0:
192,192,41798,1,0,0:0:0:0:
256,192,43476,1,12,0:0:0:0:
192,192,45155,1,0,0:0:0:0:
256,192,46833,1,12,0:0:0:0:
192,192,48511,1,0,0:0:0:0:
96,128,49350,2,0,L|384:128,1,280
192,192,51029,1,8,0:0:0:0:
192,192,51868,1,0,0:0:0:0:
256,192,53546,1,12,0:0:0:0:
192,192,54385,1,0,0:0:0:0:
192,192,55225,1,0,0:0:0:0:
192,192,56903,1,12,0:0:0:0:
192,192,57742,1,0,0:0:0:0:
192,192,58581,1,8,0:0:0:0:
192,192,59420,1,0,0:0:0:0:
256,192,60260,1,12,0:0:0:0:
256,192,61099,1,0,0:0:0:0:
256,192,61938,1,8,0:0:0:0:
256,192,62777,1,8,0:0:0:0:
192,192,63197,1,8,0:0:0:0:
192,192,63616,1,4,0:0:0:0:
256,192,64455,1,12,0:0:0:0:
192,192,65295,1,0,0:0:0:0:
256,192,66134,1,8,0:0:0:0:
256,192,66973,1,0,0:0:0:0:
192,192,67812,1,8,0:0:0:0:
192,192,68651,1,12,0:0:0:0:
0,192,69490,2,0,B|576:192|576:192|608:192,1,560
192,192,72008,1,12,0:0:0:0:
192,192,72847,1,0,0:0:0:0:
192,192,73686,1,8,0:0:0:0:
192,192,74525,1,0,0:0:0:0:
256,192,74945,1,8,0:0:0:0:
256,192,75364,1,8,0:0:0:0:
256,192,76204,1,8,0:0:0:0:
256,192,77043,1,0,0:0:0:0:
256,192,77882,1,8,0:0:0:0:
256,192,78302,1,0,0:0:0:0:
256,192,78721,1,8,0:0:0:0:
192,192,79560,1,8,0:0:0:0:
256,192,80399,1,0,0:0:0:0:
192,192,81239,1,0,0:0:0:0:
256,192,81658,1,8,0:0:0:0:
192,192,82078,1,0,0:0:0:0:
256,192,82917,1,8,0:0:0:0:
128,160,83756,2,0,L|512:160|544:160,1,280
192,192,85434,1,12,0:0:0:0:
192,192,86274,1,0,0:0:0:0:
192,192,87113,1,8,0:0:0:0:
192,192,87952,1,0,0:0:0:0:
256,192,88371,1,8,0:0:0:0:
256,192,88791,1,8,0:0:0:0:
192,192,89630,1,8,0:0:0:0:
256,192,90469,1,0,0:0:0:0:
192,192,91309,1,0,0:0:0:0:
192,192,91728,1,0,0:0:0:0:
192,192,92148,1,12,0:0:0:0:
192,192,93826,1,0,0:0:0:0:
256,192,94665,1,8,0:0:0:0:
192,192,95085,1,0,0:0:0:0:
192,192,95504,1,0,0:0:0:0:
256,192,96343,1,8,0:0:0:0:
64,128,97183,2,8,L|640:128,1,560
256,192,99700,1,8,0:0:0:0:
256,192,100539,1,0,0:0:0:0:
192,192,102218,1,0,0:0:0:0:
192,192,103057,1,12,0:0:0:0:
256,192,103896,12,0,105574,0:0:0:0:
256,192,119001,5,12,0:0:0:0:
192,192,120679,1,0,0:0:0:0:
256,192,122357,1,12,0:0:0:0:
192,192,124036,1,0,0:0:0:0:
256,192,125714,1,12,0:0:0:0:
192,192,127392,1,0,0:0:0:0:
256,192,129071,1,12,0:0:0:0:
256,192,130749,1,0,0:0:0:0:
96,128,131588,2,0,L|416:128,1,280
192,192,133267,1,0,0:0:0:0:
192,192,134106,1,8,0:0:0:0:
256,192,134945,1,0,0:0:0:0:
256,192,135784,1,12,0:0:0:0:
192,192,136623,1,0,0:0:0:0:
256,192,137462,1,0,0:0:0:0:
192,192,139141,1,4,0:0:0:0:
256,192,139980,1,0,0:0:0:0:
256,192,140819,1,8,0:0:0:0:
256,192,141239,1,8,0:0:0:0:
192,192,141658,1,0,0:0:0:0:
192,192,142497,1,4,0:0:0:0:
256,192,143337,1,8,0:0:0:0:
192,192,144176,1,0,0:0:0:0:
256,192,145015,1,0,0:0:0:0:
256,192,145434,1,8,0:0:0:0:
192,192,145854,1,12,0:0:0:0:
256,192,146693,1,0,0:0:0:0:
192,192,147532,1,0,0:0:0:0:
256,192,148371,1,8,0:0:0:0:
192,192,149211,1,8,0:0:0:0:
256,192,150050,1,8,0:0:0:0:
192,192,150889,1,12,0:0:0:0:
128,128,151728,2,0,L|544:128,1,280
192,192,153406,1,0,0:0:0:0:
256,192,153826,1,12,0:0:0:0:
192,192,154246,1,12,0:0:0:0:
192,192,155085,1,0,0:0:0:0:
192,192,155924,1,8,0:0:0:0:
192,192,156763,1,0,0:0:0:0:
224,192,157602,1,8,0:0:0:0:
256,192,158441,1,8,0:0:0:0:
256,192,159281,1,8,0:0:0:0:
192,192,160120,1,0,0:0:0:0:
192,192,160539,1,8,0:0:0:0:
256,192,160959,1,12,0:0:0:0:
192,192,161798,1,0,0:0:0:0:
256,192,162637,1,8,0:0:0:0:
192,192,163476,1,0,0:0:0:0:
256,192,163896,1,8,0:0:0:0:
192,192,164316,1,0,0:0:0:0:
192,192,165155,1,0,0:0:0:0:
256,192,165994,1,8,0:0:0:0:
96,160,166833,2,8,L|416:160,1,280
192,192,168511,1,8,0:0:0:0:
256,192,169350,1,8,0:0:0:0:
192,192,170190,1,0,0:0:0:0:
256,192,171029,1,8,0:0:0:0:
192,192,171868,1,8,0:0:0:0:
192,192,172707,1,0,0:0:0:0:
192,192,173546,1,8,0:0:0:0:
192,192,173966,1,0,0:0:0:0:
192,192,174385,1,4,0:0:0:0:
256,192,176064,1,12,0:0:0:0:
192,192,176903,1,0,0:0:0:0:
192,192,177742,1,0,0:0:0:0:
256,192,178581,1,8,0:0:0:0:
192,192,179001,1,0,0:0:0:0:
256,192,179420,1,12,0:0:0:0:
128,128,180260,2,8,L|448:128,1,280
256,192,181728,12,8,184455,0:0:0:0:
256,192,186973,5,8,0:0:0:0:
256,192,188651,1,8,0:0:0:0:
256,192,189490,1,8,0:0:0:0:
256,192,190330,1,8,0:0:0:0:
192,192,191169,1,0,0:0:0:0:
256,192,192847,1,8,0:0:0:0:
192,192,194525,1,4,0:0:0:0:
256,192,195364,1,8,0:0:0:0:
256,192,196204,1,8,0:0:0:0:
192,192,197043,1,0,0:0:0:0:
192,192,197882,1,4,0:0:0:0:
256,192,198721,1,8,0:0:0:0:
256,192,199560,1,12,0:0:0:0:
192,192,200399,1,0,0:0:0:0:
256,192,200819,1,0,0:0:0:0:
192,192,201239,1,12,0:0:0:0:
192,192,202078,1,8,0:0:0:0:
256,192,202917,1,8,0:0:0:0:
192,192,203756,1,0,0:0:0:0:
192,192,204176,1,0,0:0:0:0:
192,192,204595,1,4,0:0:0:0:
256,192,205434,1,8,0:0:0:0:
256,192,206274,1,12,0:0:0:0:
256,192,207113,1,8,0:0:0:0:
192,192,207532,1,0,0:0:0:0:
192,192,207952,1,4,0:0:0:0:
256,192,208791,1,8,0:0:0:0:
256,192,209630,1,8,0:0:0:0:
256,192,210469,1,8,0:0:0:0:
192,192,211309,1,4,0:0:0:0:
192,192,212987,1,0,0:0:0:0:
192,192,213826,1,0,0:0:0:0:
256,192,214246,1,8,0:0:0:0:
192,192,214665,5,4,0:0:0:0:
256,192,215504,1,8,0:0:0:0:
256,192,216343,1,12,0:0:0:0:
192,192,218022,1,4,0:0:0:0:
256,192,218861,1,8,0:0:0:0:
256,192,219700,12,0,223057,0:0:0:0:
256,192,236483,5,8,0:0:0:0:
256,192,238162,1,8,0:0:0:0:
256,192,239840,1,8,0:0:0:0:
256,192,241518,1,8,0:0:0:0:
256,192,242777,1,8,0:0:0:0:
192,192,243197,1,4,0:0:0:0:
192,192,244875,1,0,0:0:0:0:
256,192,246134,1,8,0:0:0:0:
192,192,246553,1,0,0:0:0:0:
192,192,247392,1,0,0:0:0:0:
256,192,248232,1,8,0:0:0:0:
192,192,249071,1,0,0:0:0:0:
256,192,249490,1,12,0:0:0:0:
192,192,249910,1,12,0:0:0:0:
192,192,250749,1,0,0:0:0:0:
256,192,251588,1,8,0:0:0:0:
192,192,252427,1,0,0:0:0:0:
256,192,253267,1,8,0:0:0:0:
192,192,254106,1,8,0:0:0:0:
192,192,254945,1,8,0:0:0:0:
192,192,255784,1,0,0:0:0:0:
192,192,256204,1,8,0:0:0:0:
256,192,256623,1,12,0:0:0:0:
192,192,257462,1,0,0:0:0:0:
192,192,258302,1,8,0:0:0:0:
192,192,259141,1,8,0:0:0:0:
256,192,259560,1,8,0:0:0:0:
192,192,259980,1,0,0:0:0:0:
256,192,260819,1,0,0:0:0:0:
256,192,261239,1,0,0:0:0:0:
256,192,261658,1,12,0:0:0:0:
96,128,262497,2,0,L|416:128,1,280
192,192,264176,1,0,0:0:0:0:
256,192,264595,1,8,0:0:0:0:
256,192,265015,1,8,0:0:0:0:
192,192,265854,1,0,0:0:0:0:
256,192,266693,1,8,0:0:0:0:
256,192,267532,1,8,0:0:0:0:
192,192,268371,1,4,0:0:0:0:
256,192,269211,1,8,0:0:0:0:
192,192,270050,1,4,0:0:0:0:
256,192,270889,1,0,0:0:0:0:
256,192,271728,1,12,0:0:0:0:
192,192,272567,1,0,0:0:0:0:
256,192,272987,1,8,0:0:0:0:
192,192,273406,1,0,0:0:0:0:
256,192,274246,1,8,0:0:0:0:
256,192,275085,1,8,0:0:0:0:
96,128,275924,2,0,L|416:128,1,280
256,192,277602,1,8,0:0:0:0:
256,192,278441,1,8,0:0:0:0:
256,192,279281,1,8,0:0:0:0:
192,192,279700,1,8,0:0:0:0:
192,192,280120,1,0,0:0:0:0:
256,192,280959,1,8,0:0:0:0:
256,192,281798,1,8,0:0:0:0:
256,192,282637,1,8,0:0:0:0:
192,192,283057,1,0,0:0:0:0:
192,192,283476,1,0,0:0:0:0:
256,192,284316,1,8,0:0:0:0:
256,192,285155,1,8,0:0:0:0:
256,192,285994,1,8,0:0:0:0:
192,192,286833,1,0,0:0:0:0:
192,192,287253,1,0,0:0:0:0:
192,192,287672,1,8,0:0:0:0:
256,192,288511,1,12,0:0:0:0:
128,128,289350,2,8,L|416:128,1,280
192,192,291029,1,0,0:0:0:0:
192,192,291868,1,0,0:0:0:0:
256,192,292707,1,8,0:0:0:0:
256,192,293127,1,0,0:0:0:0:
256,192,293546,1,0,0:0:0:0:
192,192,294385,1,0,0:0:0:0:
192,192,295225,1,12,0:0:0:0:
192,192,296064,1,0,0:0:0:0:
192,192,296483,1,0,0:0:0:0:
256,192,296903,1,12,0:0:0:0:
192,192,298581,1,4,0:0:0:0:
192,192,300260,1,0,0:0:0:0:
192,192,300679,1,8,0:0:0:0:
256,192,301099,1,0,0:0:0:0:
192,192,301938,1,4,0:0:0:0:
256,192,302777,1,8,0:0:0:0:
256,192,303197,1,8,0:0:0:0:
256,192,303616,12,0,310330,0:0:0:0:
