osu file format v13

[General]
AudioFilename: In my room.mp3
AudioLeadIn: 721
PreviewTime: 12915
Countdown: 0
SampleSet: Normal
StackLeniency: 0.3
Mode: 0
LetterboxInBreaks: 0
WidescreenStoryboard: 0

[Editor]
Bookmarks: 5642,7097,10006,11460,20188,23097,26006,29642,30369,35824
DistanceSpacing: 0.8
BeatDivisor: 4
GridSize: 4
TimelineZoom: 1.6

[Metadata]
Title:In my room
TitleUnicode:In my room
Artist:FELT
ArtistUnicode:FELT
Creator:Aka
Version:Tranquility
Source:
Tags:nagi☆ Grow Color Comiket 85
BeatmapID:486513
BeatmapSetID:206284

[Difficulty]
HPDrainRate:7
CircleSize:4
OverallDifficulty:7
ApproachRate:9
SliderMultiplier:1.6
SliderTickRate:1

[Events]
//Background and Video events
0,0,"fnkjdfd.jpg",0,0
//Break Periods
//Storyboard Layer 0 (Background)
//Storyboard Layer 1 (Fail)
//Storyboard Layer 2 (Pass)
//Storyboard Layer 3 (Foreground)
//Storyboard Sound Samples
//Background Colour Transformations
3,100,163,162,255

[TimingPoints]
1279,363.636363636364,4,1,1,45,1,0
9642,-100,4,1,1,20,0,0
9733,-100,4,1,1,45,0,0
10006,-100,4,1,1,30,0,0
10097,-100,4,1,1,45,0,0
10551,-100,4,1,1,35,0,0
10642,-100,4,1,1,45,0,0
11097,-100,4,1,1,35,0,0
11188,-100,4,1,1,45,0,0
11642,-100,4,1,1,35,0,0
11733,-100,4,1,1,45,0,0
12188,-100,4,1,1,20,0,0
12279,-100,4,1,1,45,0,0
12915,-100,4,1,1,60,0,0
15097,-100,4,1,1,45,0,0
15188,-100,4,1,1,60,0,0
17279,-100,4,1,1,45,0,0
17369,-100,4,1,1,60,0,0
17824,-100,4,1,1,50,0,0
17915,-100,4,1,1,60,0,0
18369,-100,4,1,1,45,0,0
18460,-100,4,1,1,60,0,0
20915,-100,4,1,1,50,0,0
21006,-100,4,1,1,60,0,0
23097,-100,4,1,1,45,0,0
23188,-100,4,1,1,60,0,0
23824,-100,4,1,1,50,0,0
23915,-100,4,1,1,60,0,0
24188,-100,4,1,1,45,0,0
24279,-100,4,1,1,60,0,0
26551,-100,4,1,1,50,0,0
26824,-100,4,1,1,60,0,0
29460,-100,4,1,1,45,0,0
29551,-100,4,1,1,60,0,0
30006,-100,4,1,1,50,0,0
30097,-100,4,1,1,60,0,0
32551,-100,4,1,1,50,0,0
32642,-100,4,1,1,60,0,0
35097,-100,4,1,1,40,0,0
35188,-100,4,1,1,50,0,0
35733,-100,4,1,1,40,0,0

[Colours]
Combo1 : 23,125,238
Combo2 : 248,105,44
Combo3 : 15,189,255
Combo4 : 224,224,224

[HitObjects]
369,55,1279,54,0,P|356:92|354:132,1,80,4|0,0:0|0:0,0:0:0:0:
376,226,1642,1,0,3:0:0:0:
461,181,1824,1,2,1:0:0:0:
283,193,2006,2,0,L|196:186,1,80,0|0,2:0|0:0,0:0:0:0:
97,256,2369,1,2,0:0:0:0:
203,186,2551,1,0,0:0:0:0:
269,296,2733,6,0,P|303:315|352:318,1,80,0|2,0:0|0:0,0:0:0:0:
434,172,3097,2,0,P|400:153|351:150,1,80,2|0,0:0|0:0,0:0:0:0:
343,319,3460,1,2,1:0:0:0:
426,271,3642,1,0,0:0:0:0:
341,224,3824,1,0,3:0:0:0:
259,274,4006,1,0,3:0:0:0:
406,161,4188,6,0,L|389:79,1,80,2|0,1:0|0:0,0:0:0:0:
311,26,4551,1,0,0:0:0:0:
294,120,4733,1,2,1:0:0:0:
219,59,4915,2,0,P|180:54|128:65,1,80,2|0,1:0|0:0,0:0:0:0:
106,200,5279,1,2,1:0:0:0:
195,167,5460,1,0,0:0:0:0:
34,150,5642,2,0,P|26:190|26:229,1,80,0|2,0:0|1:0,0:0:0:0:
135,306,6006,1,0,0:0:0:0:
211,247,6188,5,2,0:0:0:0:
228,217,6279,1,0,0:0:0:0:
233,183,6369,2,0,P|268:203|309:207,1,80,2|0,0:0|1:0,0:0:0:0:
379,80,6733,2,0,P|338:87|305:111,1,80,2|0,0:0|3:0,0:0:0:0:
301,298,7097,1,2,0:0:0:0:
439,261,7279,1,0,0:0:0:0:
305,210,7460,1,0,0:0:0:0:
382,329,7642,1,2,0:0:0:0:
391,187,7824,6,0,P|398:136|392:79,1,80,2|0,0:0|0:0,0:0:0:0:
218,235,8188,2,0,P|211:184|217:127,1,80,2|0,0:0|0:0,0:0:0:0:
251,67,8551,1,0,0:0:0:0:
288,155,8733,1,2,0:0:0:0:
140,116,8915,1,0,0:0:0:0:
160,23,9097,1,2,0:0:0:0:
205,180,9279,2,0,L|199:278,1,80,2|0,0:0|0:0,0:0:0:0:
95,293,9642,2,0,L|91:214,1,80,8|0,0:0|0:0,0:0:0:0:
161,117,10006,5,10,0:0:0:0:
263,129,10188,1,0,0:0:0:0:
355,96,10369,1,0,0:0:0:0:
444,130,10551,5,10,0:0:0:0:
337,144,10733,1,0,0:0:0:0:
246,104,10915,1,0,0:0:0:0:
144,132,11097,6,0,P|96:146|56:140,1,80,10|0,0:0|0:0,0:0:0:0:
173,33,11460,1,0,0:0:0:0:
247,181,11642,1,10,0:0:0:0:
152,224,11824,1,0,0:0:0:0:
316,251,12006,1,2,0:0:0:0:
344,270,12097,1,0,0:0:0:0:
367,294,12188,2,0,P|317:293|268:322,1,80,10|0,0:0|0:0,0:0:0:0:
104,355,12551,2,0,P|152:363|205:342,1,80,0|0,3:0|3:0,0:0:0:0:
241,217,12915,6,0,P|225:148|236:116,1,80,10|0,3:0|3:0,0:0:0:0:
250,38,13279,1,0,0:0:0:0:
226,140,13460,1,0,3:0:0:0:
354,110,13642,2,0,P|424:116|451:136,1,80,2|0,0:0|3:0,0:0:0:0:
447,250,14006,1,0,0:0:0:0:
349,214,14188,1,2,0:0:0:0:
453,81,14369,1,0,0:0:0:0:
511,167,14551,1,0,3:0:0:0:
354,110,14733,2,0,P|330:51|339:15,1,80,2|0,0:0|3:0,0:0:0:0:
271,192,15097,6,0,P|255:238|223:270,1,80,8|0,2:0|0:0,0:0:0:0:
132,280,15460,1,0,3:0:0:0:
166,181,15642,1,0,3:0:0:0:
341,261,15824,2,0,P|388:273|438:260,1,80,2|0,0:0|3:0,0:0:0:0:
490,192,16188,1,0,0:0:0:0:
389,166,16369,1,0,3:0:0:0:
262,276,16551,2,0,L|251:366,1,80,2|0,0:0|3:0,0:0:0:0:
207,146,16915,2,0,L|197:66,1,80,2|2,0:0|0:0,0:0:0:0:
160,243,17279,5,8,0:0:0:0:
262,260,17460,1,2,0:0:0:0:
357,219,17642,1,2,0:0:0:0:
454,254,17824,1,8,0:0:0:0:
477,279,17915,1,0,0:0:0:0:
486,312,18006,2,0,P|431:309|391:321,1,80,2|0,0:0|0:0,0:0:0:0:
208,325,18369,2,0,P|244:341|293:337,1,80,10|0,0:0|0:0,0:0:0:0:
368,211,18733,6,0,P|372:176|356:116,1,80,2|0,1:0|3:0,0:0:0:0:
283,64,19097,1,0,0:0:0:0:
363,132,19279,1,0,3:0:0:0:
180,168,19460,1,2,0:0:0:0:
269,145,19642,1,0,3:0:0:0:
104,126,19824,2,0,P|95:165|100:205,1,80,0|2,0:0|0:0,0:0:0:0:
379,253,20188,2,0,P|388:214|385:175,1,80,10|0,0:0|3:0,0:0:0:0:
180,168,20551,1,2,0:0:0:0:
312,208,20733,1,2,0:0:0:0:
207,314,20915,5,8,2:0:0:0:
107,220,21097,1,0,0:0:0:0:
241,234,21279,1,0,3:0:0:0:
110,303,21460,2,0,P|84:346|77:386,1,80,0|2,3:0|0:0,0:0:0:0:
220,343,21824,1,0,3:0:0:0:
314,250,22006,2,0,P|307:210|288:175,1,80,0|0,3:0|3:0,0:0:0:0:
182,95,22369,2,0,L|84:102,1,80,2|0,0:0|0:0,0:0:0:0:
327,99,22733,2,0,L|423:93,1,80,0|2,0:0|0:0,0:0:0:0:
240,213,23097,5,10,0:0:0:0:
136,223,23279,1,0,3:0:0:0:
217,312,23460,1,2,0:0:0:0:
319,294,23642,1,2,0:0:0:0:
352,287,23733,1,0,0:0:0:0:
385,281,23824,2,0,L|290:259,1,80,10|0,0:0|3:0,0:0:0:0:
121,132,24188,2,0,L|198:150,1,80,10|0,0:0|3:0,0:0:0:0:
365,180,24551,5,4,0:0:0:0:
451,121,24733,1,0,3:0:0:0:
384,41,24915,1,0,0:0:0:0:
395,221,25097,1,0,3:0:0:0:
293,120,25279,2,0,P|248:103|208:101,1,80,2|0,0:0|3:0,0:0:0:0:
269,265,25642,2,0,P|251:220|219:190,1,80,0|0,0:0|0:0,0:0:0:0:
130,165,26006,1,2,0:0:0:0:
65,256,26188,1,0,3:0:0:0:
175,269,26369,1,2,0:0:0:0:
23,168,26551,5,8,0:0:0:0:
110,73,26733,2,0,P|154:56|207:58,1,80,8|0,2:0|3:0,0:0:0:0:
312,114,27097,1,2,0:0:0:0:
262,212,27279,2,0,P|222:201|182:203,1,80,2|2,0:0|0:0,0:0:0:0:
43,298,27642,1,0,3:0:0:0:
127,343,27824,2,0,P|167:348|206:338,1,80,0|2,3:0|0:0,0:0:0:0:
313,301,28188,2,0,L|327:396,1,80,0|2,3:0|0:0,0:0:0:0:
371,210,28551,6,0,L|359:130,1,80,0|2,3:0|3:0,0:0:0:0:
429,299,28915,1,2,0:0:0:0:
281,216,29097,1,2,0:0:0:0:
464,204,29279,1,2,0:0:0:0:
280,300,29460,1,10,0:0:0:0:
248,288,29551,1,0,0:0:0:0:
222,266,29642,2,0,P|201:227|198:189,1,80,2|0,0:0|3:0,0:0:0:0:
345,133,30006,2,0,P|366:94|369:56,1,80,8|0,2:0|0:0,0:0:0:0:
259,179,30369,5,2,1:0:0:0:
367,207,30551,1,0,3:0:0:0:
447,129,30733,1,2,0:0:0:0:
339,96,30915,1,0,3:0:0:0:
436,238,31097,2,0,P|469:251|517:249,1,80,2|0,0:0|3:0,0:0:0:0:
298,282,31460,2,0,P|261:278|214:287,1,80,0|2,0:0|0:0,0:0:0:0:
359,348,31824,5,0,0:0:0:0:
444,324,32006,1,0,3:0:0:0:
316,193,32188,1,2,0:0:0:0:
231,217,32370,1,0,0:0:0:0:
392,151,32551,2,0,P|412:110|412:61,1,80,8|0,2:0|3:0,0:0:0:0:
316,104,32915,1,0,3:0:0:0:
292,264,33097,2,0,P|274:307|238:339,1,80,0|2,3:0|0:0,0:0:0:0:
191,248,33460,2,0,P|152:258|113:255,1,80,0|0,3:0|0:0,0:0:0:0:
38,181,33824,5,2,0:0:0:0:
187,59,34006,1,0,0:0:0:0:
221,157,34188,1,0,3:0:0:0:
119,134,34369,1,2,0:0:0:0:
289,78,34551,1,0,3:0:0:0:
396,184,34733,5,2,0:0:0:0:
295,212,34915,1,2,0:0:0:0:
393,91,35097,1,8,0:0:0:0:
496,103,35279,1,8,0:0:0:0:
412,310,35460,6,0,L|322:305,1,80,2|0,0:0|3:0,0:0:0:0:
111,183,35824,2,0,L|203:189,1,80,4|4,0:0|3:0,0:0:0:0:
