osu file format v14

[General]
AudioFilename: Felt - Hail Storm.mp3
AudioLeadIn: 500
PreviewTime: 76404
Countdown: 0
SampleSet: Soft
StackLeniency: 0.7
Mode: 0
LetterboxInBreaks: 0
WidescreenStoryboard: 1

[Editor]
Bookmarks: 16068,30396,59053,76963,105620,112784,127113,141441,159351,188008,202337,213083,223829,236366,238157,252486,266814
DistanceSpacing: 1
BeatDivisor: 4
GridSize: 4
TimelineZoom: 1.4

[Metadata]
Title:Hail Storm
TitleUnicode:Hail Storm
Artist:FELT
ArtistUnicode:FELT
Creator:RandomEffect
Version:Lunatic
Source:東方Project
Tags:Touhou cirno maika mika NAGI☆ Icicle Fall Beloved Tomboyish Girl おてんば恋娘 reitaisai 10
BeatmapID:449364
BeatmapSetID:172312

[Difficulty]
HPDrainRate:6.5
CircleSize:4
OverallDifficulty:7
ApproachRate:8
SliderMultiplier:2
SliderTickRate:1

[Events]
//Background and Video events
0,0,"b6.jpg",0,0
//Break Periods
2,188207,199572
2,224029,235616
//Storyboard Layer 0 (Background)
//Storyboard Layer 1 (Fail)
//Storyboard Layer 2 (Pass)
//Storyboard Layer 3 (Foreground)
//Storyboard Sound Samples

[TimingPoints]
1740,447.761194029851,4,2,1,60,1,0
1740,-100,4,2,1,40,0,0
1851,-100,4,2,1,60,0,0
5322,-100,4,2,1,40,0,0
5434,-100,4,2,1,60,0,0
8904,-100,4,2,1,40,0,0
9016,-100,4,2,1,60,0,0
12486,-100,4,2,1,40,0,0
12598,-100,4,2,1,60,0,0
14277,-100,4,3,0,40,0,0
15172,-100,4,3,0,70,0,0
15620,-100,4,2,2,90,0,0
16068,-100,4,2,1,60,0,0
29501,-100,4,3,0,40,0,0
30396,-100,4,2,1,60,0,0
58157,-100,4,3,0,40,0,0
59053,-133.333333333333,4,2,1,60,0,0
66217,-100,4,2,1,60,0,0
73381,-100,4,3,0,40,0,0
74948,-100,4,2,1,90,0,0
76292,-50,4,2,1,90,0,0
76516,-100,4,2,2,90,0,0
76963,-100,4,2,1,70,0,1
89501,-100,4,2,1,90,0,1
90172,-100,4,2,1,70,0,1
90844,-100,4,2,2,70,0,1
91292,-100,4,2,1,70,0,1
105620,-100,4,2,1,60,0,0
112784,-133.333333333333,4,2,1,50,0,0
127113,-100,4,2,1,60,0,0
140993,-100,4,3,0,40,0,0
141441,-133.333333333333,4,2,1,60,0,0
148605,-100,4,2,1,60,0,0
157337,-100,4,2,1,90,0,0
158904,-100,4,2,2,90,0,0
159351,-100,4,2,1,70,0,1
171889,-100,4,2,1,90,0,1
172560,-100,4,2,1,70,0,1
173232,-100,4,2,2,70,0,1
173680,-100,4,2,1,70,0,1
187560,-133.333333333333,4,2,2,70,0,1
188008,-100,4,2,1,60,0,0
202337,-100,4,2,1,60,0,0
220023,-100,4,2,1,20,0,0
236366,-100,4,3,0,60,0,0
237710,-100,4,2,2,90,0,0
238157,-100,4,2,1,70,0,1
251814,-50,4,2,1,70,0,1
252038,-100,4,2,2,70,0,1
252486,-100,4,2,1,60,0,0
266254,-100,4,2,1,40,0,0
266814,-133.333333333333,4,2,1,40,0,0

[Colours]
Combo1 : 255,128,255
Combo2 : 0,236,236
Combo3 : 0,87,193

[HitObjects]
348,64,1740,5,4,0:0:0:0:
252,284,2187,1,0,0:0:0:0:
112,88,2635,1,0,0:0:0:0:
332,188,3083,1,0,0:0:0:0:
172,332,3531,2,0,P|92:276|89:180,1,200,2|0,0:1|0:0,0:0:0:0:
357,76,4426,2,0,P|436:130|440:227,1,200,2|0,0:1|0:0,0:0:0:0:
152,340,5322,6,0,B|127:302|150:270|150:270|104:229|104:229|122:198|86:140,1,200,4|0,0:0|0:0,0:0:0:0:
88,20,5993,2,0,L|133:41,1,50
284,40,6329,2,0,L|328:84,1,50
464,124,6665,1,0,0:0:0:0:
460,173,6777,1,0,0:0:0:0:
422,207,6889,1,0,0:0:0:0:
372,204,7001,1,0,0:0:0:0:
328,180,7113,6,0,L|272:292,1,100,2|0,0:1|0:0,0:0:0:0:
258,313,7448,1,0,0:0:0:0:
328,130,7672,2,0,L|328:180,1,50
344,380,8008,2,0,P|376:308|472:316,1,150,2|0,0:1|0:0,0:0:0:0:
420,372,8456,2,0,L|336:272,1,100
128,192,8904,6,0,L|228:192,1,100,4|0,0:0|0:0,0:0:0:0:
56,44,9351,2,0,L|156:44,1,100
332,108,9799,2,0,L|280:108,2,50
444,222,10247,2,0,L|376:222,1,50
347,288,10471,2,0,L|267:288,1,50
216,288,10695,6,0,P|166:284|123:308,1,100,2|0,0:1|0:0,0:0:0:0:
184,364,11031,1,0,0:0:0:0:
216,288,11142,2,0,L|268:192,1,100
104,156,11590,2,0,L|80:40,1,100,2|0,0:1|0:0,0:0:0:0:
292,60,12038,2,0,P|276:112|228:140,1,100
59,239,12486,6,0,P|96:302|168:307,1,150,4|0,0:0|0:0,0:0:0:0:
168,308,12934,1,0,0:0:0:0:
268,208,13157,2,0,L|292:256,1,50
428,268,13493,2,0,L|405:223,1,50
336,52,13829,1,0,0:0:0:0:
300,88,13941,1,0,0:0:0:0:
252,96,14053,1,0,0:0:0:0:
204,84,14165,1,0,0:0:0:0:
168,48,14277,5,4,0:0:0:0:
13,178,14501,1,4,0:0:0:0:
214,159,14725,1,4,0:0:0:0:
41,56,14948,1,4,0:0:0:0:
119,242,15172,5,0,0:0:0:0:
150,281,15284,1,0,0:0:0:0:
197,299,15396,1,0,0:0:0:0:
245,292,15508,1,0,0:0:0:0:
282,261,15620,1,12,0:0:0:0:
336,52,16068,6,0,B|396:39|401:132|478:118,1,150,6|0,0:0|0:0,0:0:0:0:
462,119,16516,1,8,0:0:0:0:
444,272,16740,2,0,L|404:240,1,50,0|8,0:0|0:0,0:0:0:0:
334,200,16963,2,0,P|292:227|243:228,1,100,2|0,0:0|0:0,0:0:0:0:
268,100,17411,2,0,L|268:150,1,50,8|0,0:0|0:0,0:0:0:0:
268,320,17747,1,0,0:0:0:0:
268,320,17859,6,0,P|301:319|344:290,2,50,2|0|0,0:0|0:0|0:0,0:0:0:0:
187,322,18195,2,0,L|153:359,1,50,0|8,0:0|0:0,0:0:0:0:
48,276,18531,2,0,L|85:310,1,50,0|8,0:0|0:0,0:0:0:0:
154,359,18754,1,2,0:0:0:0:
72,136,18978,1,0,0:0:0:0:
85,310,19202,1,8,0:0:0:0:
216,112,19426,1,0,0:0:0:0:
216,112,19538,1,0,0:0:0:0:
216,112,19650,6,0,P|264:66|312:65,1,100,6|0,0:0|0:0,0:0:0:0:
360,109,19986,2,0,L|404:65,1,50,0|8,0:0|0:0,0:0:0:0:
436,220,20322,2,0,L|424:300,1,50,0|8,0:0|0:0,0:0:0:0:
412,349,20545,2,0,P|368:325|348:280,1,100,2|0,0:0|0:0,0:0:0:0:
312,124,20993,1,8,0:0:0:0:
134,15,21217,2,0,L|176:44,1,50
212,136,21441,6,0,B|201:190|137:199,1,100,2|0,0:0|0:0,0:0:0:0:
131,117,21777,1,0,0:0:0:0:
131,117,21889,2,0,P|85:136|64:180,1,100,8|0,0:0|0:0,0:0:0:0:
65,261,22225,2,0,B|97:291|97:291|131:276|131:276|147:324|184:329,1,150,8|0,0:0|0:0,0:0:0:0:
326,376,22784,1,8,0:0:0:0:
374,372,22896,1,0,0:0:0:0:
415,344,23008,1,0,0:0:0:0:
434,297,23120,1,0,0:0:0:0:
416,249,23232,5,6,0:0:0:0:
284,152,23456,2,0,L|316:88,2,50,0|0|8,0:0|0:0|0:0,0:0:0:0:
156,352,23904,2,0,L|84:312,1,50,0|8,0:0|0:0,0:0:0:0:
64,264,24128,2,0,P|72:208|116:192,2,100,0|0|8,0:0|0:0|0:0,0:0:0:0:
292,352,24799,1,0,0:0:0:0:
292,352,24911,1,0,0:0:0:0:
292,352,25023,6,0,P|288:288|244:244,1,100,2|0,0:0|0:0,0:0:0:0:
232,132,25359,2,0,L|288:192,1,50,0|8,0:0|0:0,0:0:0:0:
344,40,25695,1,0,0:0:0:0:
344,40,25807,1,8,0:0:0:0:
344,40,25919,2,0,P|400:44|440:92,1,100,0|0,0:0|0:0,0:0:0:0:
428,224,26366,2,0,P|372:220|332:172,1,100,8|0,0:0|0:0,0:0:0:0:
313,163,26702,1,0,0:0:0:0:
292,128,26814,5,6,0:0:0:0:
200,256,27038,2,0,L|232:212,1,50,0|0,0:0|0:0,0:0:0:0:
152,192,27262,2,0,L|96:100,1,100,8|0,0:0|0:0,0:0:0:0:
64,32,27598,1,8,0:0:0:0:
64,32,27710,2,0,P|116:24|160:52,1,100,0|0,0:0|0:0,0:0:0:0:
380,232,28157,2,0,P|328:240|284:212,1,100,8|0,0:0|0:0,0:0:0:0:
56,304,28605,6,0,B|114:328|115:238|188:260,1,150,2|0,0:0|0:0,0:0:0:0:
256,304,29053,1,4,0:0:0:0:
409,191,29277,2,0,L|379:231,1,50
346,269,29501,5,12,0:0:0:0:
305,298,29613,1,8,0:0:0:0:
256,304,29725,1,4,0:0:0:0:
208,288,29837,1,0,0:0:0:0:
198,259,29948,5,8,0:0:0:0:
188,230,30060,1,8,0:0:0:0:
178,202,30172,1,8,0:0:0:0:
168,173,30284,1,0,0:0:0:0:
159,144,30396,5,6,0:0:0:0:
64,324,30844,2,0,L|15:182,1,150,8|8,0:0|0:0,0:0:0:0:
53,111,31292,2,0,P|100:123|146:106,1,100
289,32,31740,1,8,0:0:0:0:
432,53,31963,6,0,P|383:60|347:94,1,100,2|2,0:1|0:0,0:0:0:0:
328,244,32411,2,0,P|376:236|412:202,1,100,0|8,0:0|0:0,0:0:0:0:
188,52,32859,1,0,0:0:0:0:
188,52,32971,1,8,0:0:0:0:
188,52,33083,2,0,L|220:172,1,100,2|0,0:1|0:0,0:0:0:0:
328,244,33531,2,0,L|284:368,1,100,8|0,0:0|0:0,0:0:0:0:
144,372,33978,6,0,P|107:355|65:308,1,100,6|0,0:0|0:0,0:0:0:0:
24,168,34426,1,8,0:0:0:0:
132,36,34650,2,0,L|152:116,1,50,0|8,0:0|0:0,0:0:0:0:
157,133,34874,1,2,0:0:0:0:
201,299,35098,1,0,0:0:0:0:
360,368,35322,2,0,L|382:323,1,50,8|0,0:0|0:0,0:0:0:0:
440,176,35657,2,0,L|396:216,1,50,8|2,0:0|0:0,0:0:0:0:
336,256,35881,6,0,P|291:277|239:268,1,100,8|0,0:0|0:0,0:0:0:0:
172,232,36217,1,8,0:0:0:0:
84,40,36441,1,0,0:0:0:0:
84,40,36553,2,0,L|164:16,1,50,8|2,0:0|0:0,0:0:0:0:
280,196,36889,1,0,0:0:0:0:
120,320,37113,1,8,0:0:0:0:
84,120,37337,1,0,0:0:0:0:
84,120,37448,1,8,0:0:0:0:
84,120,37560,6,0,P|150:147|210:107,1,150,6|0,0:0|0:0,0:0:0:0:
256,40,38008,1,8,0:0:0:0:
392,152,38232,2,0,P|413:165|429:183,1,50,0|8,0:0|0:0,0:0:0:0:
476,252,38456,2,0,P|449:299|396:308,1,100,2|0,0:0|0:0,0:0:0:0:
236,260,38904,1,8,0:0:0:0:
80,176,39128,1,0,0:0:0:0:
96,332,39351,1,2,0:0:0:0:
96,332,39463,6,0,L|136:224,1,100,8|0,0:0|0:0,0:0:0:0:
80,175,39799,2,0,P|126:160|174:171,1,100,8|0,0:0|0:0,0:0:0:0:
220,104,40135,2,0,L|263:47,1,50,8|2,0:0|0:0,0:0:0:0:
431,123,40471,2,0,P|422:172|384:208,2,100,0|8|0,0:0|0:0|0:0,0:0:0:0:
228,240,41142,6,0,B|267:266|307:250|307:250|344:312|424:296,1,200,6|8,0:0|0:0,0:0:0:0:
432,124,41814,1,0,0:0:0:0:
432,124,41926,1,8,0:0:0:0:
432,124,42038,2,0,B|396:64|308:80|308:80|282:45|239:46,1,200,2|8,0:0|0:0,0:0:0:0:
108,24,42710,1,0,0:0:0:0:
108,24,42822,2,0,P|117:46|134:65,1,50,8|2,0:0|0:0,0:0:0:0:
196,116,43045,6,0,P|152:176|52:156,1,150,8|8,0:0|0:0,0:0:0:0:
68,348,43605,1,0,0:0:0:0:
68,348,43717,1,8,0:0:0:0:
68,348,43829,2,0,L|136:256,1,100,2|0,0:0|0:0,0:0:0:0:
372,196,44277,2,0,L|322:204,1,50,8|0,0:0|0:0,0:0:0:0:
144,72,44725,6,0,P|225:99|320:36,1,200,6|8,0:0|0:0,0:0:0:0:
460,28,45396,1,0,0:0:0:0:
467,45,45508,1,8,0:0:0:0:
474,62,45620,2,0,L|410:186,1,100
222,111,46068,1,8,0:0:0:0:
168,304,46292,6,0,P|201:339|250:341,1,100,2|2,0:1|0:0,0:0:0:0:
380,263,46740,2,0,P|346:228|297:226,1,100,0|8,0:0|0:0,0:0:0:0:
168,304,47187,1,0,0:0:0:0:
152,316,47299,1,8,0:0:0:0:
135,323,47411,2,0,P|89:323|47:279,2,100,2|0|8,0:1|0:0|0:0,0:0:0:0:
298,227,48083,1,0,0:0:0:0:
356,112,48307,6,0,B|316:92|276:92|236:108|212:132|212:132|156:104,1,200,6|8,0:0|0:0,0:0:0:0:
56,176,48978,1,0,0:0:0:0:
56,176,49090,2,0,L|92:232,1,50,8|2,0:0|0:0,0:0:0:0:
200,360,49426,2,0,L|200:260,1,100,0|8,0:0|0:0,0:0:0:0:
196,52,49874,1,0,0:0:0:0:
288,196,50098,6,0,P|336:200|388:164,1,100,2|0,0:0|0:0,0:0:0:0:
289,31,50545,2,0,P|240:29|196:52,1,100,8|0,0:0|0:0,0:0:0:0:
144,116,50881,1,8,0:0:0:0:
109,187,50993,2,0,P|157:194|201:171,1,100,0|0,0:0|0:0,0:0:0:0:
381,15,51441,2,0,P|332:8|288:31,1,100,8|0,0:0|0:0,0:0:0:0:
352,124,51889,5,6,0:0:0:0:
480,356,52337,2,0,P|419:314|378:319,1,100,8|0,0:0|0:0,0:0:0:0:
328,356,52672,1,8,0:0:0:0:
328,356,52784,2,0,P|285:358|240:316,1,100,2|0,0:0|0:0,0:0:0:0:
184,192,53232,1,8,0:0:0:0:
408,124,53456,1,2,0:1:0:0:
408,124,53568,1,0,0:0:0:0:
408,124,53680,6,0,L|336:224,1,100,2|0,0:0|0:0,0:0:0:0:
155,284,54128,2,0,P|202:267|248:285,1,100,8|0,0:0|0:0,0:0:0:0:
202,349,54463,1,8,0:0:0:0:
121,359,54575,2,0,B|91:344|67:312|70:269|92:238|92:238|60:180,1,200,2|8,0:1|0:0,0:0:0:0:
8,76,55247,1,0,0:0:0:0:
156,31,55471,6,0,P|254:15|352:30,1,200,6|10,0:0|0:0,0:0:0:0:
500,76,56142,2,0,L|500:148,2,50,0|8|2,0:0|0:0|0:0,0:0:0:0:
300,128,56590,2,0,P|336:172|416:160,1,100,0|8,0:0|0:0,0:0:0:0:
353,31,57038,1,0,0:0:0:0:
192,124,57262,1,2,0:0:0:0:
192,124,57374,2,0,P|205:217|268:269,1,150,8|8,0:0|0:0,0:0:0:0:
232,24,57934,1,4,0:0:0:0:
108,180,58157,1,0,0:0:0:0:
176,368,58381,6,0,L|212:304,1,50,8|0,0:0|0:0,0:0:0:0:
232,284,58605,1,8,0:0:0:0:
280,300,58717,1,8,0:0:0:0:
328,296,58829,1,8,0:0:0:0:
364,264,58941,1,8,0:0:0:0:
416,191,59053,6,2,P|364:173|312:191,2,112.500004291535,6|2|2,0:0|0:0|0:0,0:0:0:0:
482,276,59948,1,8,0:0:0:0:
336,348,60172,2,0,P|366:326|383:293,1,75.0000028610231,2|0,0:0|0:0,0:0:0:0:
417,192,60620,1,2,0:0:0:0:
396,72,60844,5,2,0:0:0:0:
396,72,60956,2,0,P|336:64|284:32,1,112.500004291535,8|2,0:0|0:0,0:0:0:0:
232,144,61516,2,0,L|244:224,1,75.0000028610231,2|8,0:0|0:0,0:0:0:0:
264,332,61963,1,2,0:0:0:0:
146,354,62187,1,0,0:0:0:0:
57,273,62411,1,2,0:0:0:0:
32,124,62635,6,0,P|55:95|90:86,1,75.0000028610231,6|0,0:0|0:0,0:0:0:0:
144,108,62971,2,0,L|184:84,1,37.5000014305115,2|0,0:0|0:0,0:0:0:0:
340,76,63307,2,0,L|252:132,1,75.0000028610231,2|8,0:0|0:0,0:0:0:0:
176,176,63754,1,2,0:0:0:0:
124,280,63978,1,0,0:0:0:0:
192,376,64202,1,2,0:0:0:0:
308,384,64426,6,0,L|308:336,1,37.5000014305115,2|8,0:0|0:0,0:0:0:0:
308,240,64762,1,2,0:0:0:0:
342,253,64874,1,0,0:0:0:0:
379,255,64986,1,0,0:0:0:0:
415,247,65098,1,2,0:0:0:0:
447,227,65210,1,0,0:0:0:0:
473,199,65322,1,12,0:0:0:0:
278,80,65545,2,0,P|254:68|214:64,2,37.5000014305115,2|2|0,0:0|0:0|0:0,0:0:0:0:
368,130,65993,1,2,0:0:0:0:
232,336,66217,6,0,P|134:379|67:302,1,200,6|8,0:0|0:0,0:0:0:0:
24,192,66889,1,2,0:0:0:0:
96,68,67113,2,0,P|135:39|184:44,1,100,0|2,0:0|0:0,0:0:0:0:
388,103,67560,2,0,P|348:132|300:128,1,100,8|2,0:0|0:0,0:0:0:0:
316,12,68008,5,2,0:0:0:0:
284,240,68232,2,0,L|272:352,1,100,2|8,0:1|0:0,0:0:0:0:
208,208,68680,2,0,L|144:288,1,100,2|0,0:1|0:0,0:0:0:0:
160,140,69128,2,0,L|52:184,1,100,2|8,0:1|0:0,0:0:0:0:
156,60,69575,1,2,0:1:0:0:
316,12,69799,5,6,0:0:0:0:
154,263,70135,1,2,0:0:0:0:
154,263,70247,2,0,P|115:293|66:295,1,100
72,172,70695,2,0,P|102:146|164:140,1,100,8|0,0:0|0:0,0:0:0:0:
260,212,71142,1,0,0:0:0:0:
340,120,71366,1,0,0:0:0:0:
462,185,71590,5,2,0:0:0:0:
450,212,71702,1,8,0:0:0:0:
439,240,71814,2,0,L|494:301,2,50,0|2|0,0:0|0:0|0:0,0:0:0:0:
228,68,72262,1,2,0:0:0:0:
156,192,72486,2,0,L|112:288,1,100,8|2,0:0|0:0,0:0:0:0:
88,136,72934,2,0,L|60:36,1,100,8|0,0:0|0:0,0:0:0:0:
374,60,73381,5,4,0:0:0:0:
226,207,73605,1,4,0:0:0:0:
405,133,73829,1,4,0:0:0:0:
196,133,74053,1,4,0:0:0:0:
374,207,74277,1,4,0:0:0:0:
227,60,74501,1,4,0:0:0:0:
300,238,74725,1,12,0:0:0:0:
300,29,74948,5,8,0:0:0:0:
300,332,75396,1,8,0:0:0:0:
300,332,75620,1,8,0:0:0:0:
300,332,75844,1,8,0:0:0:0:
312,372,76292,6,0,B|296:332|296:332|316:296|316:296|288:256|308:184,1,200,2|12,0:0|0:0,0:0:0:0:
332,44,76963,5,6,0:0:0:0:
448,156,77187,1,0,0:0:0:0:
448,156,77299,1,2,0:1:0:0:
448,156,77411,2,0,P|396:188|332:172,1,100,8|2,0:0|0:1,0:0:0:0:
288,144,77747,2,0,L|268:200,1,50,8|2,0:0|0:0,0:0:0:0:
232,348,78083,2,0,P|276:362|351:323,2,100,2|8|2,0:1|0:0|0:1,0:0:0:0:
168,152,78754,5,2,0:0:0:0:
107,266,78978,2,0,L|83:310,1,50,0|2,0:0|0:1,0:0:0:0:
6,334,79202,1,8,0:0:0:0:
84,120,79426,1,2,0:1:0:0:
83,120,79538,2,0,P|134:67|207:70,1,150,8|0,0:0|0:0,0:0:0:0:
249,196,80098,6,0,P|200:186|167:150,1,100,8|0,0:0|0:0,0:0:0:0:
333,76,80545,1,2,0:0:0:0:
442,223,80769,2,0,P|432:271|397:304,1,100,0|8,0:0|0:0,0:0:0:0:
200,348,81217,1,0,0:0:0:0:
200,348,81329,1,8,0:0:0:0:
200,348,81441,2,0,L|324:180,1,200,2|8,0:1|0:0,0:0:0:0:
400,68,82113,1,2,0:1:0:0:
88,44,82337,6,0,L|148:104,1,50,2|8,0:0|0:0,0:0:0:0:
225,202,82672,1,0,0:0:0:0:
225,202,82784,2,0,B|177:241|134:207,1,100,8|2,0:0|0:1,0:0:0:0:
176,136,83120,1,8,0:0:0:0:
224,201,83232,2,0,P|263:232|312:224,1,100,0|2,0:0|0:1,0:0:0:0:
472,168,83680,2,0,L|416:251,1,100,8|2,0:0|0:1,0:0:0:0:
320,380,84128,6,0,P|283:347|234:347,1,100,6|0,0:0|0:0,0:0:0:0:
156,368,84463,1,2,0:1:0:0:
155,368,84575,2,0,P|130:315|86:271,1,100,8|2,0:0|0:1,0:0:0:0:
52,200,84911,1,8,0:0:0:0:
51,199,85023,2,0,P|114:196|128:121,1,150,2|2,0:0|0:1,0:0:0:0:
96,84,85471,1,8,0:0:0:0:
200,299,85695,6,0,B|231:337|271:349|311:337|339:308|339:308|377:341,1,200,2|2,0:1|0:1,0:0:0:0:
274,248,86366,1,8,0:0:0:0:
200,196,86590,2,0,B|231:158|271:146|311:158|339:187|339:187|377:154,1,200,2|2,0:1|0:1,0:0:0:0:
274,248,87262,1,8,0:0:0:0:
136,344,87486,6,0,P|104:308|88:224,1,100,2|2,0:1|0:0,0:0:0:0:
112,64,87934,2,0,P|164:44|236:44,1,100,2|8,0:1|0:0,0:0:0:0:
456,64,88381,2,0,L|400:107,1,50,2|8,0:1|0:0,0:0:0:0:
375,124,88605,1,0,0:0:0:0:
340,260,88829,2,0,P|393:285|449:255,2,100,2|8|2,0:1|0:0|0:1,0:0:0:0:
260,120,89501,5,2,0:0:0:0:
260,336,89725,1,8,0:0:0:0:
129,152,89948,1,12,0:0:0:0:
188,344,90172,2,0,L|160:284,1,50
120,272,90396,1,8,0:0:0:0:
72,284,90508,1,8,0:0:0:0:
28,260,90620,1,8,0:0:0:0:
132,72,90844,2,0,L|48:148,1,100,12|0,0:0|0:0,0:0:0:0:
260,148,91292,6,0,B|315:98|315:98|355:106,1,100,6|0,0:0|0:0,0:0:0:0:
436,147,91628,1,2,0:1:0:0:
436,147,91740,2,0,P|383:196|358:245,1,100,8|2,0:0|0:1,0:0:0:0:
289,227,92075,1,8,0:0:0:0:
289,227,92187,2,0,P|240:231|201:260,1,100,2|2,0:0|0:1,0:0:0:0:
24,380,92635,2,0,P|73:371|112:341,1,100,8|2,0:0|0:1,0:0:0:0:
180,100,93083,5,2,0:0:0:0:
224,228,93307,2,0,L|252:300,1,50,0|2,0:0|0:1,0:0:0:0:
284,344,93531,2,0,P|321:312|404:328,1,100,8|2,0:0|0:1,0:0:0:0:
444,340,93866,1,8,0:0:0:0:
444,340,93978,2,0,L|480:234,1,100
316,37,94426,1,8,0:0:0:0:
72,124,94650,1,0,0:0:0:0:
124,288,94874,6,0,L|198:212,1,100,6|0,0:0|0:0,0:0:0:0:
304,104,95322,1,8,0:0:0:0:
372,240,95545,1,0,0:0:0:0:
372,240,95657,1,8,0:0:0:0:
372,240,95769,2,0,P|328:314|228:292,1,200,2|8,0:1|0:0,0:0:0:0:
64,40,96441,6,0,L|92:152,1,100,2|2,0:1|0:0,0:0:0:0:
140,308,96889,2,0,L|180:188,1,100,2|8,0:1|0:0,0:0:0:0:
230,14,97337,1,2,0:1:0:0:
223,33,97448,1,8,0:0:0:0:
217,52,97560,2,0,P|260:58|305:92,1,100,2|2,0:0|0:1,0:0:0:0:
415,233,98008,1,8,0:0:0:0:
415,233,98232,6,0,L|416:134,1,100,0|6,0:0|0:0,0:0:0:0:
124,136,98904,2,0,P|168:158|216:144,1,100,8|2,0:0|0:0,0:0:0:0:
264,208,99240,2,0,L|296:280,1,50,8|0,0:0|0:0,0:0:0:0:
424,336,99575,2,0,P|380:331|333:357,1,100,2|8,0:0|0:0,0:0:0:0:
234,380,100023,2,0,P|134:360|66:280,1,200,6|2,0:0|0:0,0:0:0:0:
38,194,100583,2,0,L|10:253,1,50,0|8,0:0|0:0,0:0:0:0:
44,68,100919,5,2,0:0:0:0:
44,68,101031,1,8,0:0:0:0:
43,68,101142,2,0,P|88:46|140:60,1,100,0|2,0:0|0:0,0:0:0:0:
159,210,101590,2,0,L|254:141,1,100,4|2,0:0|0:0,0:0:0:0:
391,48,102038,6,0,B|335:99|415:183|372:182,1,150,6|2,0:0|0:0,0:0:0:0:
373,183,102486,1,8,0:0:0:0:
191,324,102710,2,0,B|246:274|166:190|207:190,1,150,4|0,0:0|0:0,0:0:0:0:
207,190,103157,1,2,0:0:0:0:
333,334,103381,1,2,0:0:0:0:
364,145,103605,1,4,0:0:0:0:
256,68,104053,5,0,0:0:0:0:
256,68,104277,1,0,0:0:0:0:
256,68,104501,2,0,P|223:35|92:116,1,200
112,288,105172,2,0,P|181:296|226:253,1,100
324,200,105620,5,6,0:0:0:0:
448,96,105844,1,2,0:0:0:0:
324,200,106068,1,2,0:0:0:0:
280,323,106292,2,0,P|327:336|372:318,2,100,10|2|2,0:0|0:0|0:0,0:0:0:0:
152,180,106963,5,6,0:0:0:0:
256,44,107187,1,2,0:0:0:0:
324,200,107411,1,2,0:0:0:0:
372,318,107635,2,0,P|327:336|280:323,2,100,10|2|2,0:0|0:0|0:0,0:0:0:0:
383,33,108307,6,0,B|359:21|359:21|339:53|339:53|291:29|255:43,1,150,2|8,0:0|0:0,0:0:0:0:
208,56,108754,1,2,0:0:0:0:
108,228,108978,1,10,0:0:0:0:
308,216,109202,1,2,0:0:0:0:
208,56,109426,1,2,0:0:0:0:
200,280,109650,2,0,P|152:324|96:332,2,100,14|2|2,0:0|0:0|0:0,0:0:0:0:
288,76,110322,1,10,0:0:0:0:
256,192,110434,12,8,112337,0:0:0:0:
362,27,112784,6,0,P|307:21|256:44,2,112.500004291535,6|2|2,0:0|0:0|0:0,0:0:0:0:
199,252,113904,1,8,0:0:0:0:
174,282,114016,1,8,0:0:0:0:
152,312,114128,2,0,L|216:360,1,75.0000028610231
434,362,114575,6,0,P|383:384|328:380,2,112.500004291535,2|2|2,0:0|0:0|0:0,0:0:0:0:
248,45,115695,1,8,0:0:0:0:
229,77,115807,1,8,0:0:0:0:
210,109,115919,2,0,L|130:41,1,75.0000028610231,8|0,0:0|0:0,0:0:0:0:
32,176,116366,6,0,L|10:266,1,75.0000028610231,6|0,0:0|0:0,0:0:0:0:
88,248,116702,2,0,L|96:326,1,75.0000028610231,2|0,0:0|0:0,0:0:0:0:
168,308,117038,2,0,L|212:373,1,75.0000028610231,2|0,0:0|0:0,0:0:0:0:
196,43,117486,1,8,0:0:0:0:
200,80,117598,1,8,0:0:0:0:
203,117,117710,2,0,L|271:45,1,75.0000028610231,8|0,0:0|0:0,0:0:0:0:
372,80,118157,6,0,L|436:148,1,75.0000028610231,2|0,0:0|0:0,0:0:0:0:
376,188,118493,2,0,L|408:260,1,75.0000028610231,2|0,0:0|0:0,0:0:0:0:
340,284,118829,2,0,L|308:356,1,75.0000028610231,2|0,0:0|0:0,0:0:0:0:
119,288,119277,1,8,0:0:0:0:
94,316,119389,1,8,0:0:0:0:
67,342,119501,2,0,L|82:242,1,75.0000028610231
92,100,119948,5,6,0:0:0:0:
264,40,120284,1,2,0:0:0:0:
432,108,120620,1,2,0:0:0:0:
254,314,121068,1,8,0:0:0:0:
298,298,121180,1,8,0:0:0:0:
318,258,121292,1,0,0:0:0:0:
328,60,121516,6,0,L|260:92,1,75.0000028610231,2|2,0:0|0:0,0:0:0:0:
168,196,121963,1,0,0:0:0:0:
168,196,122075,2,0,P|228:216|240:284,1,112.500004291535,2|2,0:0|0:0,0:0:0:0:
0,261,122859,1,8,0:0:0:0:
12,296,122971,1,8,0:0:0:0:
27,330,123083,2,0,L|59:234,1,75.0000028610231
144,72,123531,6,0,L|146:177,1,75.0000028610231,6|0,0:0|0:0,0:0:0:0:
216,128,123866,2,0,L|253:223,1,75.0000028610231,2|0,0:0|0:0,0:0:0:0:
304,156,124202,2,0,L|368:228,1,75.0000028610231,2|0,0:0|0:0,0:0:0:0:
473,369,124650,1,8,0:0:0:0:
488,327,124762,1,8,0:0:0:0:
502,285,124874,1,8,0:0:0:0:
376,312,125098,2,0,L|304:352,1,75.0000028610231,0|2,0:0|0:0,0:0:0:0:
216,376,125545,5,0,0:0:0:0:
216,376,125657,2,0,P|179:337|104:343,1,112.500004291535,2|6,0:0|0:0,0:0:0:0:
100,344,126441,1,8,0:0:0:0:
92,300,126553,1,8,0:0:0:0:
84,256,126665,2,0,L|76:216,1,37.5000014305115,2|0,0:0|0:0,0:0:0:0:
0,135,126889,2,0,L|8:172,1,37.5000014305115,2|0,0:0|0:0,0:0:0:0:
88,56,127113,5,6,0:0:0:0:
148,204,127337,1,0,0:0:0:0:
212,56,127560,1,2,0:0:0:0:
188,216,127784,1,0,0:0:0:0:
232,368,128008,1,2,0:0:0:0:
232,208,128232,1,0,0:0:0:0:
352,312,128455,1,2,0:0:0:0:
264,180,128680,1,0,0:0:0:0:
212,56,128904,5,2,0:0:0:0:
232,208,129128,2,0,P|267:234|336:236,2,100,0|2|0,0:0|0:0|0:0,0:0:0:0:
88,63,129799,2,0,P|107:104|93:162,1,100,2|0,0:0|0:0,0:0:0:0:
40,304,130247,2,0,P|84:298|136:264,1,100,2|0,0:0|0:0,0:0:0:0:
366,72,130695,5,6,0:0:0:0:
232,200,130919,1,0,0:0:0:0:
408,148,131142,1,2,0:0:0:0:
248,240,131366,2,0,L|304:224,1,50
376,212,131590,2,0,L|296:336,1,100,2|0,0:0|0:0,0:0:0:0:
276,364,131926,1,0,0:0:0:0:
276,364,132038,2,0,P|244:364|216:356,1,50,2|0,0:0|0:0,0:0:0:0:
148,344,132262,1,0,0:0:0:0:
20,100,132486,5,2,0:0:0:0:
84,248,132710,1,0,0:0:0:0:
176,116,132934,1,2,0:0:0:0:
196,252,133157,2,0,P|236:243|278:221,1,50,0|0,0:0|0:0,0:0:0:0:
320,216,133381,1,2,0:0:0:0:
428,128,133605,2,0,P|395:90|348:78,2,100,0|2|0,0:0|0:0|0:0,0:0:0:0:
432,268,134277,6,0,L|376:352,1,100,6|0,0:0|0:0,0:0:0:0:
217,286,134725,2,0,P|265:278|307:302,1,100,8|0,0:0|0:0,0:0:0:0:
252,360,135060,1,8,0:0:0:0:
252,360,135172,2,0,B|189:384|142:327,1,100,2|0,0:0|0:0,0:0:0:0:
32,164,135620,2,0,L|88:272,1,100,8|0,0:0|0:0,0:0:0:0:
217,286,136068,6,0,L|161:178,1,100,2|0,0:0|0:0,0:0:0:0:
16,76,136516,2,0,P|59:61|116:72,1,100,8|0,0:0|0:0,0:0:0:0:
184,100,136851,1,8,0:0:0:0:
236,160,136963,2,0,P|298:196|363:166,1,150,2|0,0:0|0:0,0:0:0:0:
302,113,137411,1,8,0:0:0:0:
288,296,137635,5,0,0:0:0:0:
280,314,137747,1,8,0:0:0:0:
272,332,137859,2,0,L|152:360,1,100,6|0,0:0|0:0,0:0:0:0:
32,284,138307,1,8,0:0:0:0:
27,62,138531,1,0,0:0:0:0:
35,80,138643,1,8,0:0:0:0:
43,98,138755,2,0,L|163:126,1,100,2|0,0:0|0:0,0:0:0:0:
316,48,139202,2,0,L|264:172,1,100,8|0,0:0|0:0,0:0:0:0:
248,216,139538,1,8,0:0:0:0:
248,216,139650,5,2,0:0:0:0:
315,48,139874,1,8,0:0:0:0:
244,344,140098,1,8,0:0:0:0:
68,312,140322,1,6,0:0:0:0:
44,268,140434,1,8,0:0:0:0:
36,220,140545,2,0,P|80:199|128:208,1,100
313,282,140993,1,8,0:0:0:0:
352,251,141105,1,8,0:0:0:0:
365,202,141217,1,4,0:0:0:0:
344,157,141329,1,0,0:0:0:0:
304,128,141441,5,6,0:0:0:0:
100,56,141777,1,2,0:0:0:0:
152,264,142113,2,0,L|220:200,1,75.0000028610231,2|10,0:0|0:0,0:0:0:0:
304,128,142560,1,2,0:0:0:0:
432,144,142784,1,0,0:0:0:0:
464,268,143008,1,2,0:0:0:0:
376,360,143232,6,0,L|322:318,1,37.5000014305115,2|8,0:0|0:0,0:0:0:0:
303,309,143456,2,0,P|278:337|244:352,2,75.0000028610231,0|0|2,0:0|0:0|0:0,0:0:0:0:
432,144,144128,1,8,0:0:0:0:
394,30,144351,2,0,P|431:21|467:30,2,75.0000028610231,2|0|2,0:0|0:0|0:0,0:0:0:0:
305,110,145023,5,6,0:0:0:0:
305,110,145359,1,2,0:0:0:0:
240,212,145695,2,0,L|180:168,1,75.0000028610231,2|8,0:0|0:0,0:0:0:0:
128,72,146142,2,0,L|208:92,1,75.0000028610231,2|0,0:0|0:0,0:0:0:0:
305,110,146590,1,2,0:0:0:0:
452,204,146814,5,2,0:0:0:0:
452,204,146926,2,0,P|441:235|360:276,1,112.500004291535,8|0,0:0|0:0,0:0:0:0:
256,284,147486,1,0,0:0:0:0:
120,187,147710,1,8,0:0:0:0:
128,352,147934,1,0,0:0:0:0:
128,352,148045,1,2,0:0:0:0:
128,352,148157,2,0,P|161:367|216:356,1,75.0000028610231,0|2,0:0|0:0,0:0:0:0:
435,282,148605,6,0,L|360:348,1,100,6|0,0:0|0:0,0:0:0:0:
368,136,149053,2,0,L|399:41,1,100,8|2,0:0|0:0,0:0:0:0:
263,127,149501,2,0,P|215:121|171:144,1,100,0|2,0:0|0:0,0:0:0:0:
88,280,149948,1,8,0:0:0:0:
232,208,150172,1,2,0:0:0:0:
204,12,150396,5,2,0:0:0:0:
74,143,150620,2,0,P|122:154|171:144,1,100,2|8,0:1|0:0,0:0:0:0:
329,54,151068,2,0,P|290:85|264:128,1,100,2|0,0:1|0:0,0:0:0:0:
232,296,151516,2,0,P|281:303|329:293,1,100,2|8,0:1|0:0,0:0:0:0:
468,212,151963,1,2,0:1:0:0:
460,51,152187,6,0,P|408:104|336:88,1,150,6|2,0:0|0:0,0:0:0:0:
268,52,152635,2,0,L|252:164,1,100,0|2,0:0|0:0,0:0:0:0:
232,296,153083,1,8,0:0:0:0:
100,88,153307,2,0,L|158:179,1,100,2|0,0:0|0:0,0:0:0:0:
232,296,153754,1,2,0:0:0:0:
340,348,153978,6,0,L|400:312,2,50,2|8|0,0:0|0:0|0:0,0:0:0:0:
264,380,154314,1,2,0:0:0:0:
184,372,154426,2,0,L|96:292,1,100,0|2,0:0|0:0,0:0:0:0:
40,112,154874,2,0,L|65:212,1,100,8|2,0:0|0:0,0:0:0:0:
200,156,155322,2,0,P|246:138|295:145,1,100,12|0,0:0|0:0,0:0:0:0:
256,192,155769,12,4,157337,0:0:0:0:
368,136,157784,5,8,0:0:0:0:
256,344,158008,1,8,0:0:0:0:
144,136,158232,1,8,0:0:0:0:
256,72,158680,6,0,L|256:140,1,50,2|2,0:0|0:0,0:0:0:0:
256,136,158904,1,12,0:0:0:0:
256,344,159128,1,0,0:0:0:0:
311,237,159351,6,6,P|267:215|218:223,1,100,6|6,0:0|0:1,0:0:0:0:
143,255,159687,1,2,0:1:0:0:
87,310,159799,2,0,P|131:332|179:324,1,100,8|2,0:0|0:1,0:0:0:0:
255,294,160135,2,0,L|256:344,1,50,8|2,0:0|0:0,0:0:0:0:
143,255,160471,2,0,L|143:155,2,100,0|8|2,0:1|0:0|0:1,0:0:0:0:
336,376,161142,5,2,0:0:0:0:
410,160,161366,2,0,L|411:77,2,50,0|2|8,0:0|0:1|0:0,0:0:0:0:
365,227,161702,2,0,L|326:266,1,50,0|2,0:0|0:1,0:0:0:0:
294,190,161926,2,0,P|240:137|167:142,1,150,8|0,0:0|0:0,0:0:0:0:
169,356,162486,1,8,0:0:0:0:
213,220,162710,1,0,0:0:0:0:
213,220,162822,1,0,0:0:0:0:
213,220,162934,6,0,L|244:125,1,100,6|0,0:0|0:0,0:0:0:0:
404,64,163381,2,0,P|354:57|304:83,1,100,8|0,0:0|0:0,0:0:0:0:
244,125,163717,1,8,0:0:0:0:
164,120,163829,2,0,P|116:106|83:69,1,100,2|0,0:0|0:0,0:0:0:0:
40,224,164277,1,8,0:0:0:0:
40,224,164501,1,2,0:1:0:0:
92,376,164725,5,2,0:0:0:0:
224,287,164948,2,0,P|268:266|317:273,1,100,2|8,0:1|0:0,0:0:0:0:
280,345,165284,1,0,0:0:0:0:
318,274,165396,2,0,L|354:222,1,50,2|8,0:1|0:0,0:0:0:0:
390,164,165620,2,0,P|423:202|427:251,1,100,2|2,0:0|0:1,0:0:0:0:
283,35,166068,1,8,0:0:0:0:
74,106,166292,6,0,P|125:115|186:70,1,100,2|6,0:1|0:0,0:0:0:0:
283,35,166740,1,0,0:0:0:0:
283,35,166851,1,2,0:1:0:0:
283,35,166963,2,0,L|283:155,1,100,8|2,0:0|0:1,0:0:0:0:
290,215,167299,2,0,P|350:203|422:275,1,150,8|2,0:0|0:1,0:0:0:0:
304,380,167859,1,8,0:0:0:0:
140,360,168083,6,0,B|105:323|105:323|126:293|126:293|92:215|135:158,1,200,2|2,0:1|0:1,0:0:0:0:
160,60,168754,1,8,0:0:0:0:
372,24,168978,2,0,B|406:60|406:60|385:90|385:90|419:168|376:225,1,200,2|2,0:1|0:1,0:0:0:0:
352,324,169649,1,8,0:0:0:0:
176,308,169874,1,2,0:1:0:0:
176,308,169986,1,0,0:0:0:0:
176,308,170098,6,0,P|213:329|276:332,1,100,2|2,0:0|0:1,0:0:0:0:
432,288,170545,1,8,0:0:0:0:
432,104,170769,2,0,L|432:48,2,50,2|8|2,0:1|0:0|0:0,0:0:0:0:
336,208,171217,2,0,P|297:229|232:232,1,100,2|8,0:1|0:0,0:0:0:0:
88,192,171665,1,2,0:1:0:0:
192,76,171889,5,2,0:0:0:0:
256,320,172113,1,8,0:0:0:0:
320,76,172337,1,12,0:0:0:0:
424,192,172560,2,0,L|456:240,1,50
476,276,172784,1,8,0:0:0:0:
476,328,172896,1,8,0:0:0:0:
444,364,173008,1,8,0:0:0:0:
396,376,173120,1,0,0:0:0:0:
352,352,173232,2,0,P|311:333|248:351,1,100,12|0,0:0|0:0,0:0:0:0:
124,384,173680,5,6,0:0:0:0:
124,95,173904,2,0,L|124:145,2,50,0|2|8,0:0|0:1|0:0,0:0:0:0:
192,160,174240,2,0,L|192:232,1,50,0|2,0:0|0:1,0:0:0:0:
192,232,174463,2,0,P|241:187|324:188,1,150,8|0,0:0|0:0,0:0:0:0:
388,336,175023,2,0,P|349:333|272:244,1,150,8|0,0:0|0:0,0:0:0:0:
256,212,175471,5,2,0:0:0:0:
248,12,175695,1,0,0:0:0:0:
248,32,175807,1,2,0:1:0:0:
248,52,175919,2,0,P|308:64|364:100,1,100,8|2,0:0|0:1,0:0:0:0:
384,108,176254,1,8,0:0:0:0:
416,148,176366,1,2,0:0:0:0:
404,324,176590,2,0,P|377:278|322:241,1,100,0|8,0:0|0:0,0:0:0:0:
228,184,177038,1,0,0:0:0:0:
59,177,177262,6,0,P|99:148|130:109,1,100,6|0,0:0|0:0,0:0:0:0:
299,116,177710,2,0,P|259:145|228:184,1,100,8|0,0:0|0:0,0:0:0:0:
441,168,178157,2,0,P|481:139|512:100,2,100,2|0|8,0:0|0:0|0:0,0:0:0:0:
324,204,178829,1,2,0:1:0:0:
324,204,179053,6,0,L|300:316,1,100,2|2,0:0|0:1,0:0:0:0:
172,376,179501,2,0,L|132:264,1,100,8|2,0:0|0:1,0:3:0:0:
58,271,179837,1,8,0:0:0:0:
58,271,179948,2,0,L|88:366,1,100,0|2,0:0|0:1,0:0:0:0:
208,228,180396,1,8,0:0:0:0:
440,40,180620,6,0,P|392:40|336:72,1,100,0|6,0:0|0:0,0:0:0:0:
216,176,181292,1,8,0:0:0:0:
168,296,181516,2,0,P|192:328|220:352,1,50,2|8,0:0|0:0,0:0:0:0:
268,380,181740,1,0,0:0:0:0:
430,359,181963,1,2,0:0:0:0:
265,215,182187,1,8,0:0:0:0:
184,303,182411,5,6,0:0:0:0:
163,54,182859,2,0,P|207:29|256:19,1,100,2|8,0:0|0:0,0:0:0:0:
453,108,183307,2,0,L|478:50,1,50,2|8,0:0|0:0,0:0:0:0:
393,61,183531,2,0,L|337:177,1,100,0|2,0:0|0:0,0:0:0:0:
256,20,183978,5,4,0:0:0:0:
256,164,184202,2,0,L|256:296,1,100,2|4,0:0|0:0,0:0:0:0:
256,192,184538,12,4,185993,0:0:0:0:
428,200,186441,6,0,P|380:186|343:153,1,100
256,52,186889,2,0,P|208:64|167:107,1,100
132,224,187337,1,0,0:0:0:0:
256,296,187560,6,0,L|256:146,1,150.000005722046,12|6,0:0|0:0,0:0:0:0:
136,284,200322,5,12,0:0:0:0:
376,284,200769,2,0,P|332:256|308:192,1,100,2|12,0:0|0:0,0:0:0:0:
256,48,201441,5,2,0:0:0:0:
256,68,201777,1,2,0:0:0:0:
256,88,202113,1,2,0:0:0:0:
256,296,202337,6,0,P|215:350|136:351,1,150,6|0,0:0|0:0,0:0:0:0:
64,328,202784,1,8,0:0:0:0:
176,282,203008,2,0,L|136:252,2,50,0|8|2,0:0|0:0|0:0,0:0:0:0:
256,296,203344,2,0,L|305:282,1,50
452,221,203680,2,0,L|411:276,1,50,8|0,0:0|0:0,0:0:0:0:
373,325,203904,1,0,0:0:0:0:
305,282,204016,2,0,P|284:264|278:224,1,50,0|2,0:0|0:0,0:0:0:0:
264,164,204240,1,0,0:0:0:0:
353,71,204351,6,0,L|324:112,1,50
264,164,204575,2,0,L|231:114,1,50,8|0,0:0|0:0,0:0:0:0:
192,56,204799,1,0,0:0:0:0:
192,56,204911,1,8,0:0:0:0:
120,88,205023,2,0,P|128:153|79:198,1,100,2|0,0:0|0:0,0:0:0:0:
30,177,205359,2,0,P|34:152|46:131,1,50,0|8,0:0|0:0,0:0:0:0:
251,239,205695,1,0,0:0:0:0:
251,239,205807,1,0,0:0:0:0:
251,239,205919,6,0,P|321:224|352:158,1,150,6|0,0:0|0:0,0:0:0:0:
271,161,206366,1,8,0:0:0:0:
192,56,206590,2,0,L|225:93,1,50,0|8,0:0|0:0,0:0:0:0:
317,93,206814,1,2,0:0:0:0:
318,93,206926,2,0,L|352:56,1,50
484,132,207262,2,0,P|482:148|439:187,1,50,8|0,0:0|0:0,0:0:0:0:
392,216,207486,1,0,0:0:0:0:
392,296,207598,2,0,L|392:348,1,50,0|2,0:0|0:0,0:0:0:0:
320,380,207822,1,0,0:0:0:0:
240,368,207934,5,0,0:0:0:0:
240,368,208045,1,0,0:0:0:0:
201,274,208157,2,0,L|181:229,1,50,8|0,0:0|0:0,0:0:0:0:
275,262,208381,2,0,L|302:322,1,50,0|8,0:0|0:0,0:0:0:0:
240,368,208605,2,0,P|195:347|148:359,1,100,2|0,0:0|0:0,0:0:0:0:
68,380,208942,2,0,L|44:335,1,50,0|8,0:0|0:0,0:0:0:0:
51,49,209278,1,0,0:0:0:0:
51,49,209390,1,0,0:0:0:0:
51,49,209501,6,0,B|102:16|140:93|208:34,1,150,6|0,0:0|0:0,0:0:0:0:
268,15,209948,1,8,0:0:0:0:
449,62,210172,2,0,L|413:130,1,50,0|8,0:0|0:0,0:0:0:0:
392,179,210396,1,2,0:0:0:0:
472,196,210508,2,0,L|508:128,1,50
268,15,210844,2,0,P|238:23|203:44,1,50,8|0,0:0|0:0,0:0:0:0:
158,82,211068,1,0,0:0:0:0:
204,148,211180,2,0,P|226:137|250:131,1,50,0|2,0:0|0:0,0:0:0:0:
332,124,211404,1,0,0:0:0:0:
392,179,211516,6,0,P|408:200|416:232,1,50
440,299,211740,1,8,0:0:0:0:
430,378,211852,2,0,L|360:351,1,50
304,379,212076,1,8,0:0:0:0:
304,379,212188,2,0,P|262:352|213:357,1,100,2|0,0:0|0:0,0:0:0:0:
135,370,212523,2,0,L|92:327,1,50,0|8,0:0|0:0,0:0:0:0:
34,112,212859,6,0,B|79:45|163:157|215:85,1,200,6|0,0:0|0:0,0:0:0:0:
215,85,213531,1,4,0:0:0:0:
218,291,213866,1,8,0:0:0:0:
218,291,213978,5,8,0:0:0:0:
412,248,214202,1,4,0:3:0:0:
436,48,214426,1,8,0:3:0:0:
252,131,214650,6,0,B|207:198|123:86|71:158,1,200,6|0,0:0|0:0,0:0:0:0:
71,158,215322,1,4,0:0:0:0:
90,303,215545,6,0,L|154:303,1,50
176,337,215769,1,8,0:0:0:0:
223,351,215881,1,8,0:0:0:0:
271,337,215993,1,8,0:0:0:0:
308,303,216105,1,0,0:0:0:0:
352,280,216217,1,8,0:0:0:0:
402,280,216329,1,8,0:0:0:0:
446,303,216441,1,12,0:0:0:0:
197,136,216889,5,8,0:0:0:0:
256,32,217113,1,8,0:0:0:0:
316,136,217337,1,8,0:0:0:0:
135,32,217560,1,8,0:0:0:0:
256,240,217784,1,4,0:3:0:0:
377,32,218008,1,4,0:3:0:0:
197,136,218232,5,12,0:0:0:0:
136,320,218680,2,0,P|176:332|256:312,1,100,0|8,0:0|0:0,0:0:0:0:
328,292,219128,2,0,P|354:313|391:327,1,50,0|0,0:0|0:0,0:0:0:0:
442,351,219351,1,8,0:0:0:0:
416,192,219575,1,4,0:3:0:0:
284,99,219799,1,4,0:3:0:0:
129,140,220023,1,6,0:0:0:0:
256,192,220135,12,0,223829,0:0:0:0:
127,373,236366,6,0,L|83:318,1,50,4|0,0:0|0:0,0:0:0:0:
196,344,236590,2,0,L|175:286,1,50,4|0,0:0|0:0,0:0:0:0:
275,332,236814,2,0,L|282:263,1,50,4|0,0:0|0:0,0:0:0:0:
352,352,237038,2,0,L|389:285,1,50,4|0,0:0|0:0,0:0:0:0:
429,175,237262,5,4,0:0:0:0:
392,209,237374,1,4,0:0:0:0:
343,224,237486,1,4,0:0:0:0:
293,214,237598,1,4,0:0:0:0:
256,181,237710,1,12,0:0:0:0:
256,181,238157,5,6,0:0:0:0:
230,57,238381,2,0,L|242:118,1,50,0|2,0:0|0:1,0:1:0:0:
316,86,238605,2,0,L|382:10,1,100,8|2,0:0|0:1,0:0:0:0:
460,21,238941,1,8,0:0:0:0:
460,21,239053,2,2,P|470:79|430:137,1,100,0|2,0:0|0:1,0:0:0:0:
228,324,239501,2,0,L|324:296,1,100,8|2,0:0|0:1,0:0:0:0:
480,240,239948,6,0,P|444:256|368:224,1,100,2|0,0:0|0:0,0:0:0:0:
322,195,240284,1,2,0:1:0:0:
322,195,240396,2,0,P|274:182|229:200,1,100,8|2,0:0|0:1,0:0:0:0:
280,263,240732,1,8,0:0:0:0:
228,324,240844,2,0,P|180:296|148:236,1,100
76,16,241292,1,8,0:0:0:0:
223,95,241516,1,0,0:0:0:0:
223,95,241628,1,0,0:0:0:0:
223,95,241740,6,0,P|175:108|140:142,1,100,6|0,0:0|0:0,0:0:0:0:
140,340,242187,2,0,P|187:326|222:292,1,100,8|0,0:0|0:0,0:0:0:0:
253,217,242523,1,8,0:0:0:0:
253,217,242635,2,0,P|336:164|420:245,1,200,2|8,0:1|0:0,0:0:0:0:
253,217,243307,6,0,L|162:139,1,100,2|2,0:1|0:0,0:0:0:0:
207,283,243754,2,0,L|111:237,1,100,2|8,0:1|0:0,0:0:0:0:
175,360,244202,1,2,0:1:0:0:
175,360,244314,1,8,0:0:0:0:
175,360,244426,2,0,P|225:367|275:325,1,100,2|2,0:0|0:1,0:0:0:0:
356,249,244874,1,8,0:0:0:0:
447,27,245098,6,0,P|412:54|352:52,1,100,0|6,0:0|0:0,0:0:0:0:
49,36,245769,2,0,L|185:124,1,150,8|8,0:0|0:0,0:0:0:0:
174,117,246217,1,0,0:0:0:0:
283,277,246441,2,0,L|251:225,1,50,2|0,0:0|0:0,0:0:0:0:
358,171,246665,2,0,L|338:217,1,50,8|0,0:0|0:0,0:0:0:0:
224,91,246889,6,0,P|302:38|380:93,1,200,6|2,0:0|0:0,0:0:0:0:
283,277,247560,1,8,0:0:0:0:
80,130,247784,1,0,0:0:0:0:
80,130,247896,1,8,0:0:0:0:
79,129,248008,2,0,P|128:137|173:116,1,100,0|0,0:0|0:0,0:0:0:0:
380,93,248456,2,0,L|340:204,1,100,4|0,0:0|0:0,0:0:0:0:
280,380,248904,6,0,B|255:347|255:347|206:379|144:331,1,150,6|2,0:0|0:0,0:0:0:0:
88,292,249351,1,8,0:0:0:0:
77,105,249575,2,0,B|102:138|102:138|151:106|213:154,1,150,4|0,0:0|0:0,0:0:0:0:
300,256,250023,2,0,L|322:301,1,50,2|0,0:0|0:0,0:0:0:0:
424,256,250247,2,0,L|446:212,1,50,2|0,0:0|0:0,0:0:0:0:
364,149,250471,5,4,0:0:0:0:
217,6,251814,6,0,B|233:46|233:46|213:82|213:82|241:122|221:194,1,200,0|12,0:0|0:0,0:0:0:0:
33,343,252486,6,0,P|74:332|124:297,1,100,6|0,0:0|0:0,0:0:0:0:
218,210,252934,1,8,0:0:0:0:
238,110,253157,1,0,0:3:0:0:
238,110,253269,1,8,0:0:0:0:
237,110,253381,2,0,P|198:109|140:149,1,100,2|0,0:0|0:3,0:0:0:0:
232,309,253829,2,0,P|234:279|226:241,1,50,8|0,0:0|0:0,0:0:0:0:
218,210,254053,1,0,0:0:0:0:
65,66,254277,6,0,P|102:33|150:25,1,100,2|0,0:0|0:0,0:0:0:0:
361,25,254725,2,0,P|409:33|447:66,1,100,8|0,0:0|0:0,0:0:0:0:
497,128,255060,1,8,0:0:0:0:
421,154,255172,2,0,L|325:194,1,100,2|0,0:0|0:0,0:0:0:0:
321,354,255620,2,0,P|383:334|413:282,1,100,8|0,0:0|0:0,0:0:0:0:
435,233,255956,1,8,0:0:0:0:
421,154,256068,6,0,L|316:92,1,100,2|0,0:0|0:0,0:0:0:0:
289,81,256404,1,0,0:0:0:0:
243,59,256516,1,8,0:0:0:0:
235,250,256740,2,0,L|235:186,2,50,0|8|2,0:0|0:0|0:0,0:0:0:0:
158,369,257187,2,0,P|115:383|62:361,1,100,0|8,0:0|0:0,0:0:0:0:
114,214,257635,1,0,0:0:0:0:
158,369,257859,5,2,0:0:0:0:
213,217,258083,1,0,0:0:0:0:
79,307,258307,1,8,0:0:0:0:
241,313,258531,1,0,0:0:0:0:
241,313,258642,1,8,0:0:0:0:
241,313,258754,2,0,L|334:360,1,100,2|0,0:0|0:0,0:0:0:0:
470,377,259202,2,0,P|434:352|398:293,1,100,8|0,0:0|0:0,0:0:0:0:
380,228,259538,1,8,0:0:0:0:
381,147,259650,1,6,0:0:0:0:
381,147,259874,6,0,P|342:122|257:127,1,100,0|8,0:0|0:0,0:0:0:0:
161,287,260322,2,0,L|186:244,1,50,0|8,0:0|0:0,0:0:0:0:
213,168,260545,2,0,P|166:154|128:116,1,100,2|0,0:0|0:0,0:0:0:0:
336,48,260993,2,0,P|289:61|251:100,1,100,8|0,0:0|0:0,0:0:0:0:
213,168,261329,1,8,0:0:0:0:
186,244,261441,5,6,0:0:0:0:
303,352,261665,1,0,0:0:0:0:
454,299,261889,1,8,0:0:0:0:
328,199,262113,1,0,0:0:0:0:
328,199,262225,1,8,0:0:0:0:
328,199,262337,2,0,P|376:179|428:191,1,100,2|0,0:0|0:0,0:0:0:0:
303,352,262784,2,0,P|255:372|203:360,1,100,8|0,0:0|0:0,0:0:0:0:
161,345,263120,1,8,0:0:0:0:
120,314,263232,5,6,0:0:0:0:
126,121,263456,1,8,0:0:0:0:
161,345,263680,1,0,0:0:0:0:
202,317,263792,2,8,P|222:301|238:282,1,50
297,88,264128,1,8,0:0:0:0:
145,37,264351,1,0,0:0:0:0:
169,195,264575,1,0,0:0:0:0:
244,5,264799,1,4,0:0:0:0:
417,44,265023,2,0,B|426:65|426:65|412:92|412:92|437:142|410:187,1,150,2|0,0:0|0:0,0:0:0:0:
385,261,265471,1,12,0:0:0:0:
254,141,265695,5,0,0:0:0:0:
207,122,265807,1,8,0:0:0:0:
156,119,265919,1,8,0:0:0:0:
108,135,266031,1,8,0:0:0:0:
69,166,266142,1,10,0:0:0:0:
40,206,266254,1,8,0:0:0:0:
25,253,266366,1,10,0:0:0:0:
28,302,266478,1,8,0:0:0:0:
49,347,266590,1,10,0:0:0:0:
90,372,266702,1,8,0:0:0:0:
135,371,266814,6,0,P|163:327|263:307,1,150.000005722046,6|0,0:0|0:0,0:0:0:0:
339,333,267486,1,0,0:0:0:0:
453,310,267710,2,0,L|417:376,1,75.0000028610231
339,333,268157,1,0,0:0:0:0:
431,153,268381,2,0,P|363:126|299:161,1,150.000005722046,2|0,0:1|0:0,0:0:0:0:
282,250,269053,1,0,0:0:0:0:
369,219,269277,2,0,L|360:65,1,150.000005722046,2|0,0:1|0:0,0:0:0:0:
236,69,269948,2,0,L|271:54,1,37.5000014305115
246,113,270172,2,0,L|196:135,1,37.5000014305115
139,150,270396,6,0,P|71:185|49:272,1,150.000005722046,2|0,0:0|0:0,0:0:0:0:
80,334,271068,2,0,L|110:390,1,37.5000014305115
141,354,271292,2,0,L|192:387,1,37.5000014305115
202,340,271516,2,0,L|267:363,1,37.5000014305115
262,314,271740,2,0,L|325:324,1,37.5000014305115
387,332,271963,2,0,P|370:266|294:233,1,150.000005722046,2|0,0:1|0:0,0:0:0:0:
221,226,272635,1,0,0:0:0:0:
151,112,272859,6,0,L|216:135,1,37.5000014305115,2|0,0:1|0:0,0:0:0:0:
227,105,273083,2,0,L|292:128,1,37.5000014305115
303,98,273307,2,0,L|368:121,1,37.5000014305115
414,103,273531,2,0,L|379:91,1,37.5000014305115
383,46,273754,2,0,L|347:33,1,37.5000014305115
272,21,273978,6,0,B|150:36|150:36|102:67,1,150.000005722046,2|0,0:0|0:0,0:0:0:0:
74,124,274650,2,0,L|27:215,1,75.0000028610231
29,367,275098,1,0,0:0:0:0:
16,278,275321,1,0,0:0:0:0:
29,367,275545,2,0,P|79:370|112:358,1,75.0000028610231,2|0,0:1|0:0,0:0:0:0:
259,277,275993,1,0,0:0:0:0:
187,331,276217,1,0,0:0:0:0:
358,346,276441,6,0,L|425:318,1,37.5000014305115,2|0,0:1|0:0,0:0:0:0:
363,296,276665,2,0,L|400:246,1,37.5000014305115
344,245,276889,2,0,L|366:179,1,37.5000014305115
310,205,277113,2,0,L|306:150,1,37.5000014305115
268,190,277336,2,0,L|233:144,1,37.5000014305115
212,191,277560,6,0,P|141:200|89:149,1,150.000005722046,6|0,0:0|0:0,0:0:0:0:
301,139,278232,2,0,P|242:96|170:111,1,150.000005722046,0|0,0:0|0:0,0:0:0:0:
156,337,278903,1,0,0:0:0:0:
89,149,279128,1,4,0:1:0:0:
156,337,279575,5,8,0:0:0:0:
244,215,279799,1,8,0:0:0:0:
338,331,280023,1,8,0:0:0:0:
414,201,280247,1,8,0:0:0:0:
295,88,280471,6,0,L|311:27,1,37.5000014305115,8|0,0:0|0:0,0:0:0:0:
216,88,280695,2,0,L|207:23,1,37.5000014305115,8|0,0:0|0:0,0:0:0:0:
148,114,280919,2,0,L|112:62,1,37.5000014305115,8|0,0:0|0:0,0:0:0:0:
