osu file format v14

[General]
AudioFilename: 2. Hail Storm.mp3
AudioLeadIn: 0
PreviewTime: 76220
Countdown: 0
SampleSet: Soft
StackLeniency: 0.7
Mode: 0
LetterboxInBreaks: 0
WidescreenStoryboard: 0

[Editor]
Bookmarks: 30324,58981,76891,141369,159279,187936,202265,223757,236294
DistanceSpacing: 0.5
BeatDivisor: 4
GridSize: 4
TimelineZoom: 1

[Metadata]
Title:Hail Storm
TitleUnicode:Hail Storm
Artist:FELT
ArtistUnicode:FELT
Creator:Kite
Version:Challenging
Source:東方Project
Tags:touhou cirno jmjmjm Icicle Fall Maika 舞花 NAGI☆ ZUN 美歌 Mika Beloved Tomboyish Girl 東方紅魔郷 Koumakyou th6 eosd embodiment of scarlet devil p3n Garven
BeatmapID:312973
BeatmapSetID:122349

[Difficulty]
HPDrainRate:6
CircleSize:4
OverallDifficulty:6
ApproachRate:8
SliderMultiplier:1.72
SliderTickRate:1

[Events]
//Background and Video events
0,0,"cirbg.png",0,0
//Break Periods
2,188212,200695
2,224033,235396
//Storyboard Layer 0 (Background)
//Storyboard Layer 1 (Fail)
//Storyboard Layer 2 (Pass)
//Storyboard Layer 3 (Foreground)
//Storyboard Sound Samples

[TimingPoints]
1744,447.761194029851,4,2,1,80,1,0
1744,-133.333333333333,4,2,1,80,0,0
15574,-100,4,2,3,80,0,0
15736,-100,4,2,1,80,0,0
28945,-100,4,2,0,80,0,0
29169,-100,4,2,1,80,0,0
29393,-100,4,3,0,80,0,0
30288,-111.111111111111,4,2,0,80,0,0
30512,-111.111111111111,4,2,2,80,0,0
59057,-125,4,2,1,80,0,0
62527,-125,4,2,0,80,0,0
62751,-125,4,2,1,80,0,0
64766,-125,4,2,0,80,0,0
65214,-125,4,2,1,80,0,0
66109,-111.111111111111,4,2,2,80,0,0
73273,-111.111111111111,4,1,2,50,0,0
74841,-111.111111111111,4,1,2,70,0,0
76520,-90.9090909090909,4,2,3,100,0,1
76855,-90.9090909090909,4,2,2,100,0,1
82005,-100,4,2,2,100,0,1
83796,-90.9090909090909,4,2,2,100,0,1
85587,-100,4,2,2,100,0,1
89393,-100,4,1,2,70,0,1
90848,-100,4,2,3,100,0,1
91184,-90.9090909090909,4,2,2,100,0,1
96333,-100,4,2,2,100,0,1
103497,-111.111111111111,4,2,2,100,0,1
105624,-100,4,2,2,80,0,0
107527,-100,4,1,2,60,0,0
108423,-100,4,2,2,80,0,0
112676,-133.333333333333,4,2,2,80,0,0
126333,-133.333333333333,4,2,2,50,0,0
126781,-133.333333333333,4,2,2,80,0,0
127005,-117.647058823529,4,2,2,80,0,0
134169,-111.111111111111,4,2,1,80,0,0
140885,-111.111111111111,4,2,2,60,0,0
141445,-125,4,2,1,80,0,0
142229,-125,4,2,2,80,0,0
142452,-125,4,2,1,80,0,0
144020,-125,4,2,2,80,0,0
144244,-125,4,2,1,80,0,0
145811,-125,4,2,2,80,0,0
146035,-125,4,2,1,80,0,0
147826,-125,4,2,2,60,0,0
148273,-125,4,2,1,80,0,0
148497,-111.111111111111,4,2,2,80,0,0
153982,-111.111111111111,4,2,1,80,0,0
154206,-111.111111111111,4,2,2,80,0,0
155661,-111.111111111111,4,1,2,60,0,0
157229,-111.111111111111,4,1,2,80,0,0
158908,-90.9090909090909,4,2,3,100,0,1
159355,-90.9090909090909,4,2,2,100,0,1
164393,-100,4,2,2,100,0,1
166408,-90.9090909090909,4,2,2,100,0,1
167975,-100,4,2,2,100,0,1
171781,-100,4,1,2,70,0,1
173124,-100,4,2,3,100,0,1
173572,-90.9090909090909,4,2,2,100,0,1
178721,-100,4,2,2,100,0,1
187452,-100,4,2,3,100,0,1
188012,-100,4,2,1,80,0,0
201333,-133.333333333333,4,2,1,80,0,0
202229,-100,4,2,1,80,0,0
202341,-100,4,2,1,90,0,0
215214,-100,4,2,2,90,0,0
215438,-100,4,2,1,90,0,0
220139,-100,4,2,1,5,0,0
235923,-100,4,2,1,80,0,0
237714,-86.9565217391304,4,2,3,100,0,1
237826,-86.9565217391304,4,2,2,100,0,1
243199,-95.2380952380952,4,2,2,100,0,1
250363,-133.333333333333,4,2,2,80,0,1
251706,-133.333333333333,4,2,1,80,0,1
251930,-86.9565217391304,4,2,1,80,0,0
252042,-95.2380952380952,4,2,3,80,0,1
252490,-100,4,2,2,90,0,1
253273,-100,4,2,1,90,0,1
253385,-100,4,2,2,90,0,1
255064,-100,4,2,1,90,0,1
255176,-100,4,2,2,90,0,1
256855,-100,4,2,1,90,0,1
256967,-100,4,2,2,90,0,1
260438,-100,4,2,1,90,0,1
260549,-100,4,2,2,90,0,1
262229,-100,4,2,1,90,0,1
262341,-100,4,2,2,90,0,1
263796,-100,4,2,1,90,0,1
264020,-100,4,2,2,90,0,1
264244,-100,4,2,1,90,0,1
264691,-100,4,2,2,90,0,1
265811,-100,4,3,0,90,0,1
266818,-100,4,2,2,90,0,0

[Colours]
Combo1 : 83,244,119
Combo2 : 167,248,243
Combo3 : 9,156,236
Combo4 : 24,220,166

[HitObjects]
389,321,1744,6,0,P|399:289|407:249,2,64.5000024604798,0|0|2,0:0|0:0|0:0,0:0:0:0:
224,224,2639,2,0,P|176:237|150:244,2,64.5000024604798,0|0|2,0:0|0:0|0:0,0:0:0:0:
338,116,3535,5,4,0:0:0:0:
407,149,3758,1,2,0:0:0:0:
407,149,3982,2,0,P|406:192|401:217,1,64.5000024604798,0|2,0:0|0:0,0:0:0:0:
317,222,4430,2,0,P|320:261|325:295,1,64.5000024604798,0|2,0:0|0:0,0:0:0:0:
323,286,4878,1,2,0:0:0:0:
111,108,5326,6,0,P|177:76|235:97,1,129.00000492096,4|2,0:0|0:0,0:0:0:0:
199,286,6221,2,0,P|185:319|166:353,1,64.5000024604798,0|0,0:0|0:0,0:0:0:0:
171,344,6669,1,2,0:0:0:0:
318,180,7117,6,0,P|354:168|384:172,1,64.5000024604798,0|2,0:0|0:0,0:0:0:0:
452,208,7564,2,0,P|448:244|442:282,1,64.5000024604798,0|2,0:0|0:0,0:0:0:0:
370,305,8012,1,0,0:0:0:0:
294,115,8460,1,2,0:0:0:0:
96,98,8908,5,4,0:0:0:0:
96,98,9355,2,0,P|85:144|79:175,1,64.5000024604798,2|0,0:0|0:0,0:0:0:0:
193,344,10027,1,0,0:0:0:0:
193,344,10251,2,0,L|196:311|199:278,1,64.5000024604798,2|0,0:0|0:0,0:0:0:0:
208,196,10699,5,2,0:0:0:0:
315,66,11146,1,0,0:0:0:0:
315,66,11370,1,2,0:0:0:0:
452,156,11818,2,0,P|457:205|459:233,1,64.5000024604798,0|2,0:0|0:0,0:0:0:0:
464,303,12266,1,2,0:0:0:0:
464,303,12490,5,4,0:0:0:0:
293,340,12938,1,2,0:0:0:0:
293,340,13385,2,0,P|256:342|229:343,1,64.5000024604798,0|2,0:0|0:0,0:0:0:0:
147,343,13833,1,2,0:0:0:0:
28,182,14281,5,4,0:0:0:0:
99,135,14505,1,4,0:0:0:0:
210,195,14729,1,4,0:0:0:0:
133,212,14952,1,4,0:0:0:0:
211,112,15176,1,2,0:0:0:0:
223,100,15288,1,2,0:0:0:0:
235,88,15400,1,2,0:0:0:0:
248,76,15512,1,2,0:0:0:0:
261,64,15624,1,8,0:0:0:0:
453,317,16072,6,0,P|414:332|364:315,1,86,4|0,0:0|0:0,0:0:0:0:
310,244,16520,1,8,0:0:0:0:
391,187,16744,1,0,0:0:0:0:
391,187,16855,2,0,P|410:129|381:68,1,129,0|0,0:0|0:0,0:0:0:0:
362,52,17303,2,0,P|302:47|226:39,1,129,0|0,0:0|0:0,0:0:0:0:
216,38,17751,1,0,0:0:0:0:
198,36,17863,1,0,0:0:0:0:
85,104,18087,5,0,0:0:0:0:
122,187,18311,2,0,P|173:203|213:216,1,86,8|0,0:0|0:0,0:0:0:0:
224,219,18646,1,8,0:0:0:0:
245,223,18758,2,0,P|299:155|267:86,1,172,0|8,0:0|0:0,0:0:0:0:
122,188,19430,1,0,0:0:0:0:
116,204,19542,1,0,0:0:0:0:
110,220,19654,6,0,P|92:271|78:306,2,86,4|0|8,0:0|0:0|0:0,0:0:0:0:
195,135,20326,1,0,0:0:0:0:
195,135,20438,1,0,0:0:0:0:
195,135,20549,2,0,P|214:80|223:53,1,86
307,171,20997,2,0,P|294:218|281:260,1,86,8|0,0:0|0:0,0:0:0:0:
278,270,21333,1,0,0:0:0:0:
273,286,21445,6,0,P|316:264|399:288,1,129,0|0,0:0|0:0,0:0:0:0:
403,294,21893,1,8,0:0:0:0:
470,358,22117,1,0,0:0:0:0:
470,358,22229,1,0,0:0:0:0:
470,358,22341,2,0,P|487:317|501:278,1,86
435,204,22788,2,0,P|437:165|441:119,1,86,8|0,0:0|0:0,0:0:0:0:
361,50,23236,6,0,P|315:37|231:43,1,129,4|8,0:0|0:0,0:0:0:0:
219,49,23684,1,8,0:0:0:0:
77,115,23908,1,0,0:0:0:0:
77,115,24020,2,0,P|68:182|59:244,1,129
108,333,24579,1,8,0:0:0:0:
108,333,24691,1,0,0:0:0:0:
108,333,24803,1,0,0:0:0:0:
194,265,25027,6,0,P|246:257|281:263,1,86,4|0,0:0|0:0,0:0:0:0:
294,268,25363,1,0,0:0:0:0:
309,274,25475,1,0,0:0:0:0:
382,328,25699,1,0,0:0:0:0:
386,344,25811,1,0,0:0:0:0:
463,296,26035,1,0,0:0:0:0:
471,281,26146,1,0,0:0:0:0:
388,227,26370,2,0,P|382:194|374:142,1,86,8|0,0:0|0:0,0:0:0:0:
446,37,26818,6,0,P|455:104|462:166,1,129,4|0,0:0|0:0,0:0:0:0:
464,182,27266,1,8,0:0:0:0:
390,228,27490,1,0,0:0:0:0:
389,210,27602,1,0,0:0:0:0:
464,271,27826,1,0,0:0:0:0:
460,287,27938,1,0,0:0:0:0:
383,336,28161,2,0,P|334:350|296:333,1,86,8|0,0:0|0:0,0:0:0:0:
208,269,28609,5,4,0:0:0:0:
180,165,28833,1,0,0:0:0:0:
180,165,28945,1,0,0:0:0:0:
180,165,29057,2,0,P|168:117|159:77,1,86,4|0,0:0|0:0,0:0:0:0:
63,28,29505,2,4,L|54:72,2,43,0|0|0,3:0|3:0|3:0,3:0:0:0:
85,165,29952,2,0,L|75:207,2,43
226,86,30400,6,0,P|270:77|306:91,1,77.3999976379395,4|0,0:0|0:0,0:0:0:0:
392,149,30848,2,2,P|386:208|377:265,1,116.099996456909,8|0,0:0|0:0,0:0:0:0:
373,283,31296,1,0,0:0:0:0:
276,255,31520,2,0,P|266:289|255:335,1,77.3999976379395,2|8,0:0|0:0,0:0:0:0:
125,345,31967,6,0,P|88:298|123:213,1,154.799995275879
223,185,32639,1,8,0:0:0:0:
212,77,32863,1,2,0:0:0:0:
212,77,33087,2,0,L|137:52|59:26,1,154.799995275879,0|8,0:0|0:0,0:0:0:0:
78,120,33758,1,2,0:0:0:0:
97,211,33982,6,0,P|110:258|118:290,1,77.3999976379395
200,344,34430,1,8,0:0:0:0:
258,262,34654,2,0,P|324:240|398:276,1,154.799995275879
321,334,35326,5,8,0:0:0:0:
321,334,35549,1,2,0:0:0:0:
421,301,35773,1,0,0:0:0:0:
421,301,35885,2,0,P|417:248|411:182,1,116.099996456909,0|8,0:0|0:0,0:0:0:0:
463,102,36445,6,0,P|411:73|321:113,1,154.799995275879,0|2,0:0|0:0,0:0:0:0:
250,183,37117,2,0,P|207:201|170:193,1,77.3999976379395,8|0,0:0|0:0,0:0:0:0:
72,140,37564,1,4,0:1:0:0:
72,140,38012,1,8,0:0:0:0:
72,140,38236,2,0,P|61:206|44:300,1,154.799995275879,2|0,0:0|0:0,0:0:0:0:
144,363,38908,2,0,P|146:309|147:280,1,77.3999976379395,8|0,0:0|0:0,0:0:0:0:
189,175,39355,6,0,P|240:150|323:197,1,154.799995275879,0|8,0:0|0:0,0:0:0:0:
309,316,40027,1,2,0:0:0:0:
309,316,40139,2,0,P|342:348|415:344,1,116.099996456909
476,289,40699,2,0,P|485:243|474:208,1,77.3999976379395,8|0,0:0|0:0,0:0:0:0:
398,132,41146,6,0,P|334:117|247:97,1,154.799995275879,4|8,0:1|0:0,0:0:0:0:
147,152,41930,1,0,0:0:0:0:
147,152,42042,2,0,P|92:164|63:171,1,77.3999976379395,0|2,0:0|0:0,0:0:0:0:
171,73,42490,1,8,0:0:0:0:
231,172,42714,2,0,P|239:257|232:329,1,154.799995275879,0|2,0:0|0:0,0:0:0:0:
152,358,43385,5,8,0:0:0:0:
68,279,43609,1,0,0:0:0:0:
68,279,43721,2,0,P|61:222|66:163,1,116.099996456909,0|2,0:0|0:0,0:0:0:0:
128,58,44281,1,8,0:0:0:0:
144,61,44393,1,0,0:0:0:0:
160,64,44505,1,0,0:0:0:0:
176,68,44617,1,0,0:0:0:0:
192,72,44729,6,0,P|241:77|352:88,1,154.799995275879,4|8,0:1|0:0,0:0:0:0:
457,154,45512,1,0,0:0:0:0:
457,154,45624,2,0,P|464:193|456:242,1,77.3999976379395
397,289,46072,1,8,0:0:0:0:
320,212,46296,6,0,P|265:186|190:232,1,154.799995275879,2|0,0:0|0:0,0:0:0:0:
262,277,46967,2,0,P|265:319|267:360,1,77.3999976379395,8|0,0:0|0:0,0:0:0:0:
191,231,47415,2,0,P|184:143|185:74,1,154.799995275879,0|8,0:0|0:0,0:0:0:0:
267,27,48087,1,2,0:0:0:0:
354,59,48311,6,0,B|379:96|376:138|376:138|364:180|378:208,1,154.799995275879,4|8,0:1|0:0,0:0:0:0:
439,260,48982,2,0,P|384:222|302:242,1,154.799995275879
225,306,49654,2,0,P|187:318|150:311,1,77.3999976379395,8|2,0:0|0:0,0:0:0:0:
63,264,50102,5,0,0:0:0:0:
63,264,50214,2,0,P|52:189|46:148,1,116.099996456909,0|8,0:0|0:0,0:0:0:0:
148,47,50885,1,0,0:0:0:0:
148,47,50997,1,2,0:0:0:0:
183,138,51221,2,0,P|184:175|185:215,1,77.3999976379395,0|8,0:0|0:0,0:0:0:0:
185,215,51669,1,2,0:0:0:0:
267,84,51893,6,0,P|329:63|403:109,1,154.799995275879,4|8,0:1|0:0,0:0:0:0:
440,192,52564,1,0,0:0:0:0:
440,192,52676,2,0,P|434:244|427:308,1,116.099996456909
354,355,53236,1,8,0:0:0:0:
286,258,53460,5,2,0:0:0:0:
286,258,53572,1,0,0:0:0:0:
286,258,53684,1,0,0:0:0:0:
191,282,53908,1,0,0:0:0:0:
217,185,54132,2,0,P|230:142|247:109,1,77.3999976379395,8|0,0:0|0:0,0:0:0:0:
192,282,54579,2,0,P|108:299|53:259,1,154.799995275879,0|8,0:0|0:0,0:0:0:0:
43,162,55251,5,2,0:0:0:0:
48,143,55363,1,0,0:0:0:0:
53,124,55475,2,0,P|61:85|70:45,2,77.3999976379395,0|0|8,0:0|0:0|0:0,0:0:0:0:
127,189,56146,1,0,0:0:0:0:
127,189,56258,2,0,P|131:250|134:307,1,116.099996456909
217,340,56818,1,8,0:0:0:0:
298,299,57042,1,2,0:0:0:0:
377,344,57266,5,0,0:0:0:0:
377,344,57378,1,0,0:0:0:0:
377,344,57490,1,8,0:0:0:0:
457,236,57714,1,8,0:0:0:0:
343,164,57938,1,4,0:0:0:0:
267,275,58161,2,0,P|228:286|189:296,1,77.3999976379395,0|8,0:0|0:0,0:0:0:0:
49,303,58609,1,8,0:0:0:0:
49,303,58721,1,8,0:0:0:0:
49,303,58833,1,8,0:0:0:0:
73,200,59057,6,0,P|79:152|78:98,2,103.2,4|0|0,0:0|0:0|0:0,0:0:0:0:
127,263,59952,2,0,P|128:306|123:337,1,68.8,8|0,0:0|0:0,0:0:0:0:
201,233,60400,2,0,P|205:198|212:160,1,68.8
260,288,60848,1,4,0:0:0:0:
260,288,60960,2,0,P|307:307|358:297,1,103.2,0|0,0:0|0:0,0:0:0:0:
421,249,61520,2,0,P|434:291|431:318,1,68.8,0|8,0:0|0:0,0:0:0:0:
348,220,61967,5,0,0:0:0:0:
325,140,62191,1,0,0:0:0:0:
351,61,62415,1,0,0:0:0:0:
325,140,62639,2,0,P|277:163|196:138,1,137.6,4|0,0:0|0:0,0:0:0:0:
145,77,63311,1,0,0:0:0:0:
116,154,63535,2,0,P|97:210|90:227,1,68.8,8|0,0:0|0:0,0:0:0:0:
178,242,63982,2,0,L|178:291|178:317,1,68.8,0|0,0:0|0:0,0:0:0:0:
265,291,64430,6,0,P|331:277|401:297,1,137.6,4|0,0:0|0:0,0:0:0:0:
397,295,64990,1,0,0:0:0:0:
397,295,65102,1,2,0:0:0:0:
465,360,65326,1,8,0:0:0:0:
490,271,65549,1,0,0:0:0:0:
490,271,65661,1,0,0:0:0:0:
490,271,65773,2,0,P|492:220|490:197,1,68.8,4|0,0:0|0:0,0:0:0:0:
450,91,66221,6,0,P|396:76|335:61,1,116.099996456909,4|0,0:0|0:0,0:0:0:0:
318,56,66669,1,8,0:0:0:0:
269,126,66893,1,2,0:0:0:0:
293,207,67117,2,0,P|297:253|290:286,1,77.3999976379395
212,190,67564,1,8,0:0:0:0:
269,126,67788,2,0,P|312:122|346:122,1,77.3999976379395,2|0,0:0|0:0,0:0:0:0:
203,214,68236,6,0,P|183:176|188:138,1,77.3999976379395,0|8,0:0|0:0,0:0:0:0:
147,285,68684,2,0,P|86:305|16:252,1,154.799995275879,2|0,0:0|0:0,0:0:0:0:
0,160,69355,1,8,0:0:0:0:
48,78,69579,1,2,0:0:0:0:
145,47,69803,6,0,P|175:82|193:111,1,77.3999976379395,4|0,0:0|0:0,0:0:0:0:
217,221,70251,2,0,P|274:259|349:231,1,154.799995275879,2|0,0:0|0:0,0:0:0:0:
402,149,70923,1,2,0:0:0:0:
312,149,71146,2,0,P|303:106|307:69,1,77.3999976379395,2|0,0:0|0:0,0:0:0:0:
402,149,71594,5,0,0:0:0:0:
402,149,71706,2,0,P|406:215|402:268,1,116.099996456909,8|0,0:0|0:0,0:0:0:0:
342,334,72266,1,2,0:0:0:0:
281,269,72490,2,0,P|240:259|203:258,1,77.3999976379395,8|0,0:0|0:0,0:0:0:0:
77,346,72938,2,0,P|125:351|163:343,1,77.3999976379395,8|0,0:0|0:0,0:0:0:0:
50,241,73385,5,0,0:0:0:0:
50,241,73609,1,0,0:0:0:0:
103,113,73833,1,0,0:0:0:0:
103,113,74057,1,0,0:0:0:0:
210,220,74281,1,0,0:0:0:0:
210,220,74393,1,0,0:0:0:0:
210,220,74505,1,0,0:0:0:0:
374,248,74729,1,0,0:0:0:0:
328,93,74952,5,0,0:0:0:0:
328,93,75400,1,0,0:0:0:0:
374,248,75624,1,0,0:0:0:0:
496,134,75848,1,0,0:0:0:0:
188,101,76520,1,8,0:0:0:0:
166,213,76744,1,0,0:0:0:0:
274,288,76967,6,0,P|296:229|278:193,1,94.600002886963,2|0,0:0|0:0,0:0:0:0:
201,308,77303,2,0,P|228:348|272:361,1,94.600002886963,8|0,0:0|0:0,0:0:0:0:
221,237,77639,2,0,P|173:238|146:360,1,189.200005773926,2|0,0:0|0:0,0:0:0:0:
343,357,78311,1,8,0:0:0:0:
419,270,78535,1,0,0:0:0:0:
396,141,78758,6,0,P|344:125|304:140,1,94.600002886963,2|0,0:0|0:0,0:0:0:0:
351,203,79094,2,0,P|398:217|445:197,1,94.600002886963,8|0,0:0|0:0,0:0:0:0:
307,137,79430,2,0,P|273:186|344:277,1,189.200005773926,2|0,0:0|0:0,0:0:0:0:
356,75,80102,5,8,0:0:0:0:
251,36,80326,1,0,0:0:0:0:
143,79,80549,2,0,P|126:129|128:175,1,94.600002886963,4|0,0:0|0:0,0:0:0:0:
170,287,80997,1,8,0:0:0:0:
256,195,81221,1,2,0:0:0:0:
127,170,81445,2,0,P|74:171|42:196,1,94.600002886963,0|2,0:0|0:0,0:0:0:0:
170,287,81893,1,8,0:0:0:0:
256,195,82117,6,0,P|265:110|254:22,1,172,2|0,0:0|0:0,0:0:0:0:
146,21,82788,1,8,0:0:0:0:
76,104,83012,1,0,0:0:0:0:
76,104,83124,2,0,P|71:173|67:237,1,129,2|0,0:0|0:0,0:0:0:0:
67,232,83684,1,8,0:0:0:0:
242,342,83908,5,2,0:0:0:0:
327,254,84132,1,4,0:0:0:0:
212,224,84355,1,0,0:0:0:0:
212,224,84467,2,0,P|209:170|228:127,1,94.600002886963,2|0,0:0|0:0,0:0:0:0:
288,187,84803,2,0,P|367:221|452:173,1,189.200005773926,2|0,0:0|0:0,0:0:0:0:
474,62,85475,1,8,0:0:0:0:
290,25,85699,5,2,0:0:0:0:
290,25,85811,2,0,P|206:38|156:46,1,129,0|0,0:0|0:0,0:0:0:0:
105,124,86370,1,8,0:0:0:0:
265,151,86594,1,2,0:0:0:0:
265,151,86706,2,0,P|325:162|392:173,1,129
446,261,87266,1,8,0:0:0:0:
290,304,87490,5,2,0:0:0:0:
290,304,87602,2,0,P|223:320|164:334,1,129
72,283,88161,1,8,0:0:0:0:
92,185,88385,1,2,0:0:0:0:
92,185,88497,1,0,0:0:0:0:
186,219,88721,1,2,0:0:0:0:
186,219,88833,2,0,P|240:166|221:71,1,172,0|2,0:0|0:0,0:0:0:0:
139,30,89505,5,0,0:0:0:0:
48,69,89729,1,0,0:0:0:0:
215,96,89952,1,4,0:0:0:0:
311,72,90176,1,0,0:0:0:0:
130,159,90400,1,0,0:0:0:0:
124,184,90512,1,0,0:0:0:0:
118,209,90624,1,0,0:0:0:0:
112,234,90736,1,0,0:0:0:0:
105,258,90848,2,0,L|83:342,1,86,8|0,0:0|0:0,0:0:0:0:
251,225,91296,6,0,P|297:216|337:239,1,94.600002886963,2|0,0:0|0:0,0:0:0:0:
212,288,91632,2,0,P|178:245|181:203,1,94.600002886963,8|0,0:0|0:0,0:0:0:0:
286,292,91967,2,0,P|262:344|148:330,1,189.200005773926,2|0,0:0|0:0,0:0:0:0:
70,212,92639,1,8,0:0:0:0:
120,83,92863,1,0,0:0:0:0:
256,58,93087,6,0,P|306:53|347:80,1,94.600002886963,2|0,0:0|0:0,0:0:0:0:
317,209,93423,2,0,P|288:171|290:119,1,94.600002886963,8|0,0:0|0:0,0:0:0:0:
369,7,93758,2,0,P|417:75|359:147,1,189.200005773926,2|0,0:0|0:0,0:0:0:0:
234,78,94430,1,8,0:0:0:0:
95,49,94654,1,0,0:0:0:0:
25,172,94878,6,0,P|14:217|27:266,1,94.600002886963,2|0,0:0|0:0,0:0:0:0:
123,355,95326,1,8,0:0:0:0:
165,229,95549,1,2,0:0:0:0:
292,307,95773,2,0,P|352:319|378:304,1,94.600002886963,0|2,0:0|0:0,0:0:0:0:
344,191,96221,1,8,0:0:0:0:
462,216,96445,6,0,P|468:123|452:47,1,172,2|0,0:0|0:0,0:0:0:0:
352,14,97117,1,8,0:0:0:0:
321,117,97341,1,0,0:0:0:0:
321,117,97452,2,0,P|281:155|211:149,1,129,2|0,0:0|0:0,0:0:0:0:
134,80,98012,1,8,0:0:0:0:
48,179,98236,5,2,0:0:0:0:
39,203,98348,1,0,0:0:0:0:
30,227,98460,2,0,P|25:280|22:314,2,86,4|0|8,0:0|0:0|0:0,0:0:0:0:
123,151,99132,1,2,0:0:0:0:
123,151,99244,2,0,P|128:93|135:20,1,129,0|0,0:0|0:0,0:0:0:0:
225,148,99803,1,8,0:0:0:0:
225,148,100027,2,0,P|232:218|242:324,1,172,2|0,0:0|0:0,0:0:0:0:
322,360,100699,1,8,0:0:0:0:
425,279,100923,5,2,0:0:0:0:
425,279,101035,2,0,P|445:218|431:153,1,129
294,98,101594,2,0,P|325:137|360:144,1,86,8|0,0:0|0:0,0:0:0:0:
344,40,102042,2,0,P|294:18|215:96,1,172,4|8,0:0|0:0,0:0:0:0:
288,232,102714,1,2,0:0:0:0:
302,253,102826,1,0,0:0:0:0:
316,274,102938,2,0,P|355:292|397:311,1,86,0|8,0:0|0:0,0:0:0:0:
477,184,103385,5,8,0:0:0:0:
382,175,103609,2,0,P|317:168|224:157,1,154.799995275879,4|0,0:1|0:0,0:0:0:0:
160,218,104281,1,0,0:0:0:0:
181,306,104505,1,2,0:0:0:0:
39,173,104952,1,0,0:0:0:0:
181,40,105400,1,2,0:0:0:0:
181,40,105624,5,0,0:0:0:0:
237,101,105848,1,0,0:0:0:0:
159,117,106072,1,0,0:0:0:0:
230,180,106296,1,8,0:0:0:0:
237,101,106520,1,0,0:0:0:0:
302,151,106744,1,0,0:0:0:0:
354,88,106967,1,4,0:0:0:0:
378,164,107191,1,0,0:0:0:0:
302,151,107415,1,0,0:0:0:0:
433,25,107639,5,0,0:0:0:0:
450,132,107863,1,0,0:0:0:0:
409,232,108087,1,0,0:0:0:0:
319,292,108311,2,0,P|259:301|192:288,2,129,0|8|8,0:0|0:0|0:0,0:0:0:0:
409,232,109206,2,0,P|449:235|495:253,1,86,0|0,0:0|0:0,0:0:0:0:
307,187,109654,2,0,P|306:140|314:102,2,86,8|0|0,0:0|0:0|0:0,0:0:0:0:
319,292,110326,1,4,0:0:0:0:
256,192,110549,12,0,112341,0:0:0:0:
113,142,112788,6,0,P|104:206|95:273,2,129.00000492096,4|2|0,0:0|0:0|0:0,0:0:0:0:
157,72,113908,1,0,3:0:0:0:
164,56,114020,1,0,3:0:0:0:
172,40,114132,1,0,3:0:0:0:
239,104,114355,2,0,P|288:122|363:113,1,129.00000492096,2|0,0:0|0:0,0:0:0:0:
434,74,115027,1,0,0:0:0:0:
434,74,115251,1,2,0:0:0:0:
452,149,115475,2,0,P|449:185|446:219,1,64.5000024604798,0|0,0:0|3:0,0:0:0:0:
445,229,115811,1,0,3:0:0:0:
444,245,115923,1,0,3:0:0:0:
383,300,116146,1,2,0:0:0:0:
314,254,116370,6,0,P|256:236|192:256,1,129.00000492096,4|2,0:0|0:0,0:0:0:0:
131,298,117042,2,0,P|74:318|9:297,1,129.00000492096,0|0,0:0|3:0,0:0:0:0:
6,282,117602,1,0,3:0:0:0:
3,266,117714,1,0,3:0:0:0:
46,195,117938,1,2,0:0:0:0:
125,223,118161,2,0,P|174:224|222:214,2,96.7500036907198
197,327,119281,1,0,3:0:0:0:
209,337,119393,1,0,3:0:0:0:
220,348,119505,2,0,P|262:364|280:371,1,64.5000024604798,0|0,3:0|0:0,0:0:0:0:
368,355,119952,6,0,P|386:308|374:232,1,129.00000492096,4|2,0:0|0:0,0:0:0:0:
318,176,120624,2,0,P|321:110|323:42,1,129.00000492096,0|0,0:0|3:0,0:0:0:0:
332,33,121184,1,0,3:0:0:0:
340,19,121296,1,0,3:0:0:0:
423,15,121520,1,2,0:0:0:0:
486,71,121744,2,0,P|483:121|476:167,2,96.7500036907198,0|2|0,0:0|0:0|0:0,0:0:0:0:
354,171,122863,1,0,3:0:0:0:
358,186,122975,1,0,3:0:0:0:
362,201,123087,2,0,P|375:251|379:268,1,64.5000024604798,0|0,3:0|0:0,0:0:0:0:
339,342,123535,6,0,P|292:354|243:344,2,96.7500036907198,4|2|0,0:0|0:0|0:0,0:0:0:0:
466,219,124654,1,0,3:0:0:0:
459,204,124766,1,0,3:0:0:0:
451,189,124878,2,0,P|437:157|422:127,1,64.5000024604798,0|0,3:0|0:0,0:0:0:0:
362,71,125326,6,0,P|311:51|244:75,1,129.00000492096,0|2,0:0|0:0,0:0:0:0:
243,75,125997,1,2,0:0:0:0:
129,236,126445,1,4,3:0:0:0:
129,236,126557,1,4,3:0:0:0:
129,236,126669,1,8,3:0:0:0:
176,171,126893,1,2,0:0:0:0:
211,247,127117,6,0,P|264:270|349:231,1,146.200002788544,4|2,0:0|0:0,0:0:0:0:
387,174,127788,1,0,0:0:0:0:
309,167,128012,1,2,0:0:0:0:
309,167,128236,2,0,P|303:121|300:88,1,73.1000013942719,0|2,0:0|0:0,0:0:0:0:
360,41,128684,6,0,P|428:18|496:52,1,146.200002788544
452,126,129355,2,0,P|444:162|447:200,1,73.1000013942719,2|0,0:0|0:0,0:0:0:0:
459,283,129803,1,2,0:0:0:0:
386,330,130027,1,0,0:0:0:0:
305,309,130251,2,0,P|268:303|234:313,1,73.1000013942719,2|0,0:0|0:0,0:0:0:0:
345,238,130699,6,0,P|363:164|342:98,1,146.200002788544,2|2,0:0|0:0,0:0:0:0:
269,51,131370,1,0,0:0:0:0:
269,51,131594,2,0,P|232:76|206:92,1,73.1000013942719,2|0,0:0|0:0,0:0:0:0:
132,46,132042,2,0,P|94:73|70:91,1,73.1000013942719,2|0,0:0|0:0,0:0:0:0:
30,164,132490,6,0,P|21:224|26:310,1,146.200002788544,2|2,0:0|0:0,0:0:0:0:
169,359,133385,1,2,0:0:0:0:
205,282,133609,1,0,0:0:0:0:
152,220,133833,2,0,P|150:179|154:145,1,73.1000013942719,2|0,0:0|0:0,0:0:0:0:
223,69,134281,6,0,P|273:40|361:69,1,154.799995275879,4|8,0:1|0:0,0:0:0:0:
452,184,135064,1,0,3:0:0:0:
452,184,135176,2,0,P|448:233|439:260,1,77.3999976379395,0|0,3:0|0:0,0:0:0:0:
394,336,135624,1,8,0:0:0:0:
350,259,135848,5,0,3:0:0:0:
350,259,135960,1,0,3:0:0:0:
350,259,136072,2,0,P|306:246|275:251,1,77.3999976379395,0|0,3:0|0:0,0:0:0:0:
220,327,136520,2,0,P|180:340|145:330,1,77.3999976379395,8|0,0:0|0:0,0:0:0:0:
70,267,136967,2,0,P|61:204|47:114,1,154.799995275879,0|8,3:0|0:0,0:0:0:0:
153,50,137639,5,0,3:0:0:0:
153,50,137751,1,0,3:0:0:0:
153,50,137863,2,0,P|227:27|300:52,1,154.799995275879,4|8,3:0|0:0,0:0:0:0:
234,160,138646,1,0,3:0:0:0:
234,160,138758,2,0,P|223:198|227:238,1,77.3999976379395,0|0,3:0|0:0,0:0:0:0:
256,329,139206,1,8,0:0:0:0:
326,256,139430,5,0,3:0:0:0:
326,256,139542,1,0,3:0:0:0:
326,256,139654,1,0,3:0:0:0:
393,158,139878,1,2,0:0:0:0:
460,61,140102,1,4,0:0:0:0:
338,57,140326,5,2,0:0:0:0:
338,57,140438,1,2,0:0:0:0:
338,57,140549,1,2,0:0:0:0:
393,158,140773,1,0,0:0:0:0:
456,259,140997,1,8,0:0:0:0:
465,275,141109,1,8,0:0:0:0:
474,291,141221,1,8,0:0:0:0:
356,251,141445,6,0,P|293:228|230:255,1,137.6,4|2,0:1|0:0,0:0:0:0:
165,308,142117,1,0,0:0:0:0:
97,257,142341,2,0,P|92:219|90:189,1,68.8,8|0,0:0|0:0,0:0:0:0:
168,155,142788,2,0,P|171:107|175:81,1,68.8,2|0,0:0|0:0,0:0:0:0:
106,36,143236,5,0,0:0:0:0:
106,36,143348,2,0,P|57:28|6:42,1,103.2,8|2,0:0|0:0,0:0:0:0:
34,124,143908,2,0,P|35:159|26:199,1,68.8,0|8,0:0|0:0,0:0:0:0:
7,275,144355,5,0,0:0:0:0:
62,341,144579,1,2,0:0:0:0:
148,349,144803,1,0,0:0:0:0:
228,318,145027,2,0,P|274:304|362:319,1,137.6,4|2,0:1|0:0,0:0:0:0:
439,356,145699,1,0,0:0:0:0:
481,281,145923,2,0,P|492:248|493:213,1,68.8,8|0,0:0|0:0,0:0:0:0:
491,128,146370,1,2,0:0:0:0:
491,128,146594,1,0,0:0:0:0:
418,174,146818,5,0,0:0:0:0:
418,174,146930,2,0,P|357:193|317:182,1,103.2,8|0,0:0|0:0,0:0:0:0:
248,144,147490,2,0,P|194:122|114:142,1,137.6,2|8,0:0|0:0,0:0:0:0:
109,153,148049,1,8,0:0:0:0:
100,167,148161,1,8,0:0:0:0:
80,248,148385,1,0,0:0:0:0:
124,331,148609,6,0,P|171:338|238:349,1,116.099996456909,4|0,0:0|0:0,0:0:0:0:
257,352,149057,1,8,0:0:0:0:
334,298,149281,1,0,0:0:0:0:
304,214,149505,2,0,P|296:172|303:137,1,77.3999976379395,2|0,0:0|0:0,0:0:0:0:
379,90,149952,1,8,0:0:0:0:
459,208,150176,6,0,P|465:254|465:289,1,77.3999976379395,2|0,0:0|0:0,0:0:0:0:
383,180,150624,2,0,P|394:140|410:108,1,77.3999976379395,2|8,0:0|0:0,0:0:0:0:
386,263,151072,2,0,P|333:282|237:263,1,154.799995275879,2|0,0:0|0:0,0:0:0:0:
177,175,151744,1,8,0:0:0:0:
209,82,151967,1,2,0:0:0:0:
107,40,152191,6,0,P|62:52|43:149,1,154.799995275879,4|0,0:0|0:0,0:0:0:0:
93,226,152863,1,2,0:0:0:0:
117,319,153087,2,0,P|86:346|50:357,1,77.3999976379395,8|2,0:0|0:0,0:0:0:0:
93,226,153535,2,0,P|137:216|170:218,1,77.3999976379395,0|2,0:0|0:0,0:0:0:0:
250,298,153982,5,0,0:0:0:0:
250,298,154094,2,0,P|302:320|362:307,1,116.099996456909,8|0,0:0|0:0,0:0:0:0:
429,240,154654,1,0,0:0:0:0:
442,146,154878,2,0,P|439:101|434:64,1,77.3999976379395,8|0,0:0|0:0,0:0:0:0:
329,158,155326,2,0,P|336:212|340:236,1,77.3999976379395,8|0,0:0|0:0,0:0:0:0:
294,59,155773,5,0,0:0:0:0:
181,38,155997,1,0,0:0:0:0:
210,153,156221,2,0,P|211:200|201:232,1,77.3999976379395
86,310,156669,5,0,0:0:0:0:
86,310,156781,1,0,0:0:0:0:
86,310,156893,1,0,0:0:0:0:
66,199,157117,1,0,0:0:0:0:
46,84,157341,5,0,0:0:0:0:
46,84,157788,1,0,0:0:0:0:
171,191,158012,1,0,0:0:0:0:
211,32,158236,1,0,0:0:0:0:
288,312,158908,1,8,0:0:0:0:
408,329,159132,1,0,0:0:0:0:
275,211,159355,6,0,P|228:202|186:220,1,94.600002886963,2|0,0:0|0:0,0:0:0:0:
332,259,159691,2,0,P|350:215|337:163,1,94.600002886963,8|0,0:0|0:0,0:0:0:0:
261,285,160027,2,0,P|294:339|407:330,1,189.200005773926,2|0,0:0|0:0,0:0:0:0:
470,209,160699,5,8,0:0:0:0:
437,66,160923,1,0,0:0:0:0:
299,164,161146,2,0,P|250:175|213:153,1,94.600002886963,2|0,0:0|0:0,0:0:0:0:
268,99,161482,2,0,P|309:88|355:112,1,94.600002886963,8|0,0:0|0:0,0:0:0:0:
214,154,161818,2,0,P|189:98|274:22,1,189.200005773926,2|0,0:0|0:0,0:0:0:0:
443,127,162490,1,8,0:0:0:0:
473,220,162714,1,0,0:0:0:0:
427,309,162938,6,0,P|386:328|334:315,1,94.600002886963,2|0,0:0|0:0,0:0:0:0:
252,253,163385,1,8,0:0:0:0:
142,231,163609,2,0,P|130:273|137:326,1,94.600002886963,2|0,0:0|0:0,0:0:0:0:
252,253,164057,1,2,0:0:0:0:
308,167,164281,1,8,0:0:0:0:
207,142,164505,6,0,P|127:135|33:130,1,172,2|0,0:0|0:0,0:0:0:0:
2,224,165176,1,8,0:0:0:0:
42,321,165400,1,0,0:0:0:0:
42,321,165512,2,0,P|96:341|164:364,1,129,2|0,0:0|0:0,0:0:0:0:
163,363,166072,1,8,0:0:0:0:
359,354,166296,5,0,0:0:0:0:
407,251,166520,2,0,P|424:207|442:159,1,94.600002886963,4|0,0:0|0:0,0:0:0:0:
393,92,166855,2,0,P|376:136|358:184,1,94.600002886963,8|0,0:0|0:0,0:0:0:0:
276,204,167191,2,0,P|295:153|343:27,1,189.200005773926,2|0,0:0|0:0,0:0:0:0:
274,209,167863,1,8,0:0:0:0:
193,284,168087,5,2,0:0:0:0:
193,284,168199,2,0,P|129:308|74:286,1,129,0|0,0:0|0:0,0:0:0:0:
32,192,168758,1,8,0:0:0:0:
165,162,168982,1,2,0:0:0:0:
165,162,169094,2,0,P|181:106|197:35,1,129,0|0,0:0|0:0,0:0:0:0:
286,22,169654,1,8,0:0:0:0:
309,138,169878,5,2,0:0:0:0:
309,138,169990,2,0,P|332:197|361:255,1,129
453,294,170549,1,8,0:0:0:0:
444,187,170773,1,2,0:0:0:0:
450,166,170885,1,0,0:0:0:0:
406,67,171109,1,2,0:0:0:0:
406,67,171221,2,0,P|348:31|254:64,1,172
175,158,171893,6,0,P|161:213|156:243,1,86
277,348,172341,2,0,P|272:297|264:261,1,86,4|0,0:0|0:0,0:0:0:0:
209,69,172788,1,0,0:0:0:0:
188,62,172900,1,0,0:0:0:0:
166,58,173012,1,0,0:0:0:0:
144,56,173124,1,0,0:0:0:0:
122,58,173236,2,0,P|96:97|79:137,1,86,8|0,0:0|0:0,0:0:0:0:
130,312,173684,6,0,P|177:325|219:302,1,94.600002886963,2|0,0:0|0:0,0:0:0:0:
197,165,174020,2,0,P|167:200|168:246,1,94.600002886963,8|0,0:0|0:0,0:0:0:0:
248,377,174355,2,0,P|294:295|240:228,1,189.200005773926,2|0,0:0|0:0,0:0:0:0:
48,236,175027,2,0,P|37:286|47:333,1,94.600002886963,8|0,0:0|0:0,0:0:0:0:
136,171,175475,6,0,P|130:122|124:75,1,94.600002886963,2|0,0:0|0:0,0:0:0:0:
228,23,175811,2,0,P|221:76|216:118,1,94.600002886963,8|0,0:0|0:0,0:0:0:0:
269,208,176146,2,0,P|302:133|347:34,1,189.200005773926,2|0,0:0|0:0,0:0:0:0:
421,147,176818,1,8,0:0:0:0:
383,248,177042,1,0,0:0:0:0:
285,305,177266,6,0,P|240:319|196:308,1,94.600002886963,2|0,0:0|0:0,0:0:0:0:
102,213,177714,1,8,0:0:0:0:
223,171,177938,1,2,0:0:0:0:
123,90,178161,2,0,P|82:75|27:93,1,94.600002886963,0|2,0:0|0:0,0:0:0:0:
102,213,178609,1,8,0:0:0:0:
223,171,178833,6,0,P|292:144|383:105,1,172,2|0,0:0|0:0,0:0:0:0:
448,27,179505,1,8,0:0:0:0:
487,136,179729,1,2,0:0:0:0:
487,136,179841,2,0,P|493:200|488:265,1,129
431,357,180400,1,8,0:0:0:0:
363,255,180624,5,2,0:0:0:0:
351,236,180736,1,0,0:0:0:0:
340,217,180848,2,0,P|343:167|345:127,1,86,4|0,0:0|0:0,0:0:0:0:
289,44,181296,1,8,0:0:0:0:
235,151,181520,1,2,0:0:0:0:
235,151,181632,2,0,P|210:226|192:279,1,129,0|0,0:0|0:0,0:0:0:0:
77,324,182191,1,8,0:0:0:0:
77,324,182415,2,0,P|73:240|68:150,1,172,6|0,0:0|0:0,0:0:0:0:
139,46,183087,5,8,0:0:0:0:
212,125,183311,1,2,0:0:0:0:
212,125,183423,2,0,P|273:145|338:143,1,129
454,140,183982,1,12,0:0:0:0:
493,221,184206,1,2,0:0:0:0:
460,308,184430,2,0,P|411:355|316:333,1,172,4|8,0:0|0:0,0:0:0:0:
217,226,185102,1,4,0:0:0:0:
220,204,185214,1,0,0:0:0:0:
223,182,185326,2,0,P|228:133|232:95,1,86,0|8,0:0|0:0,0:0:0:0:
373,37,185773,5,8,0:0:0:0:
430,115,185997,2,0,P|442:195|459:292,1,172,8|2,0:0|0:0,0:0:0:0:
274,340,186893,1,2,0:0:0:0:
120,239,187341,1,2,0:0:0:0:
120,239,187452,1,0,0:0:0:0:
120,239,187564,2,0,P|111:188|104:151,1,86,8|0,0:0|0:0,0:0:0:0:
166,73,188012,1,0,0:0:0:0:
65,159,201445,6,0,P|58:117|55:55,2,96.7500036907198,4|4|4,0:0|0:0|0:0,0:0:0:0:
110,253,202341,2,0,P|168:275|230:252,1,129,4|0,0:0|0:0,0:0:0:0:
246,241,202788,1,8,0:0:0:0:
244,140,203012,1,2,0:0:0:0:
250,119,203124,1,8,0:0:0:0:
366,150,203348,1,0,0:0:0:0:
347,161,203460,1,0,0:0:0:0:
412,245,203684,1,8,0:0:0:0:
432,250,203796,1,0,0:0:0:0:
481,165,204020,6,0,P|495:106|480:37,1,129,4|2,0:0|0:0,0:0:0:0:
386,22,204579,1,8,0:0:0:0:
309,107,204803,1,0,0:0:0:0:
303,127,204915,1,8,0:0:0:0:
297,147,205027,2,0,P|286:224|277:277,1,129,4|0,0:0|0:0,0:0:0:0:
274,296,205475,1,8,0:0:0:0:
181,352,205699,1,2,0:0:0:0:
70,308,205923,6,0,P|53:254|74:187,1,129,4|0,0:0|0:0,0:0:0:0:
89,172,206370,1,8,0:0:0:0:
225,139,206594,1,0,0:0:0:0:
205,147,206706,1,8,0:0:0:0:
274,217,206930,1,0,0:0:0:0:
294,221,207042,1,2,0:0:0:0:
371,138,207266,1,8,0:0:0:0:
349,141,207378,1,0,0:0:0:0:
436,224,207602,5,0,0:0:0:0:
452,210,207714,2,0,P|473:164|485:125,1,86,4|0,0:0|0:0,0:0:0:0:
415,49,208161,2,0,P|349:30|290:49,1,129,8|8,0:0|0:0,0:0:0:0:
276,61,208609,1,4,0:0:0:0:
225,149,208833,1,2,0:0:0:0:
225,149,208945,1,0,0:0:0:0:
225,149,209057,2,0,P|223:201|221:238,1,86,4|0,0:0|0:0,0:0:0:0:
412,349,209505,6,0,P|409:289|404:218,1,129,4|0,0:0|0:0,0:0:0:0:
402,198,209952,1,8,0:0:0:0:
356,44,210176,1,0,0:0:0:0:
354,65,210288,1,8,0:0:0:0:
294,179,210512,1,0,0:0:0:0:
292,157,210624,1,2,0:0:0:0:
200,44,210848,1,8,0:0:0:0:
202,65,210960,1,0,0:0:0:0:
157,209,211184,6,0,P|101:231|39:205,1,129,4|0,0:0|0:0,0:0:0:0:
171,127,211744,1,8,0:0:0:0:
234,190,211967,1,2,0:0:0:0:
234,190,212079,1,8,0:0:0:0:
234,190,212191,2,0,P|242:237|248:275,1,86,4|0,0:0|0:0,0:0:0:0:
189,345,212639,1,8,0:0:0:0:
377,266,212863,6,0,P|416:189|382:115,1,172,0|2,0:0|0:0,0:0:0:0:
195,42,213535,1,8,0:0:0:0:
121,113,213758,1,8,0:0:0:0:
107,129,213870,1,8,0:0:0:0:
93,146,213982,2,0,P|73:200|61:229,1,86,8|4,0:0|0:0,0:0:0:0:
118,347,214430,1,4,0:0:0:0:
195,235,214654,6,0,P|267:195|350:227,1,172,4|2,0:0|0:0,0:0:0:0:
484,360,215326,1,4,0:0:0:0:
386,322,215549,1,2,0:0:0:0:
468,248,215773,1,8,0:0:0:0:
474,227,215885,1,8,0:0:0:0:
480,206,215997,1,8,0:0:0:0:
435,75,216221,5,8,0:0:0:0:
435,75,216333,1,8,0:0:0:0:
435,75,216445,2,0,B|375:53|375:53|332:51|332:51|270:30,1,172,12|4,0:0|0:0,0:0:0:0:
136,80,217117,2,0,P|178:96|219:111,1,86,4|0,0:0|0:0,0:0:0:0:
368,270,217564,2,0,P|326:254|285:239,1,86,4|0,0:0|0:0,0:0:0:0:
168,190,218012,1,4,0:0:0:0:
53,249,218236,5,12,0:0:0:0:
53,249,218684,1,0,3:0:0:0:
34,147,218908,1,4,0:0:0:0:
110,70,219132,5,0,0:0:0:0:
110,70,219244,1,0,0:0:0:0:
110,70,219355,1,8,0:0:0:0:
185,164,219579,1,0,0:0:0:0:
277,99,219803,1,0,0:0:0:0:
254,269,220027,1,4,0:0:0:0:
256,192,220251,12,0,223833,0:0:0:0:
111,309,236146,5,4,0:0:0:0:
111,309,236370,2,0,P|108:265|110:219,1,86,4|4,0:0|0:0,0:0:0:0:
197,79,236818,1,4,0:0:0:0:
263,186,237042,1,2,0:0:0:0:
267,207,237154,1,0,0:0:0:0:
271,228,237266,1,2,0:0:0:0:
275,249,237378,1,2,0:0:0:0:
279,270,237490,1,2,0:0:0:0:
283,291,237602,1,0,0:0:0:0:
288,315,237714,5,8,0:0:0:0:
393,357,237938,1,0,0:0:0:0:
482,242,238161,2,0,P|499:195|482:140,1,98.9000018863678,2|0,0:0|0:0,0:0:0:0:
346,151,238497,2,0,P|369:182|426:192,1,98.9000018863678,8|0,0:0|0:0,0:0:0:0:
413,120,238833,2,0,P|351:76|271:146,1,197.800003772736,2|0,0:0|0:0,0:0:0:0:
246,314,239505,1,8,0:0:0:0:
396,356,239729,1,2,0:0:0:0:
246,314,239952,6,0,P|194:298|148:282,1,98.9000018863678,2|0,0:0|0:0,0:0:0:0:
74,218,240288,2,0,P|130:204|172:195,1,98.9000018863678,8|0,0:0|0:0,0:0:0:0:
245,134,240624,2,0,P|183:111|60:64,1,197.800003772736,2|2,0:0|0:0,0:0:0:0:
278,41,241296,1,8,0:0:0:0:
339,121,241520,1,0,0:0:0:0:
295,212,241744,6,0,P|289:266|285:313,1,98.9000018863678,2|0,0:0|0:0,0:0:0:0:
360,358,242191,1,8,0:0:0:0:
443,209,242415,1,2,0:0:0:0:
443,209,242639,2,0,P|448:156|451:110,1,98.9000018863678,2|0,0:0|0:0,0:0:0:0:
339,121,243087,1,8,0:0:0:0:
279,212,243311,6,0,P|202:243|130:187,1,180.599994488526,2|2,0:0|0:0,0:0:0:0:
63,59,243982,1,8,0:0:0:0:
23,159,244206,1,2,0:0:0:0:
23,159,244318,2,0,P|17:243|17:299,1,135.449995866394
94,364,244878,1,8,0:0:0:0:
168,247,245102,5,2,0:0:0:0:
183,227,245214,1,0,0:0:0:0:
198,207,245326,2,0,P|246:190|283:177,1,90.2999972442628,4|0,0:0|0:0,0:0:0:0:
355,100,245773,1,8,0:0:0:0:
428,177,245997,1,2,0:0:0:0:
428,177,246109,2,0,P|448:247|420:300,1,135.449995866394,0|2,0:0|0:0,0:0:0:0:
304,339,246669,1,8,0:0:0:0:
212,259,246893,6,0,P|146:231|68:296,1,180.599994488526,4|2,0:0|0:0,0:0:0:0:
210,347,247564,1,8,0:0:0:0:
296,255,247788,1,2,0:0:0:0:
296,255,247900,2,0,P|310:193|316:122,1,135.449995866394,0|2,0:0|0:0,0:0:0:0:
243,27,248460,1,8,0:0:0:0:
110,47,248684,5,2,0:0:0:0:
110,47,248796,1,0,0:0:0:0:
110,47,248908,2,0,B|94:111|88:138,1,90.2999972442628,4|0,0:0|0:0,0:0:0:0:
133,227,249355,1,8,0:0:0:0:
217,150,249579,1,4,0:0:0:0:
237,140,249691,1,0,0:0:0:0:
258,132,249803,1,0,0:0:0:0:
379,111,250027,1,8,0:0:0:0:
338,218,250251,1,8,0:0:0:0:
265,306,250475,6,0,P|208:329|143:317,1,129.00000492096,4|2,0:0|0:0,0:0:0:0:
77,270,251146,1,2,0:0:0:0:
70,350,251370,1,2,0:0:0:0:
39,133,251818,1,2,0:0:0:0:
39,133,251930,1,2,0:0:0:0:
39,133,252042,2,0,P|74:100|105:71,1,90.2999972442628,8|0,0:0|0:0,0:0:0:0:
144,174,252490,6,0,P|193:227|282:206,1,172,4|8,0:0|0:0,0:0:0:0:
353,143,253161,1,2,0:0:0:0:
353,143,253273,2,0,P|417:129|477:144,1,129,8|0,0:0|0:0,0:0:0:0:
505,243,253833,1,8,0:0:0:0:
476,333,254057,1,0,0:0:0:0:
410,261,254281,5,2,0:0:0:0:
410,261,254393,2,0,P|357:249|283:233,1,129,0|8,0:0|0:0,0:0:0:0:
212,299,254952,1,0,0:0:0:0:
212,299,255064,1,8,0:0:0:0:
212,299,255176,2,0,P|153:311|127:315,1,86,0|2,0:0|0:0,0:0:0:0:
43,253,255624,1,8,0:0:0:0:
63,152,255848,1,0,0:0:0:0:
144,208,256072,6,0,P|200:226|260:189,1,129,2|0,0:0|0:0,0:0:0:0:
267,173,256520,1,8,0:0:0:0:
199,92,256744,1,2,0:0:0:0:
199,92,256855,1,8,0:0:0:0:
199,92,256967,1,0,0:0:0:0:
296,93,257191,1,0,0:0:0:0:
393,99,257415,2,0,P|400:141|408:186,1,86,8|0,0:0|0:0,0:0:0:0:
417,264,257863,1,4,0:0:0:0:
290,360,258087,6,0,P|277:319|286:277,1,86,2|8,0:0|0:0,0:0:0:0:
355,316,258535,2,0,P|433:341|494:286,1,172,2|0,0:0|0:0,0:0:0:0:
432,204,259206,2,0,L|444:119,1,86,8|0,0:0|0:0,0:0:0:0:
375,32,259654,6,0,P|365:107|352:207,1,172,4|8,0:0|0:0,0:0:0:0:
277,286,260326,1,2,0:0:0:0:
277,286,260438,2,0,P|209:302|148:282,1,129,8|0,0:0|0:0,0:0:0:0:
86,205,260997,1,8,0:0:0:0:
123,104,261221,1,0,0:0:0:0:
228,68,261445,5,2,0:0:0:0:
228,68,261557,2,0,P|281:56|356:38,1,129,0|8,0:0|0:0,0:0:0:0:
481,89,262117,1,0,0:0:0:0:
481,89,262229,1,0,0:0:0:0:
481,89,262341,1,0,0:0:0:0:
374,142,262564,1,2,0:0:0:0:
374,142,262788,2,0,P|359:200|352:231,1,86,8|0,0:0|0:0,0:0:0:0:
416,346,263236,5,8,0:0:0:0:
470,246,263460,1,8,0:0:0:0:
296,337,263684,1,0,3:0:0:0:
296,337,263796,1,8,0:0:0:0:
296,337,263908,1,8,0:0:0:0:
254,195,264132,1,4,0:0:0:0:
140,323,264355,1,2,0:0:0:0:
140,323,264467,1,0,0:0:0:0:
140,323,264579,1,8,0:0:0:0:
78,168,264803,5,8,0:0:0:0:
78,168,265027,2,0,P|73:120|70:80,1,86,8|8,0:0|0:0,0:0:0:0:
214,161,265475,2,0,P|215:223|215:254,1,86,4|8,0:0|0:0,0:0:0:0:
327,79,265923,2,0,L|370:70,2,43
444,170,266370,2,0,L|489:162,2,43
375,285,266818,5,4,0:0:0:0:
