osu file format v14

[General]
AudioFilename: 2. Hail Storm.mp3
AudioLeadIn: 0
PreviewTime: 76220
Countdown: 0
SampleSet: Normal
StackLeniency: 0.7
Mode: 0
LetterboxInBreaks: 0
WidescreenStoryboard: 0

[Editor]
Bookmarks: 236294
DistanceSpacing: 1.1
BeatDivisor: 4
GridSize: 8
TimelineZoom: 1

[Metadata]
Title:Hail Storm
TitleUnicode:Hail Storm
Artist:FELT
ArtistUnicode:FELT
Creator:Kite
Version:Advanced
Source:東方Project
Tags:touhou cirno jmjmjm Icicle Fall Maika 舞花 NAGI☆ ZUN 美歌 Mika Beloved Tomboyish Girl 東方紅魔郷 Koumakyou th6 eosd embodiment of scarlet devil p3n Garven
BeatmapID:466180
BeatmapSetID:122349

[Difficulty]
HPDrainRate:4
CircleSize:3.5
OverallDifficulty:5.5
ApproachRate:5.5
SliderMultiplier:1.44
SliderTickRate:2

[Events]
//Background and Video events
0,0,"cirbg.png",0,0
//Break Periods
2,105824,110250
//Storyboard Layer 0 (Background)
//Storyboard Layer 1 (Fail)
//Storyboard Layer 2 (Pass)
//Storyboard Layer 3 (Foreground)
//Storyboard Sound Samples

[TimingPoints]
1744,447.761194029851,4,1,4,60,1,0
9020,-100,4,1,4,20,0,0
9244,-100,4,1,4,50,0,0
9467,-100,4,1,4,70,0,0
9691,-100,4,1,4,90,0,0
9915,-100,4,1,4,70,0,0
10139,-100,4,1,4,65,0,0
10363,-100,4,1,4,60,0,0
10587,-100,4,1,4,55,0,0
10811,-100,4,1,4,50,0,0
11035,-100,4,1,4,45,0,0
11258,-100,4,1,4,40,0,0
11482,-100,4,1,4,35,0,0
11706,-100,4,1,4,30,0,0
11930,-100,4,1,4,25,0,0
12378,-100,4,1,4,60,0,0
15400,-100,4,1,4,80,0,0
16072,-100,4,1,4,80,0,0
76967,-86.9565217391304,4,1,4,100,0,1
105624,-100,4,1,4,100,0,0
159355,-86.9565217391304,4,1,4,100,0,1
188012,-100,4,1,4,100,0,0
188460,-100,4,2,4,100,0,0
199206,-100,4,2,4,60,0,0
200549,-100,4,2,4,80,0,0
201333,-100,4,1,4,50,0,0
202229,-100,4,1,4,100,0,0
218460,-100,4,1,4,85,0,0
238161,-86.9565217391304,4,1,4,100,0,1
250475,-100,4,1,4,100,0,0
252490,-100,4,1,4,100,0,1
265923,-100,4,1,4,80,0,1
266035,-100,4,1,4,70,0,1
266146,-100,4,1,4,60,0,1
266258,-100,4,1,4,50,0,1
266370,-100,4,1,4,40,0,1
266482,-100,4,1,4,30,0,1
266594,-100,4,1,4,20,0,1
266706,-100,4,1,4,10,0,1
266818,-100,4,1,4,60,0,0

[Colours]
Combo1 : 83,244,119
Combo2 : 167,248,243
Combo3 : 9,156,236
Combo4 : 24,220,166

[HitObjects]
72,128,1744,6,0,P|255:32|440:128,1,432,4|0,0:0|0:0,0:0:0:0:
400,268,3535,1,0,0:0:0:0:
112,268,4430,1,2,0:2:0:0:
256,16,5326,6,0,B|256:192|256:192|256:256|344:305|432:256|432:192,1,432,4|0,0:0|0:0,0:0:0:0:
400,48,7117,1,0,0:0:0:0:
112,48,8012,1,2,0:2:0:0:
32,328,8908,6,0,B|120:360|408:336|528:136|408:0|256:-29|104:0|-16:136|104:336|392:360|480:328,1,1152,0|0,2:0|0:0,1:0:0:0:
152,80,14281,1,0,0:0:0:0:
217,40,14505,1,0,0:0:0:0:
294,40,14729,1,0,0:0:0:0:
360,80,14952,1,0,0:0:0:0:
256,296,15624,1,10,0:0:0:0:
144,208,16072,6,0,P|256:132|368:208,1,288,4|8,0:0|0:0,0:0:0:0:
392,284,17191,1,0,0:0:0:0:
472,284,17415,1,8,0:2:0:0:
504,212,17639,1,0,0:0:0:0:
464,144,17863,2,0,P|400:48|240:56,1,288,8|8,0:2|0:0,0:0:0:0:
184,112,18982,1,0,0:0:0:0:
104,112,19206,1,8,2:0:0:0:
96,32,19430,1,0,0:0:0:0:
16,16,19654,6,0,B|-8:128|16:240|16:240|72:272,1,288,2|8,0:2|0:0,0:0:0:0:
136,312,20773,1,0,0:0:0:0:
200,264,20997,1,8,0:2:0:0:
248,328,21221,1,0,0:0:0:0:
320,288,21445,2,0,B|392:264|392:264|480:168|384:80,1,288,8|8,0:2|0:0,0:0:0:0:
304,96,22564,1,0,0:0:0:0:
272,24,22788,1,8,0:2:0:0:
128,88,23236,6,0,P|200:168|152:336,1,288,4|8,0:0|0:0,0:0:0:0:
88,368,24355,1,0,0:0:0:0:
24,320,24579,1,8,0:2:0:0:
88,272,24803,1,0,0:0:0:0:
32,216,25027,2,0,P|16:72|128:8,1,288,8|8,0:2|0:0,0:0:0:0:
192,56,26146,1,0,0:0:0:0:
264,16,26370,1,8,0:2:0:0:
256,192,26818,12,4,29057,2:2:0:0:
256,192,30400,6,0,P|296:120|360:112,1,144,4|8,0:0|0:0,0:0:0:0:
400,264,31296,1,8,0:2:0:0:
400,264,31520,1,0,0:0:0:0:
256,320,31967,2,0,B|208:320|208:320|152:320|112:368,1,144
72,296,32639,1,8,0:0:0:0:
24,232,32863,1,0,0:0:0:0:
72,168,33087,2,0,B|136:256|136:256|152:248|176:248,1,144,8|8,0:2|0:0,0:0:0:0:
248,248,33758,1,0,0:0:0:0:
320,280,33982,6,0,P|376:224|384:160,1,144,8|8,0:2|0:0,0:0:0:0:
304,144,34654,2,0,P|384:80|464:144,1,216,0|8,0:0|0:0,0:0:0:0:
400,288,35773,1,8,0:2:0:0:
248,320,36221,2,0,B|184:320|184:320|152:320|128:296,1,108,8|8,0:0|0:0,0:0:0:0:
48,240,36893,1,0,0:0:0:0:
96,176,37117,1,2,0:2:0:0:
48,112,37341,1,0,0:0:0:0:
96,48,37564,6,0,P|161:20|224:48,1,144,4|8,0:0|0:0,0:0:0:0:
160,100,38236,2,0,P|225:128|288:100,1,144,8|0,0:2|0:0,0:0:0:0:
448,72,39132,1,0,0:0:0:0:
384,296,39803,2,0,P|328:296|280:328,1,108,2|0,0:2|0:2,0:0:0:0:
168,336,40475,1,0,0:0:0:0:
128,268,40699,1,0,0:0:0:0:
152,192,40923,1,0,0:0:0:0:
232,208,41146,6,0,P|439:262|426:97,1,432,4|8,0:2|0:0,0:0:0:0:
376,160,42714,2,0,P|296:160|240:48,1,216,2|8,0:2|0:0,0:0:0:0:
40,296,44281,1,2,0:2:0:0:
184,360,44729,6,0,P|248:376|328:360,1,144,4|8,0:2|0:0,0:0:0:0:
216,248,45624,1,8,0:2:0:0:
296,248,45848,1,8,0:0:0:0:
256,176,46072,1,8,0:2:0:0:
192,128,46296,2,0,P|255:97|320:128,1,144,2|0,0:2|0:0,0:0:0:0:
392,152,46967,1,2,0:2:0:0:
392,72,47191,1,0,0:0:0:0:
328,24,47415,2,0,P|256:7|184:24,1,144,8|8,0:2|0:0,0:0:0:0:
128,72,48087,1,0,0:0:0:0:
80,136,48311,6,0,P|56:184|64:280,1,144,4|8,0:0|0:2,0:0:0:0:
136,256,48982,2,0,P|200:216|256:256,1,144,2|0,0:2|0:0,0:0:0:0:
384,336,49878,1,8,0:2:0:0:
456,192,50326,1,8,0:0:0:0:
384,48,50773,1,8,0:2:0:0:
256,144,51221,1,8,0:2:0:0:
200,88,51445,1,2,0:2:0:0:
120,72,51669,1,8,0:2:0:0:
40,96,51893,6,0,P|16:176|40:240,1,144,4|0,0:2|0:0,0:0:0:0:
104,184,52564,2,0,P|176:176|224:240,1,144,8|8,0:2|0:0,0:0:0:0:
352,320,53460,2,0,P|440:280|456:240,1,144,2|8,0:3|0:2,0:0:0:0:
392,192,54132,1,8,0:0:0:0:
448,136,54355,1,8,0:2:0:0:
384,88,54579,1,2,0:2:0:0:
264,192,55027,1,8,0:2:0:0:
216,264,55251,6,0,B|152:304|152:304|64:312|-26:193|64:72|152:80|152:80|216:120,1,504,2|0,0:2|0:0,0:0:0:0:
264,192,57042,2,0,L|408:192,2,144,8|8|4,0:2|0:2|0:2,0:0:0:0:
136,288,58385,1,8,0:2:0:0:
112,48,59057,6,0,B|64:24|64:24|8:24,2,108,4|0|0,0:2|0:0|0:0,0:0:0:0:
184,80,59952,1,0,0:0:0:0:
400,48,60848,2,0,B|448:24|448:24|504:24,2,108,8|8|8,0:2|0:2|0:2,0:0:0:0:
328,80,61743,1,0,0:0:0:0:
32,192,62639,6,0,B|32:272|32:272|32:368|112:368,1,216,4|8,0:2|0:2,0:0:0:0:
184,368,63535,1,0,0:0:0:0:
480,192,64430,2,0,B|480:272|480:272|480:368|400:368,1,216,0|8,0:2|0:2,0:0:0:0:
328,368,65326,1,0,0:0:0:0:
256,232,65773,1,8,0:2:0:0:
144,344,66221,6,0,P|64:224|104:160,1,216,4|8,0:2|0:2,0:0:0:0:
136,112,67117,1,8,0:0:0:0:
288,152,67564,1,8,0:0:0:0:
344,96,67788,1,8,0:2:0:0:
472,192,68236,1,2,0:3:0:0:
408,336,68684,1,4,0:2:0:0:
256,376,69132,1,8,0:0:0:0:
104,336,69579,1,8,0:2:0:0:
64,264,69803,5,4,0:2:0:0:
256,192,70027,12,4,73385,0:0:0:0:
256,368,74952,5,8,0:0:0:0:
176,232,75400,1,8,0:2:0:0:
256,208,75624,1,8,0:2:0:0:
336,232,75848,1,8,0:2:0:0:
256,8,76520,1,2,0:0:0:0:
80,48,76967,6,0,B|32:88|32:144|32:144|32:184,1,124.200002368927,4|2,0:0|0:2,0:0:0:0:
32,296,77639,1,2,0:3:0:0:
184,192,78087,1,8,0:2:0:0:
256,136,78311,1,0,0:2:0:0:
432,48,78758,2,0,B|480:88|480:144|480:144|480:184,1,124.200002368927,8|2,0:2|0:2,0:0:0:0:
480,296,79430,1,2,0:2:0:0:
208,256,80102,1,2,0:3:0:0:
136,312,80326,1,8,0:2:0:0:
64,256,80549,5,8,0:2:0:0:
136,88,80997,1,2,0:3:0:0:
208,256,81445,1,8,0:2:0:0:
288,88,81893,1,2,0:2:0:0:
360,32,82117,2,0,B|408:32|408:32|488:32|496:120,1,165.600003158569,8|2,0:2|0:3,0:0:0:0:
492,287,83012,2,0,B|487:352|407:352|407:352|359:352,1,165.600003158569,2|8,0:2|0:2,0:0:0:0:
256,200,83908,1,2,0:3:0:0:
200,128,84132,5,4,0:2:0:0:
80,192,84467,1,2,0:2:0:0:
40,320,84803,2,0,P|120:352|192:320,1,165.600003158569,2|2,0:3|0:2,0:0:0:0:
312,144,85699,2,0,P|368:160|384:264,1,165.600003158569,4|2,0:2|0:3,0:0:0:0:
200,144,86594,2,0,P|144:160|128:264,1,165.600003158569,4|2,0:2|0:3,0:0:0:0:
328,320,87490,6,0,P|257:355|184:320,1,165.600003158569,4|8,0:2|0:2,0:0:0:0:
328,160,88385,2,0,P|257:125|184:160,1,165.600003158569,2|8,0:2|0:2,0:0:0:0:
212,368,89281,1,0,0:0:0:0:
300,368,89505,2,0,P|384:368|432:304,1,165.600003158569,8|4,0:2|0:2,0:0:0:0:
136,96,90848,1,2,0:0:0:0:
48,256,91296,6,0,P|72:336|112:360,1,124.200002368927,8|2,0:2|0:2,0:0:0:0:
192,256,91967,1,2,0:3:0:0:
464,312,92639,1,2,0:2:0:0:
464,128,93087,2,0,P|440:48|400:24,1,124.200002368927,0|2,0:0|0:2,0:0:0:0:
320,128,93758,1,2,0:2:0:0:
48,72,94430,1,2,0:3:0:0:
8,152,94654,1,8,0:2:0:0:
48,232,94878,5,8,0:2:0:0:
160,376,95326,1,2,0:3:0:0:
208,200,95773,1,8,0:2:0:0:
320,344,96221,1,2,0:3:0:0:
400,304,96445,2,0,B|448:256|448:208|448:208|448:152,1,165.600003158569,2|4,0:2|0:2,0:0:0:0:
328,8,97341,2,8,B|280:56|280:104|280:104|280:160,1,165.600003158569,8|2,0:2|0:3,0:2:0:0:
176,312,98236,1,2,0:2:0:0:
96,360,98460,6,0,B|32:312|32:240|32:240|32:208,1,165.600003158569,4|2,0:0|0:3,0:0:0:0:
32,128,99132,1,2,0:2:0:0:
176,16,99579,1,8,0:2:0:0:
256,64,99803,1,2,0:2:0:0:
336,16,100027,1,8,0:2:0:0:
504,336,100923,2,0,P|421:363|352:336,1,165.600003158569,8|0,0:2|0:0,0:0:0:0:
288,272,101594,1,2,0:3:0:0:
256,96,102042,5,4,0:2:0:0:
256,192,102266,12,4,105624,0:0:0:0:
88,56,112788,5,4,0:2:0:0:
40,208,113236,1,2,0:2:0:0:
184,280,113684,1,8,0:2:0:0:
312,80,114355,2,0,P|400:136|392:240,1,216,0|2,0:0|0:2,0:0:0:0:
280,344,115475,1,2,0:3:0:0:
64,248,116146,1,8,0:2:0:0:
64,248,116370,5,4,0:2:0:0:
64,88,116818,1,0,0:0:0:0:
64,88,117042,1,0,0:0:0:0:
288,16,117714,1,8,0:0:0:0:
288,16,118161,1,0,0:0:0:0:
288,368,119281,1,0,0:0:0:0:
288,368,119505,1,2,0:2:0:0:
392,248,119952,6,0,P|430:191|392:136,1,144,4|0,0:2|0:0,0:0:0:0:
336,192,120624,1,0,0:0:0:0:
200,272,121072,1,2,0:2:0:0:
200,112,121520,1,0,0:0:0:0:
48,232,122863,1,0,0:0:0:0:
48,152,123087,1,8,0:0:0:0:
176,56,123535,6,0,P|315:192|176:328,1,432,4|0,0:2|0:0,0:0:0:0:
160,248,125102,2,0,P|122:192|160:136,2,144,0|0|2,0:0|0:0|0:2,0:0:0:0:
336,344,127117,5,4,0:0:0:0:
480,272,127564,1,8,0:2:0:0:
480,112,128012,1,8,0:2:0:0:
336,40,128460,1,8,0:2:0:0:
256,64,128684,2,0,B|224:104|168:104|168:104|112:104,1,144,2|0,0:2|0:0,0:0:0:0:
48,136,129355,1,8,0:2:0:0:
124,280,129803,2,0,B|168:280|168:280|224:280|256:320,1,144,10|8,0:2|0:2,0:0:0:0:
333,342,130475,1,0,0:0:0:0:
392,288,130699,6,0,P|434:192|392:96,1,216,4|0,0:2|0:0,0:0:0:0:
256,288,132042,1,2,0:2:0:0:
48,48,132938,1,2,0:2:0:0:
48,288,133609,1,8,0:2:0:0:
48,288,133833,1,2,0:2:0:0:
176,192,134281,6,0,P|216:128|288:120,1,144,12|8,0:2|0:0,0:0:0:0:
256,192,134952,2,0,P|324:178|359:117,1,144,8|8,0:2|0:2,0:0:0:0:
363,37,135624,1,8,0:0:0:0:
440,16,135848,2,0,P|472:104|456:168,1,144,8|8,0:2|0:2,0:0:0:0:
416,216,136520,1,8,0:0:0:0:
464,280,136744,1,0,0:0:0:0:
416,344,136967,1,2,0:2:0:0:
272,280,137415,1,8,0:0:0:0:
200,312,137639,6,0,B|128:352|72:328|32:264|84:192|84:192|32:120|72:56|128:32|200:72,1,504,2|8,0:2|0:2,0:0:0:0:
272,104,139430,1,0,0:0:0:0:
408,192,139878,1,8,0:2:0:0:
272,280,140326,1,8,0:0:0:0:
144,192,140773,1,8,0:2:0:0:
72,232,140997,1,8,0:2:0:0:
184,120,141445,5,4,0:2:0:0:
408,48,142117,1,8,0:2:0:0:
408,48,142341,1,8,0:0:0:0:
512,264,143012,1,2,0:3:0:0:
432,256,143236,2,0,P|448:312|496:344,2,108,8|8|8,0:2|0:2|0:2,0:0:0:0:
432,176,144132,1,8,0:0:0:0:
432,176,144355,1,8,0:2:0:0:
320,64,144803,1,8,0:2:0:0:
320,64,145027,5,4,0:2:0:0:
88,16,145699,1,8,0:2:0:0:
24,64,145923,1,8,0:0:0:0:
88,112,146146,1,8,0:2:0:0:
88,288,146594,1,2,0:3:0:0:
152,240,146818,2,0,L|272:240,2,108,8|8|8,0:0|0:2|0:2,0:0:0:0:
88,192,147714,1,8,0:0:0:0:
152,48,148161,1,2,0:2:0:0:
312,32,148609,6,0,P|376:128|352:232,1,216,4|8,0:2|0:2,0:0:0:0:
280,208,149505,2,0,P|312:288|368:304,1,144,0|8,0:0|0:0,0:0:0:0:
424,256,150176,1,2,0:2:0:0:
488,112,150624,1,4,0:2:0:0:
336,56,151072,1,2,0:2:0:0:
280,208,151520,1,2,0:3:0:0:
184,80,151967,1,2,0:2:0:0:
184,80,152191,1,4,0:0:0:0:
256,192,152415,12,8,155773,0:2:0:0:
256,8,157341,5,8,0:0:0:0:
184,144,157788,1,8,0:2:0:0:
256,176,158012,1,8,0:2:0:0:
328,144,158236,1,8,0:2:0:0:
256,368,158908,1,2,0:0:0:0:
80,336,159355,6,0,B|32:296|32:240|32:240|32:200,1,124.200002368927,4|2,0:0|0:2,0:0:0:0:
32,88,160027,1,2,0:3:0:0:
184,192,160475,1,8,0:2:0:0:
256,248,160699,1,0,0:2:0:0:
432,336,161146,2,0,B|480:296|480:240|480:240|480:200,1,124.200002368927,8|2,0:2|0:2,0:0:0:0:
480,88,161818,1,2,0:2:0:0:
208,128,162490,1,2,0:3:0:0:
136,72,162714,1,8,0:2:0:0:
64,128,162937,5,8,0:2:0:0:
136,296,163385,1,2,0:3:0:0:
208,128,163833,1,8,0:2:0:0:
288,296,164281,1,2,0:2:0:0:
360,352,164505,2,0,B|408:352|408:352|488:352|496:264,1,165.600003158569,8|2,0:2|0:3,0:0:0:0:
492,97,165400,2,0,B|487:32|407:32|407:32|359:32,1,165.600003158569,2|8,0:2|0:2,0:0:0:0:
256,184,166296,1,2,0:3:0:0:
200,256,166520,5,4,0:2:0:0:
80,192,166855,1,2,0:2:0:0:
40,64,167191,2,0,P|120:32|192:64,1,165.600003158569,2|2,0:3|0:2,0:0:0:0:
312,240,168087,2,0,P|368:224|384:120,1,165.600003158569,4|2,0:2|0:3,0:0:0:0:
200,240,168982,2,0,P|144:224|128:120,1,165.600003158569,4|2,0:2|0:3,0:0:0:0:
328,64,169878,6,0,P|257:29|184:64,1,165.600003158569,4|8,0:2|0:2,0:0:0:0:
328,224,170773,2,0,P|257:259|184:224,1,165.600003158569,2|8,0:2|0:2,0:0:0:0:
212,16,171669,1,0,0:0:0:0:
300,16,171893,2,0,P|384:16|432:80,1,165.600003158569,8|4,0:2|0:2,0:0:0:0:
136,288,173236,1,2,0:0:0:0:
48,128,173684,6,0,P|72:48|112:24,1,124.200002368927,8|2,0:2|0:2,0:0:0:0:
192,128,174355,1,2,0:3:0:0:
464,72,175027,1,2,0:2:0:0:
464,256,175475,2,0,P|440:336|400:360,1,124.200002368927,0|2,0:0|0:2,0:0:0:0:
320,256,176146,1,2,0:2:0:0:
48,312,176818,1,2,0:3:0:0:
8,232,177042,1,8,0:2:0:0:
48,152,177266,5,8,0:2:0:0:
160,8,177714,1,2,0:3:0:0:
208,184,178161,1,8,0:2:0:0:
320,40,178609,1,2,0:3:0:0:
400,80,178833,2,0,B|448:128|448:176|448:176|448:232,1,165.600003158569,2|4,0:2|0:2,0:0:0:0:
328,376,179729,2,8,B|280:328|280:280|280:280|280:224,1,165.600003158569,8|2,0:2|0:3,0:2:0:0:
176,72,180624,1,2,0:2:0:0:
96,24,180848,6,0,B|32:72|32:144|32:144|32:176,1,165.600003158569,4|2,0:0|0:3,0:0:0:0:
32,256,181520,1,2,0:2:0:0:
176,368,181967,1,8,0:2:0:0:
256,320,182191,1,2,0:2:0:0:
336,368,182415,1,8,0:2:0:0:
504,48,183311,2,0,P|421:21|352:48,1,165.600003158569,8|0,0:2|0:0,0:0:0:0:
288,112,183982,1,2,0:3:0:0:
256,288,184430,5,4,0:2:0:0:
256,192,184654,12,4,188012,0:0:0:0:
256,344,189803,5,0,3:0:0:0:
412,64,190699,1,2,3:2:0:0:
96,64,191594,1,8,3:2:0:0:
368,304,193385,2,0,P|256:228|144:304,1,288,0|2,3:0|3:2,0:0:0:0:
48,16,195176,5,0,3:2:0:0:
104,72,195400,1,2,3:2:0:0:
256,120,195848,1,2,3:2:0:0:
408,72,196296,1,2,3:2:0:0:
304,192,196744,1,2,3:2:0:0:
256,256,196967,1,0,3:2:0:0:
208,192,197191,1,2,3:2:0:0:
104,312,197639,1,2,3:2:0:0:
256,368,198087,1,2,3:2:0:0:
408,312,198535,1,2,3:2:0:0:
448,240,198758,6,0,P|464:136|376:80,1,216,0|2,3:2|3:0,0:0:0:0:
336,144,199654,1,2,3:0:0:0:
296,216,199878,1,2,3:0:0:0:
216,216,200102,1,2,3:0:0:0:
176,144,200326,1,4,0:2:0:0:
56,40,200773,1,8,3:2:0:0:
24,192,201221,1,8,3:2:0:0:
56,264,201445,2,0,L|112:360,2,108,0|0|0,0:0|0:0|0:0,0:0:0:0:
24,192,202341,6,0,L|104:120,1,108,4|0,0:2|0:0,0:0:0:0:
136,232,203012,2,0,L|216:160,1,108
248,272,203684,2,0,L|328:200,1,108
360,312,204355,2,0,L|440:240,1,108
440,120,205027,2,0,L|360:48,1,108
328,160,205699,1,0,0:0:0:0:
272,104,205923,6,0,B|224:72|224:72|152:72,1,108,4|0,0:2|0:0,0:0:0:0:
64,120,206594,1,0,0:0:0:0:
176,168,206930,1,0,0:0:0:0:
272,232,207266,2,0,B|224:264|224:264|152:264,1,108,0|0,0:2|0:0,0:0:0:0:
64,216,207937,1,0,0:0:0:0:
176,168,208273,1,0,0:0:0:0:
288,120,208609,2,0,P|308:175|288:216,1,108
176,256,209281,1,0,0:0:0:0:
196,332,209505,5,4,0:2:0:0:
316,332,209841,1,0,0:0:0:0:
398,248,210176,1,0,0:0:0:0:
398,129,210512,1,0,0:0:0:0:
313,46,210848,1,0,0:0:0:0:
196,47,211184,1,0,0:0:0:0:
113,131,211520,1,0,0:0:0:0:
114,249,211855,1,0,0:0:0:0:
216,192,212191,1,0,0:0:0:0:
320,248,212527,1,0,0:0:0:0:
440,224,212863,6,0,P|256:40|72:224,1,576,4|4,0:2|0:0,0:0:0:0:
176,352,215102,1,0,0:0:0:0:
176,352,215326,1,4,0:2:0:0:
424,48,216445,5,4,0:0:0:0:
264,48,216893,2,0,L|176:64,1,72,8|8,0:2|0:2,0:0:0:0:
240,128,217341,2,0,L|160:144,1,72,8|8,0:2|0:2,0:0:0:0:
96,160,217788,1,8,0:2:0:0:
48,224,218012,1,8,0:2:0:0:
96,288,218236,1,4,0:2:0:0:
336,224,218908,1,8,0:2:0:0:
464,320,219355,2,0,P|506:224|464:128,1,216,0|2,0:0|0:2,0:0:0:0:
104,72,223833,5,4,2:1:0:0:
408,72,225624,1,0,2:0:0:0:
104,72,227415,5,4,2:1:0:0:
408,72,229206,1,0,2:0:0:0:
64,272,230997,5,4,2:1:0:0:
256,144,231669,1,0,3:0:0:0:
448,272,232341,1,0,3:0:0:0:
376,312,232564,2,0,P|320:288|296:208,1,144,2|0,3:2|3:0,0:0:0:0:
136,312,233460,2,0,P|192:288|216:208,1,144,2|0,3:2|3:0,0:0:0:0:
320,56,234355,6,0,P|257:26|192:56,1,144,2|0,3:2|3:0,0:0:0:0:
112,192,235251,1,0,3:0:0:0:
256,256,235699,1,0,3:0:0:0:
400,192,236146,1,0,3:0:0:0:
400,112,236370,5,0,0:0:0:0:
256,40,236818,1,0,0:0:0:0:
112,112,237266,2,0,L|56:112,2,36,0|0|0,0:0|0:0|0:0,0:0:0:0:
184,152,237714,1,2,0:0:0:0:
336,48,238161,6,0,P|408:72|440:144,1,124.200002368927,4|2,0:0|0:2,0:0:0:0:
480,240,238833,1,2,0:3:0:0:
304,208,239281,1,8,0:2:0:0:
216,208,239505,1,0,0:2:0:0:
176,48,239952,2,0,P|104:72|72:144,1,124.200002368927,8|2,0:2|0:2,0:0:0:0:
32,240,240624,1,2,0:3:0:0:
256,384,241296,1,2,0:3:0:0:
256,296,241520,1,8,0:2:0:0:
200,224,241743,5,8,0:2:0:0:
164,44,242191,1,2,0:3:0:0:
348,44,242639,1,8,0:2:0:0:
312,224,243087,1,2,0:2:0:0:
312,320,243311,2,0,P|386:292|406:215,1,165.600003158569,8|2,0:2|0:3,0:0:0:0:
200,320,244206,2,0,P|125:292|105:215,1,165.600003158569,2|8,0:2|0:2,0:0:0:0:
256,112,245102,1,2,0:3:0:0:
328,56,245326,6,0,P|256:21|184:56,1,165.600003158569,4|2,0:0|0:3,0:0:0:0:
128,128,245998,1,2,0:2:0:0:
296,192,246445,1,8,0:2:0:0:
376,240,246669,1,2,0:2:0:0:
456,192,246893,1,8,0:2:0:0:
152,48,247788,2,0,P|80:13|8:48,1,165.600003158569,8|0,0:2|0:3,0:0:0:0:
8,136,248460,1,2,0:3:0:0:
80,304,248908,6,0,B|112:344|144:344|232:344|232:344|288:344|328:304|328:256|328:256|328:200|288:160|248:160|248:160|208:160|168:200|168:256,1,579.600011054993,4|4,0:2|0:0,0:0:0:0:
256,64,251818,2,0,L|256:16,2,36,8|8|2,0:2|0:2|0:0,0:0:0:0:
390,108,252490,6,0,P|440:158|428:225,1,144,4|2,0:0|0:3,0:0:0:0:
288,296,253385,1,8,0:2:0:0:
216,336,253609,1,8,0:2:0:0:
144,296,253833,1,2,0:3:0:0:
56,160,254281,2,0,B|80:112|136:112|136:112|200:112,1,144,8|2,0:2|0:3,0:0:0:0:
304,208,255176,1,8,0:2:0:0:
336,136,255400,1,8,0:2:0:0:
368,64,255624,1,2,0:3:0:0:
496,160,256072,5,8,0:2:0:0:
456,312,256520,2,0,L|344:296,1,108,2|8,0:3|0:2,0:0:0:0:
232,328,257191,1,8,0:2:0:0:
168,280,257415,1,2,0:3:0:0:
80,152,257863,1,8,0:2:0:0:
120,80,258087,2,0,L|176:152,1,72,2|2,0:2|0:2,0:0:0:0:
204,64,258535,1,4,0:2:0:0:
240,216,258982,1,2,0:3:0:0:
328,352,259430,1,0,0:3:0:0:
408,368,259654,5,4,0:0:0:0:
464,216,260102,2,0,B|464:168|464:168|464:128|496:112,2,108,2|8|8,0:3|0:2|0:2,0:0:0:0:
392,248,260997,1,2,0:3:0:0:
256,328,261445,1,8,0:2:0:0:
256,192,261669,12,4,266818,0:0:0:0:
