osu file format v13

[General]
AudioFilename: 02 - Goldrop.mp3
AudioLeadIn: 0
PreviewTime: 53244
Countdown: 0
SampleSet: Soft
StackLeniency: 0.7
Mode: 0
LetterboxInBreaks: 0
WidescreenStoryboard: 0

[Editor]
Bookmarks: 13997,86326,166874,189888
DistanceSpacing: 1
BeatDivisor: 4
GridSize: 8
TimelineZoom: 1

[Metadata]
Title:Goldrop
TitleUnicode:Goldrop
Artist:FELT
ArtistUnicode:FELT
Creator:Lust
Version:Lunatic
Source:Touhou
Tags:Fortune's Gate 舞花 Maika NAGI☆ Mika 美歌 東方風神録 ~ Mountain of Faith ZUN 上海アリス幻樂団 c86 toybot kibbleru spectator Kagiyama Hina
BeatmapID:483882
BeatmapSetID:204927

[Difficulty]
HPDrainRate:7
CircleSize:4
OverallDifficulty:7.5
ApproachRate:8.5
SliderMultiplier:1.8
SliderTickRate:1

[Events]
//Background and Video events
0,0,"bg.jpg",0,0
//Break Periods
2,79951,85651
2,99477,111541
2,153924,166199
2,183312,189213
//Storyboard Layer 0 (Background)
//Storyboard Layer 1 (Fail)
//Storyboard Layer 2 (Pass)
//Storyboard Layer 3 (Foreground)
//Storyboard Sound Samples
//Background Colour Transformations
3,100,163,162,255

[TimingPoints]
847,410.958904109589,4,2,1,60,1,0
19956,-100,4,2,1,32,0,0
20573,-100,4,2,1,60,0,0
26531,-100,4,2,1,40,0,0
26737,-100,4,2,1,60,0,0
26942,-100,4,2,1,50,0,0
27148,-100,4,2,1,70,0,0
29614,-100,4,2,1,20,0,0
29819,-100,4,2,1,40,0,0
30025,-100,4,2,1,70,0,0
33107,-100,4,2,1,39,0,0
33312,-100,4,2,1,70,0,0
35162,-100,4,2,1,50,0,0
35573,-100,4,2,1,60,0,0
36189,-100,4,2,1,30,0,0
36600,-100,4,2,1,50,0,0
38449,-100,4,2,1,40,0,0
38655,-100,4,2,1,75,0,0
43381,-100,4,2,2,75,0,0
43586,-100,4,2,1,75,0,0
46668,-100,4,2,2,75,0,0
46874,-100,4,2,1,75,0,0
47490,-100,4,2,1,35,0,0
48107,-100,4,2,1,65,0,0
49956,-100,4,2,2,65,0,0
50162,-100,4,2,1,65,0,0
52833,-100,4,2,1,40,0,0
53038,-144.927536231884,4,2,1,60,0,0
53449,-100,4,2,1,85,0,1
65573,-100,4,2,1,50,0,0
65778,-100,4,2,1,70,0,0
66600,-100,4,2,1,85,0,1
77490,-100,4,2,2,80,0,1
77696,-100,4,2,1,80,0,1
78723,-100,4,2,1,70,0,1
79134,-100,4,2,1,80,0,1
79545,-100,4,2,1,70,0,1
79751,-100,4,2,1,70,0,0
87353,-100,4,2,2,70,0,0
87559,-100,4,2,1,70,0,0
92079,-100,4,2,1,30,0,0
92285,-100,4,2,1,40,0,0
92490,-100,4,2,1,50,0,0
93929,-100,4,2,2,50,0,0
94134,-100,4,2,1,50,0,0
97216,-100,4,2,2,50,0,0
97627,-100,4,2,1,50,0,0
98449,-100,4,2,1,40,0,0
98655,-100,4,2,1,45,0,0
98860,-100,4,2,1,55,0,0
99066,-100,4,2,1,65,0,0
112216,-144.927536231884,4,2,1,50,0,0
112627,-100,4,2,1,75,0,0
115710,-100,4,2,2,65,0,0
115915,-100,4,2,1,75,0,0
118997,-100,4,2,2,65,0,0
119203,-100,4,2,1,65,0,0
119819,-100,4,2,1,35,0,0
120436,-100,4,2,1,65,0,0
122285,-100,4,2,2,65,0,0
122490,-100,4,2,1,65,0,0
127422,-100,4,2,1,85,0,1
139545,-100,4,2,1,50,0,0
139751,-100,4,2,1,70,0,0
140573,-100,4,2,1,85,0,1
151463,-100,4,2,2,80,0,1
151668,-100,4,2,1,80,0,1
152696,-100,4,2,1,70,0,1
153107,-100,4,2,1,80,0,1
153518,-100,4,2,1,70,0,1
153723,-100,4,2,1,50,0,0
166874,-100,4,2,1,70,0,0
169340,-100,4,2,2,70,0,0
169545,-100,4,2,1,70,0,0
173038,-100,4,2,2,70,0,0
173449,-100,4,2,1,70,0,0
176120,-100,4,2,2,70,0,0
176326,-100,4,2,1,70,0,0
179408,-100,4,2,2,70,0,0
179614,-100,4,2,1,50,0,0
180025,-100,4,2,3,47,0,0
190299,-100,4,2,2,50,0,0
191531,-100,4,2,1,55,0,0
191737,-100,4,2,2,65,0,0
192148,-100,4,2,1,55,0,0
192764,-100,4,2,1,60,0,0
193175,-100,4,2,1,75,0,0
194408,-100,4,2,2,70,0,0
194614,-100,4,2,1,75,0,0
196052,-144.927536231884,4,2,1,30,0,0
196463,-100,4,2,1,85,0,1
205710,-100,4,2,1,75,0,1
206326,-100,4,2,1,85,0,1
207353,-100,4,2,2,80,0,1
207559,-100,4,2,1,80,0,1
208586,-100,4,2,1,70,0,1
208997,-100,4,2,1,80,0,1
209408,-100,4,2,1,60,0,1
209614,-100,4,2,1,50,0,0

[Colours]
Combo1 : 165,74,255
Combo2 : 0,179,179
Combo3 : 255,159,159
Combo4 : 214,214,214

[HitObjects]
319,255,13997,6,0,P|282:280|235:278,1,90,4|0,0:1|0:0,0:0:0:0:
195,125,14408,2,0,P|232:100|279:102,1,90,0|2,0:0|0:0,0:0:0:0:
174,214,14819,2,0,P|110:155|134:56,1,180
256,192,15436,1,2,0:0:0:0:
150,300,15641,2,0,L|56:300,1,90
238,279,16052,2,0,L|332:279,1,90,2|0,0:0|0:0,0:0:0:0:
195,125,16463,1,0,0:0:0:0:
174,214,16668,1,0,0:0:0:0:
256,192,16874,2,0,P|283:148|280:98,1,90,0|2,0:0|0:0,0:0:0:0:
134,58,17285,6,0,P|107:102|110:152,1,90
195,125,17696,1,0,0:0:0:0:
49,29,17901,1,2,0:0:0:0:
19,188,18107,2,0,P|90:238|174:214,1,180,0|0,0:0|0:0,0:0:0:0:
106,139,18723,1,2,0:0:0:0:
256,192,18929,2,0,L|349:192,1,90,0|0,0:0|0:0,0:0:0:0:
313,43,19340,2,0,L|223:43,1,90,2|0,0:0|0:0,0:0:0:0:
376,107,19751,1,0,0:0:0:0:
434,176,19956,2,0,P|463:132|464:89,1,90,2|0,1:2|0:0,0:0:0:0:
313,43,20367,1,2,1:2:0:0:
346,192,20573,6,0,P|405:262|488:250,1,180,4|0,0:1|0:0,0:0:0:0:
287,123,21189,2,0,L|188:123,1,90,2|0,0:0|0:0,0:0:0:0:
434,176,21600,2,0,L|530:176,1,90
376,107,22011,1,2,0:0:0:0:
346,192,22216,2,0,P|303:213|256:208,1,90
228,54,22627,2,0,P|271:33|318:38,1,90,0|0,0:0|0:0,0:0:0:0:
287,123,23038,2,0,L|106:162,1,180,2|0,0:0|0:0,0:0:0:0:
24,186,23655,5,2,0:0:0:0:
24,186,24066,1,0,0:0:0:0:
24,186,24477,2,0,P|49:96|134:70,1,180,2|0,0:0|0:0,0:0:0:0:
85,247,25093,2,0,P|48:271|1:271,1,90,0|2,0:0|0:0,0:0:0:0:
111,160,25504,2,0,P|153:186|172:225,1,90
24,186,25915,2,0,P|23:138|43:101,1,90,0|0,0:0|0:0,0:0:0:0:
171,221,26326,1,0,0:0:0:0:
256,250,26531,1,2,1:2:0:0:
283,250,26634,1,0,0:0:0:0:
310,250,26737,2,0,L|384:200,1,90,8|2,0:0|1:2,0:0:0:0:
188,309,27148,6,0,P|136:306|103:278,1,90,4|0,0:1|0:0,0:0:0:0:
156,132,27559,2,0,P|208:135|241:163,1,90,0|2,0:0|0:0,0:0:0:0:
91,194,27970,2,0,P|73:95|131:45,1,180,0|2,0:0|0:0,0:0:0:0:
171,221,28586,1,2,1:0:0:0:
107,283,28792,2,0,L|0:284,1,90
156,132,29203,2,0,L|250:132,1,90,2|0,0:0|0:0,0:0:0:0:
273,132,29511,1,0,0:0:0:0:
300,132,29614,1,0,1:0:0:0:
326,128,29716,1,0,1:0:0:0:
350,115,29819,1,0,1:0:0:0:
369,96,29922,1,0,1:0:0:0:
381,72,30025,1,8,1:2:0:0:
295,44,30230,1,0,0:0:0:0:
330,201,30436,6,0,P|374:190|412:155,1,90,4|0,1:0|0:0,0:0:0:0:
295,44,30847,2,0,L|204:44,1,90,0|2,0:0|0:0,0:0:0:0:
119,214,31257,2,0,P|205:208|246:132,1,180,0|2,0:0|0:0,0:0:0:0:
156,132,31874,1,2,1:2:0:0:
66,143,32079,2,0,P|38:182|34:229,1,90
101,60,32490,1,2,0:0:0:0:
11,72,32696,1,0,0:0:0:0:
190,48,32901,2,0,L|284:37,1,90,0|0,0:0|1:0,0:0:0:0:
405,148,33312,1,12,0:0:0:0:
364,68,33518,1,0,0:0:0:0:
482,194,33723,6,0,P|407:240|326:191,1,180,4|0,1:0|0:0,0:0:0:0:
328,100,34340,2,0,P|403:54|484:103,1,180,2|0,0:0|0:0,0:0:0:0:
405,148,34956,1,0,0:0:0:0:
255,154,35162,2,0,B|72:154,1,180,6|0,0:0|0:0,0:0:0:0:
11,90,35778,2,0,P|20:45|54:15,1,90,2|0,0:0|0:0,0:0:0:0:
165,154,36189,1,0,1:0:0:0:
168,180,36292,1,0,0:0:0:0:
166,206,36394,1,0,0:0:0:0:
160,232,36497,1,0,0:0:0:0:
147,255,36600,1,8,0:0:0:0:
63,288,36805,1,2,0:0:0:0:
100,91,37011,6,0,P|188:66|252:128,1,180,4|0,0:1|0:0,0:0:0:0:
165,154,37627,1,2,0:0:0:0:
78,178,37833,2,0,P|32:151|14:114,1,90
123,4,38244,2,0,P|169:31|187:68,1,90,2|6,0:0|0:0,0:0:0:0:
15,119,38655,1,0,0:0:0:0:
123,4,38860,1,0,0:0:0:0:
78,178,39066,1,2,0:0:0:0:
35,28,39271,1,0,0:0:0:0:
187,67,39477,1,0,0:0:0:0:
15,120,39682,1,0,1:0:0:0:
57,104,39785,1,0,1:0:0:0:
100,91,39888,1,4,0:0:0:0:
165,154,40093,1,0,0:0:0:0:
251,129,40299,6,0,P|275:76|268:32,1,90,4|0,1:0|0:0,0:0:0:0:
187,67,40710,1,0,0:0:0:0:
229,216,40915,2,0,B|266:240|266:240|321:243,1,90,12|0,0:0|0:0,0:0:0:0:
165,154,41326,2,0,P|143:204|146:248,1,90,0|2,1:0|0:0,0:0:0:0:
251,129,41737,2,0,P|187:66|96:98,1,180,4|0,1:0|0:0,0:0:0:0:
165,154,42353,1,0,1:0:0:0:
315,191,42559,2,0,L|392:146,1,90,8|0,0:0|0:0,0:0:0:0:
229,216,42970,2,0,L|152:261,1,90,2|0,0:0|1:0,0:0:0:0:
187,66,43381,1,0,1:0:0:0:
229,216,43586,6,0,P|141:238|80:177,1,180,4|0,1:0|0:0,0:0:0:0:
103,88,44203,2,0,P|191:66|252:127,1,180,12|0,0:0|1:0,0:0:0:0:
165,154,44819,1,2,1:2:0:0:
111,59,45025,2,0,P|199:37|260:98,1,180,6|0,1:0|0:0,0:0:0:0:
173,124,45641,1,0,1:0:0:0:
86,146,45846,2,0,P|43:119|23:77,1,90,12|0,0:0|0:0,0:0:0:0:
111,59,46257,1,2,0:0:0:0:
149,210,46463,2,0,P|107:232|58:231,1,90,8|0,0:0|1:0,0:0:0:0:
173,124,46874,6,0,P|217:144|237:182,1,90,4|0,1:0|0:0,0:0:0:0:
219,267,47285,1,0,0:0:0:0:
135,300,47490,2,0,P|201:357|294:322,1,180,2|2,1:2|1:2,0:0:0:0:
306,246,48107,1,0,0:0:0:0:
289,18,48312,2,0,B|237:85|237:85|244:180,1,180,4|0,0:1|0:0,0:0:0:0:
306,246,48929,1,2,0:0:0:0:
370,309,49134,2,0,P|392:262|392:224,1,90,4|0,1:0|0:0,0:0:0:0:
239,184,49545,2,0,P|217:231|217:269,1,90,4|0,0:0|0:0,0:0:0:0:
283,333,49956,1,0,1:0:0:0:
327,161,50162,6,0,P|261:97|169:126,1,180,0|0,1:0|0:0,0:0:0:0:
392,224,50778,2,0,L|483:225,1,90,4|0,0:0|0:0,0:0:0:0:
239,184,51189,1,0,0:0:0:0:
306,246,51394,1,0,1:0:0:0:
181,113,51600,2,0,P|152:198|214:271,1,180,0|0,1:0|0:0,0:0:0:0:
327,161,52216,2,0,L|350:70,1,90,0|2,1:0|1:2,0:0:0:0:
336,60,52833,5,2,1:2:0:0:
291,50,52936,1,0,3:0:0:0:
247,41,53038,2,0,L|133:40,1,93.1500001421356,12|0,0:0|0:0,0:0:0:0:
102,91,53449,6,0,P|80:131|80:184,1,90,6|0,1:0|0:0,0:0:0:0:
109,206,53757,1,0,0:0:0:0:
140,237,53860,2,0,L|233:237,1,90,8|0,0:0|0:0,0:0:0:0:
443,285,54271,2,0,P|371:334|293:300,1,180,0|8,0:0|0:0,0:0:0:0:
363,243,54888,1,2,0:0:0:0:
441,108,55093,2,0,P|448:152|439:196,1,90,0|0,1:0|0:0,0:0:0:0:
278,211,55504,2,0,P|270:166|280:123,1,90,8|0,0:0|0:0,0:0:0:0:
208,269,55915,2,0,L|19:269,1,180,0|12,0:0|0:0,0:0:0:0:
192,180,56531,1,2,1:2:0:0:
360,247,56737,6,0,P|334:283|293:299,1,90,4|0,1:0|0:0,0:0:0:0:
351,158,57148,2,0,P|425:188|434:297,1,180,8|0,0:0|0:0,0:0:0:0:
192,180,57764,1,0,0:0:0:0:
268,121,57970,2,0,L|268:28,1,90,8|0,0:0|0:0,0:0:0:0:
351,158,58381,1,0,0:0:0:0:
278,211,58586,1,2,0:0:0:0:
183,90,58792,2,0,L|90:90,1,90,8|0,0:0|0:0,0:0:0:0:
62,258,59203,2,0,P|148:254|192:180,1,180,0|8,1:0|0:0,0:0:0:0:
103,179,59819,1,2,1:2:0:0:
278,211,60025,6,0,L|467:211,1,180,4|8,1:0|0:0,0:0:0:0:
268,121,60641,2,0,P|198:169|203:262,1,180
278,211,61257,5,8,0:0:0:0:
246,107,61463,2,0,P|176:155|181:248,1,180,4|0,1:0|0:0,0:0:0:0:
278,211,62079,5,8,0:0:0:0:
224,96,62285,2,0,P|154:144|159:237,1,180,4|2,1:2|1:2,0:0:0:0:
394,256,62901,2,0,P|373:295|337:322,1,90,8|6,0:0|1:2,0:0:0:0:
376,132,63312,6,0,P|465:147|516:220,1,180,4|8,1:0|0:0,0:0:0:0:
413,380,63929,2,0,P|324:365|273:292,1,180,6|0,1:0|0:0,0:0:0:0:
394,256,64545,1,8,0:0:0:0:
153,259,64751,2,0,L|153:67,1,180,2|0,1:2|1:0,0:0:0:0:
256,6,65367,1,8,0:0:0:0:
359,79,65573,2,0,P|325:118|285:130,1,90,2|0,1:0|0:0,0:0:0:0:
262,133,65881,1,0,0:0:0:0:
235,132,65983,1,2,1:2:0:0:
208,126,66086,1,0,3:0:0:0:
183,115,66189,1,12,0:0:0:0:
163,95,66292,1,0,3:0:0:0:
150,71,66394,1,2,1:2:0:0:
142,45,66497,1,2,0:0:0:0:
144,18,66600,6,0,L|45:18,1,90,6|0,1:0|0:0,0:0:0:0:
13,37,66908,1,0,0:0:0:0:
5,81,67011,2,0,P|-2:129|4:171,1,90,8|0,0:0|0:0,0:0:0:0:
215,211,67422,2,0,P|147:263|67:233,1,180,0|8,0:0|0:0,0:0:0:0:
134,174,68038,1,2,0:0:0:0:
290,159,68244,2,0,L|379:159,1,90,0|0,1:0|0:0,0:0:0:0:
379,285,68655,2,0,L|289:285,1,90,8|0,0:0|0:0,0:0:0:0:
443,222,69066,2,0,P|465:303|399:373,1,180,0|12,0:0|0:0,0:0:0:0:
380,159,69682,1,2,1:2:0:0:
201,168,69888,6,0,P|248:239|335:237,1,180,4|8,1:0|0:0,0:0:0:0:
290,159,70504,1,0,0:0:0:0:
235,84,70710,2,0,P|191:79|149:94,1,90
167,249,71120,1,8,0:0:0:0:
82,26,71326,2,0,P|57:110|109:180,1,180,2|2,1:0|0:0,0:0:0:0:
201,168,71942,1,8,0:0:0:0:
327,77,72148,2,0,P|310:27|272:0,1,90,0|0,0:0|1:0,0:0:0:0:
235,84,72559,1,2,0:0:0:0:
379,150,72764,2,0,L|473:150,1,90,8|2,0:0|1:2,0:0:0:0:
253,241,73175,6,0,P|168:249|114:169,1,180,4|8,1:0|0:0,0:0:0:0:
201,168,73792,1,0,0:0:0:0:
342,232,73997,2,0,L|341:334,1,90,0|2,0:0|0:0,0:0:0:0:
290,159,74408,1,8,0:0:0:0:
379,150,74614,2,0,P|413:57|359:-6,1,180,4|0,0:1|0:0,0:0:0:0:
238,90,75230,2,0,P|254:132|290:159,1,90,8|4,0:0|1:0,0:0:0:0:
327,77,75641,1,0,0:0:0:0:
253,241,75847,1,2,1:2:0:0:
163,249,76052,2,0,L|68:249,1,90,8|2,0:0|1:2,0:0:0:0:
290,159,76463,6,0,P|341:229|299:319,1,180,6|8,1:0|0:0,0:0:0:0:
253,241,77079,1,2,0:0:0:0:
201,167,77285,2,0,P|210:119|243:82,1,90,8|0,0:0|1:0,0:0:0:0:
290,159,77696,1,4,3:0:0:0:
163,249,77901,2,0,P|72:248|20:155,1,180,4|2,1:0|1:2,0:0:0:0:
201,167,78518,1,4,0:3:0:0:
253,241,78723,2,0,L|252:343,1,90,10|0,0:0|0:0,0:0:0:0:
290,159,79134,1,0,1:0:0:0:
314,147,79237,1,0,3:0:0:0:
340,140,79340,1,2,1:0:0:0:
366,142,79442,1,0,3:0:0:0:
391,149,79545,1,2,0:0:0:0:
412,164,79648,1,0,0:0:0:0:
431,182,79751,5,6,1:0:0:0:
76,192,86326,6,0,L|256:192,1,180,4|0,1:0|0:0,0:0:0:0:
346,192,86942,1,2,0:0:0:0:
436,192,87148,2,0,P|425:146|386:112,1,90,0|8,0:0|0:0,0:0:0:0:
256,192,87559,2,0,P|267:238|306:272,1,90,2|4,0:0|0:0,0:0:0:0:
305,117,87970,2,0,P|261:100|216:113,1,90,0|0,1:0|0:0,0:0:0:0:
386,267,88381,2,0,P|466:279|527:199,1,180,2|0,0:0|0:0,0:0:0:0:
436,192,88997,1,0,0:0:0:0:
296,267,89203,2,0,L|199:267,1,90,2|0,1:2|0:0,0:0:0:0:
395,111,89614,6,0,L|485:111,1,90,4|0,1:0|0:0,0:0:0:0:
343,36,90025,1,0,0:0:0:0:
436,192,90230,1,2,0:0:0:0:
305,117,90436,2,0,L|116:117,1,180,0|2,0:0|0:0,0:0:0:0:
38,140,91052,1,4,0:2:0:0:
61,53,91257,2,0,P|99:29|146:29,1,90,0|0,1:0|0:0,0:0:0:0:
190,179,91668,2,0,P|152:203|105:203,1,90,2|0,0:0|0:0,0:0:0:0:
125,117,92079,1,0,3:0:0:0:
150,107,92182,1,0,3:0:0:0:
175,98,92285,1,0,3:0:0:0:
202,98,92388,1,0,3:0:0:0:
228,102,92490,1,8,1:2:0:0:
252,113,92901,6,0,L|342:113,1,90,4|0,1:0|0:0,0:0:0:0:
468,239,93312,2,0,P|426:260|372:258,1,90,0|8,0:0|0:0,0:0:0:0:
342,113,93723,2,0,P|384:92|438:94,1,90,0|8,0:0|0:0,0:0:0:0:
316,200,94134,1,2,0:0:0:0:
405,176,94340,1,4,0:0:0:0:
297,286,94545,2,0,P|250:257|233:225,1,90,0|0,1:0|0:0,0:0:0:0:
428,88,94956,2,0,P|479:117|493:144,1,90,0|2,0:0|1:2,0:0:0:0:
342,113,95367,2,0,P|364:29|454:1,1,180,0|2,0:0|1:2,0:0:0:0:
428,88,95983,1,0,0:0:0:0:
316,200,96189,6,0,L|130:200,1,180,4|0,1:0|0:0,0:0:0:0:
51,231,96805,2,0,P|79:269|119:289,1,90,0|0,1:0|0:0,0:0:0:0:
226,200,97216,2,0,P|180:122|95:120,1,180,8|4,0:0|0:0,0:0:0:0:
136,200,97833,1,0,0:0:0:0:
316,200,98038,2,0,L|423:200,1,90,0|0,1:0|1:0,0:0:0:0:
469,263,98449,1,2,1:2:0:0:
405,326,98655,1,0,3:0:0:0:
379,333,98757,1,0,3:0:0:0:
352,335,98860,1,0,3:0:0:0:
324,333,98963,1,0,3:0:0:0:
298,325,99066,1,8,1:2:0:0:
121,308,112216,6,0,L|221:308,1,93.1500001421356
256,291,112627,6,0,P|344:302|399:226,1,180,6|0,1:0|0:0,0:0:0:0:
364,149,113244,2,0,P|276:138|221:214,1,180,12|0,0:0|1:0,0:0:0:0:
121,308,113860,1,2,0:0:0:0:
310,220,114066,2,0,P|282:132|203:115,1,180,12|0,0:0|0:0,0:0:0:0:
121,308,114682,1,0,1:0:0:0:
222,202,114888,2,0,P|139:177|121:80,1,180,8|2,0:0|0:0,0:0:0:0:
310,220,115504,2,0,L|410:220,1,90,0|0,1:0|1:0,0:0:0:0:
121,308,115915,6,0,L|1:172,1,180,6|0,1:0|0:0,0:0:0:0:
116,95,116531,2,0,P|199:120|217:217,1,180,12|0,0:0|0:0,0:0:0:0:
121,308,117148,1,2,1:2:0:0:
133,184,117353,2,0,P|196:115|281:133,1,180,4|0,1:0|0:0,0:0:0:0:
311,210,117970,1,0,0:0:0:0:
261,284,118175,2,0,P|198:288|171:275,1,90,12|0,0:0|0:0,0:0:0:0:
133,184,118586,1,2,0:0:0:0:
274,127,118792,2,0,P|322:122|374:142,1,90,8|0,0:0|1:0,0:0:0:0:
221,202,119203,5,4,1:0:0:0:
192,116,119408,1,0,0:0:0:0:
311,210,119614,1,0,0:0:0:0:
261,284,119819,2,0,P|169:277|130:198,1,180,2|2,1:2|1:2,0:0:0:0:
221,202,120436,1,0,0:0:0:0:
300,365,120641,2,0,P|390:373|442:297,1,180,4|0,1:0|0:0,0:0:0:0:
351,290,121257,1,2,0:0:0:0:
171,278,121463,2,0,L|171:97,1,180,4|4,1:0|0:0,0:0:0:0:
107,34,122079,2,0,P|146:13|203:15,1,90,0|0,0:0|1:0,0:0:0:0:
234,161,122490,6,0,P|195:182|138:180,1,90,0|0,1:0|0:0,0:0:0:0:
171,98,122901,1,0,0:0:0:0:
320,138,123107,2,0,L|320:318,1,180,4|0,0:0|0:0,0:0:0:0:
256,73,123723,1,0,0:0:0:0:
383,201,123929,2,0,P|292:220|234:158,1,180,8|0,0:0|0:0,0:0:0:0:
343,50,124545,1,0,1:0:0:0:
446,264,124751,1,0,0:0:0:0:
320,138,124956,1,0,1:0:0:0:
430,29,125162,1,0,3:0:0:0:
430,29,125264,1,0,3:0:0:0:
430,29,125367,1,8,0:0:0:0:
256,73,125573,1,0,1:0:0:0:
82,120,125778,5,6,1:2:0:0:
256,192,125983,12,0,127011,0:0:0:0:
410,293,127422,6,0,P|432:253|432:200,1,90,6|0,1:0|0:0,0:0:0:0:
403,178,127730,1,0,0:0:0:0:
372,147,127833,2,0,L|279:147,1,90,8|0,0:0|0:0,0:0:0:0:
69,99,128244,2,0,P|141:50|219:84,1,180,0|8,0:0|0:0,0:0:0:0:
149,141,128861,1,2,0:0:0:0:
71,276,129066,2,0,P|64:232|73:188,1,90,0|0,1:0|0:0,0:0:0:0:
234,173,129477,2,0,P|242:218|232:261,1,90,8|0,0:0|0:0,0:0:0:0:
304,115,129888,2,0,L|493:115,1,180,0|12,0:0|0:0,0:0:0:0:
320,204,130504,1,2,1:2:0:0:
152,137,130710,6,0,P|178:101|219:85,1,90,4|0,1:0|0:0,0:0:0:0:
161,226,131121,2,0,P|87:196|78:87,1,180,8|0,0:0|0:0,0:0:0:0:
320,204,131737,1,0,0:0:0:0:
244,263,131943,2,0,L|244:356,1,90,8|0,0:0|0:0,0:0:0:0:
161,226,132354,1,0,0:0:0:0:
234,173,132559,1,2,0:0:0:0:
329,294,132765,2,0,L|422:294,1,90,8|0,0:0|0:0,0:0:0:0:
450,126,133176,2,0,P|364:130|320:204,1,180,0|8,1:0|0:0,0:0:0:0:
409,205,133792,1,2,1:2:0:0:
234,173,133998,6,0,L|45:173,1,180,4|8,1:0|0:0,0:0:0:0:
244,263,134614,2,0,P|314:215|309:122,1,180
234,173,135230,5,8,0:0:0:0:
266,277,135436,2,0,P|336:229|331:136,1,180,4|0,1:0|0:0,0:0:0:0:
234,173,136052,5,8,0:0:0:0:
288,288,136258,2,0,P|358:240|353:147,1,180,4|2,1:2|1:2,0:0:0:0:
118,128,136874,2,0,P|139:89|175:62,1,90,8|6,0:0|1:2,0:0:0:0:
144,261,137285,6,0,P|55:246|4:173,1,180,4|8,1:0|0:0,0:0:0:0:
107,13,137902,2,0,P|196:28|247:101,1,180,6|0,1:0|0:0,0:0:0:0:
126,137,138518,1,8,0:0:0:0:
359,125,138724,2,0,L|359:317,1,180,2|0,1:2|1:0,0:0:0:0:
256,378,139340,1,8,0:0:0:0:
153,305,139546,2,0,P|187:266|227:254,1,90,2|0,1:0|0:0,0:0:0:0:
250,251,139854,1,0,0:0:0:0:
277,252,139956,1,2,1:2:0:0:
304,258,140059,1,0,3:0:0:0:
329,269,140162,1,12,0:0:0:0:
349,289,140265,1,0,3:0:0:0:
362,313,140367,1,2,1:2:0:0:
370,339,140470,1,0,0:0:0:0:
368,366,140573,6,0,L|467:366,1,90,6|0,1:0|0:0,0:0:0:0:
499,347,140881,1,0,0:0:0:0:
507,303,140984,2,0,P|514:255|508:213,1,90,8|0,0:0|0:0,0:0:0:0:
297,173,141395,2,0,P|365:121|445:151,1,180,0|8,0:0|0:0,0:0:0:0:
378,210,142011,1,2,0:0:0:0:
222,225,142217,2,0,L|133:225,1,90,0|0,1:0|0:0,0:0:0:0:
133,99,142628,2,0,L|223:99,1,90,8|0,0:0|0:0,0:0:0:0:
69,162,143039,2,0,P|47:81|113:11,1,180,0|12,0:0|0:0,0:0:0:0:
132,225,143655,1,2,1:2:0:0:
311,216,143861,6,0,P|264:145|177:147,1,180,4|8,1:0|0:0,0:0:0:0:
222,225,144477,1,0,0:0:0:0:
277,300,144683,2,0,P|321:305|363:290,1,90
345,135,145093,1,8,0:0:0:0:
430,358,145299,2,0,P|455:274|403:204,1,180,2|2,1:0|0:0,0:0:0:0:
311,216,145915,1,8,0:0:0:0:
185,307,146121,2,0,P|202:357|240:384,1,90,0|0,0:0|1:0,0:0:0:0:
277,300,146532,1,2,0:0:0:0:
133,234,146737,2,0,L|39:234,1,90,8|2,0:0|1:2,0:0:0:0:
259,143,147148,6,0,P|344:135|398:215,1,180,4|8,1:0|0:0,0:0:0:0:
311,216,147765,1,0,0:0:0:0:
170,152,147970,2,0,L|171:50,1,90,0|2,0:0|0:0,0:0:0:0:
222,225,148381,1,8,0:0:0:0:
134,233,148587,2,0,B|89:287|141:343|141:343|185:307,1,180,4|0,1:0|0:0,0:0:0:0:
222,225,149203,2,0,P|262:258|273:307,1,90,8|4,0:0|1:0,0:0:0:0:
185,307,149614,1,0,0:0:0:0:
259,143,149820,1,2,1:2:0:0:
349,135,150025,2,0,L|444:135,1,90,8|2,0:0|1:2,0:0:0:0:
222,225,150436,6,0,P|171:155|213:65,1,180,6|8,1:0|0:0,0:0:0:0:
259,143,151052,1,2,0:0:0:0:
311,217,151258,2,0,P|302:265|269:302,1,90,8|0,0:0|1:0,0:0:0:0:
222,225,151669,1,4,3:0:0:0:
349,135,151874,2,0,P|440:136|492:229,1,180,4|2,1:0|1:2,0:0:0:0:
311,217,152491,1,0,0:0:0:0:
259,143,152696,2,0,L|260:41,1,90,10|0,0:0|0:0,0:0:0:0:
222,225,153107,1,0,1:0:0:0:
198,237,153210,1,0,3:0:0:0:
172,244,153313,1,2,1:0:0:0:
146,242,153415,1,0,3:0:0:0:
121,235,153518,1,2,0:0:0:0:
100,220,153620,1,0,0:0:0:0:
81,202,153724,5,6,1:0:0:0:
256,93,166874,6,0,P|168:82|113:158,1,180,4|2,1:0|0:0,0:0:0:0:
148,235,167491,2,0,P|236:246|291:170,1,180,4|0,0:0|0:0,0:0:0:0:
391,76,168107,1,0,0:0:0:0:
202,164,168313,2,0,P|230:252|309:269,1,180,4|0,1:0|0:0,0:0:0:0:
391,76,168929,1,2,0:0:0:0:
377,202,169134,1,8,0:0:0:0:
290,182,169340,1,4,1:0:0:0:
448,289,169545,1,0,1:0:0:0:
202,164,169751,2,0,L|102:164,1,90,4|0,0:1|0:0,0:0:0:0:
391,76,170162,6,0,L|511:212,1,180,4|2,1:0|0:0,0:0:0:0:
396,289,170778,2,0,P|313:264|295:167,1,180,12|0,0:0|0:0,0:0:0:0:
391,76,171395,1,0,0:0:0:0:
379,200,171600,2,0,P|316:269|231:251,1,180,4|0,1:0|0:0,0:0:0:0:
201,174,172217,1,0,0:0:0:0:
251,100,172422,1,2,0:0:0:0:
238,256,172627,6,0,L|238:317,2,60,8|0|0,0:0|1:0|1:0,0:0:0:0:
238,256,173039,2,0,P|193:262|150:249,1,90,4|0,1:0|1:0,0:0:0:0:
291,182,173450,5,4,1:0:0:0:
320,268,173655,1,0,0:0:0:0:
201,174,173861,1,0,0:0:0:0:
251,100,174066,2,0,P|343:107|382:186,1,180,4|0,0:0|0:0,0:0:0:0:
291,182,174683,1,0,0:0:0:0:
212,19,174888,2,0,P|122:11|70:87,1,180,4|0,1:0|0:0,0:0:0:0:
161,94,175504,1,0,0:0:0:0:
341,106,175710,2,0,L|341:287,1,180,2|4,0:0|1:0,0:0:0:0:
405,350,176326,2,0,P|366:371|309:369,1,90,0|0,0:1|0:0,0:0:0:0:
278,223,176737,6,0,P|317:202|374:204,1,90,4|0,1:0|0:0,0:0:0:0:
341,286,177148,1,0,0:0:0:0:
192,246,177354,2,0,L|192:66,1,180,2|2,1:2|1:2,0:0:0:0:
256,311,177970,1,0,0:0:0:0:
129,183,178176,2,0,P|220:164|278:226,1,180,4|2,1:0|0:0,0:0:0:0:
169,334,178792,1,0,1:0:0:0:
66,120,178998,5,8,0:0:0:0:
192,246,179203,1,2,0:0:0:0:
82,355,179409,1,0,1:0:0:0:
256,311,179614,1,6,0:0:0:0:
279,223,179820,1,0,0:0:0:0:
215,159,180025,5,4,0:1:0:0:
256,192,189888,5,0,1:0:0:0:
256,192,190299,1,0,1:0:0:0:
166,192,190504,1,0,1:0:0:0:
120,114,190710,1,0,1:0:0:0:
209,114,190915,5,0,1:0:0:0:
166,192,191120,1,0,1:0:0:0:
75,192,191326,1,0,1:0:0:0:
29,114,191531,1,0,1:0:0:0:
75,36,191737,1,0,1:0:0:0:
164,35,191942,1,0,1:0:0:0:
256,192,192148,5,0,1:0:0:0:
120,114,192353,1,0,1:0:0:0:
345,192,192559,1,0,1:0:0:0:
166,192,192764,1,0,1:0:0:0:
392,114,192970,1,0,1:0:0:0:
211,270,193175,6,0,P|118:269|75:193,1,180,4|0,1:0|0:0,0:0:0:0:
301,270,193792,2,0,P|394:269|437:193,1,180,2|0,1:0|0:0,0:0:0:0:
303,114,194408,1,0,1:0:0:0:
346,192,194613,1,2,1:2:0:0:
346,192,195025,5,2,1:2:0:0:
483,114,195230,1,0,0:0:0:0:
348,35,195436,1,2,1:2:0:0:
393,113,196052,6,0,L|297:113,1,93.1500001421356,4|0,0:0|0:0,0:0:0:0:
248,164,196463,6,0,P|202:176|156:164,1,90,6|0,1:0|0:0,0:0:0:0:
142,147,196771,1,0,0:0:0:0:
126,125,196874,1,8,0:0:0:0:
203,80,197079,1,0,0:0:0:0:
302,235,197285,2,0,P|192:260|109:239,1,180,0|8,0:0|0:0,0:0:0:0:
293,86,197901,1,2,0:0:0:0:
383,202,198107,2,0,P|401:246|408:296,1,90
248,164,198518,2,0,P|204:182|154:189,1,90,8|0,0:0|0:0,0:0:0:0:
383,202,198929,2,0,P|408:312|387:395,1,180,0|12,0:0|0:0,0:0:0:0:
393,113,199545,1,2,1:2:0:0:
302,235,199751,6,0,P|192:260|109:239,1,180,4|8,1:0|0:0,0:0:0:0:
293,86,200367,2,0,P|403:61|486:82,1,180
248,164,200983,1,8,0:0:0:0:
46,35,201189,2,0,B|106:96|106:96|203:85,1,180,2|0,1:0|0:0,0:0:0:0:
247,8,201805,1,8,0:0:0:0:
293,86,202011,2,0,P|339:158|296:240,1,180,0|2,0:0|1:2,0:0:0:0:
248,164,202627,1,8,0:0:0:0:
336,8,202833,1,2,1:2:0:0:
202,242,203038,6,0,P|156:170|199:88,1,180,6|8,1:0|0:0,0:0:0:0:
248,164,203655,1,0,0:0:0:0:
169,326,203860,2,0,L|80:326,1,90,8|2,0:0|0:0,0:0:0:0:
301,236,204271,2,0,L|390:236,1,90,0|4,0:0|1:0,0:0:0:0:
391,237,204888,5,2,0:0:0:0:
248,164,205093,1,0,0:0:0:0:
248,164,205504,5,8,0:0:0:0:
337,156,205710,1,2,1:2:0:0:
327,175,205812,1,0,3:0:0:0:
318,196,205915,1,0,1:0:0:0:
309,216,206018,1,0,3:0:0:0:
301,236,206120,1,12,0:0:0:0:
285,82,206326,6,0,P|370:71|427:145,1,180,4|8,1:0|0:0,0:0:0:0:
248,164,206942,1,2,0:0:0:0:
196,90,207148,2,0,P|208:40|236:7,1,90,8|0,0:0|1:0,0:0:0:0:
158,172,207559,1,4,3:0:0:0:
111,250,207764,5,4,1:0:0:0:
111,250,208175,1,2,1:2:0:0:
196,90,208381,1,0,0:0:0:0:
300,237,208586,1,2,1:2:0:0:
210,245,208997,5,0,0:0:0:0:
248,164,209408,1,2,0:0:0:0:
248,164,209614,5,6,0:1:0:0:
256,192,209716,12,0,211463,0:0:0:0:
