osu file format v14

[General]
AudioFilename: music.mp3
AudioLeadIn: 0
PreviewTime: 41780
Countdown: 0
SampleSet: Soft
StackLeniency: 0.7
Mode: 0
LetterboxInBreaks: 1
EpilepsyWarning: 1
WidescreenStoryboard: 1

[Editor]
DistanceSpacing: 0.8
BeatDivisor: 4
GridSize: 4
TimelineZoom: 1

[Metadata]
Title:Freedom
TitleUnicode:Freedom
Artist:FELT
ArtistUnicode:FELT
Creator:Z e r s s
Version:Normal
Source:
Tags:NAGI☆ Cold Snap Touhou original comiket 87 c87 東方Project
BeatmapID:722031
BeatmapSetID:322838

[Difficulty]
HPDrainRate:4
CircleSize:3.5
OverallDifficulty:4
ApproachRate:5
SliderMultiplier:1.3
SliderTickRate:2

[Events]
//Background and Video events
0,0,"bg.jpg",0,0
//Break Periods
2,28309,36726
//Storyboard Layer 0 (Background)
//Storyboard Layer 1 (Fail)
//Storyboard Layer 2 (Pass)
//Storyboard Layer 3 (Foreground)
//Storyboard Sound Samples

[TimingPoints]
24812,425.531914893617,4,2,1,15,1,0
24812,-200,4,2,1,15,0,0
41833,-100,4,2,1,60,0,0
55450,-100,4,2,1,60,0,1
69067,-100,4,2,1,60,0,0
69280,-100,4,2,1,15,0,0
72471,-100,4,2,1,5,0,0

[Colours]
Combo1 : 193,185,62
Combo2 : 193,134,61
Combo3 : 203,65,151
Combo4 : 65,203,129

[HitObjects]
256,192,24811,12,4,28109,0:3:0:0:
256,192,38429,12,0,40982,0:0:0:0:
64,124,41833,6,0,P|104:176|172:188,1,130,10|8,0:0|0:0,0:0:0:0:
216,188,42471,1,0,0:0:0:0:
264,172,42684,1,4,0:0:0:0:
336,100,43109,1,2,0:0:0:0:
356,148,43322,2,0,L|360:284,1,130,8|8,0:0|0:0,0:0:0:0:
368,328,43960,2,0,B|336:308|304:320|304:320|268:332|236:308,1,130,10|4,0:0|0:0,0:0:0:0:
164,244,44811,2,0,P|132:232|96:248,1,65,2|0,0:0|0:0,0:0:0:0:
84,292,45237,6,0,L|88:136,1,130,10|8,0:0|0:0,0:0:0:0:
96,112,45875,1,0,0:0:0:0:
132,72,46088,1,4,0:0:0:0:
220,128,46514,2,0,L|224:196,1,65,2|8,0:0|0:0,0:0:0:0:
312,248,47152,2,0,L|308:180,1,65,8|10,0:0|0:0,0:0:0:0:
392,120,47790,2,0,L|404:260,1,130,4|2,0:0|0:0,0:0:0:0:
424,296,48429,1,0,0:0:0:0:
460,332,48641,6,0,P|380:320|316:340,1,130,10|8,0:0|0:0,0:0:0:0:
284,352,49280,1,0,0:0:0:0:
232,340,49492,2,0,P|180:324|104:344,1,130,4|2,0:0|0:0,0:0:0:0:
60,360,50131,2,0,L|52:220,1,130,8|8,0:0|0:0,0:0:0:0:
32,184,50769,1,10,0:0:0:0:
116,124,51194,1,4,0:0:0:0:
216,156,51620,2,0,P|224:200|216:224,1,65,2|0,0:0|0:0,0:0:0:0:
172,244,52046,6,0,L|308:252,1,130,10|8,0:0|0:0,0:0:0:0:
352,248,52684,1,0,0:0:0:0:
404,236,52897,1,4,0:0:0:0:
464,152,53322,1,2,0:0:0:0:
413,138,53535,2,0,L|272:146,1,130,8|8,0:0|0:0,0:0:0:0:
232,132,54173,1,10,0:0:0:0:
140,88,54599,2,0,P|56:60|64:140,1,195,4|0,0:0|0:0,0:0:0:0:
96,176,55450,5,10,0:0:0:0:
116,280,55875,2,0,L|104:352,2,65,8|0|4,0:0|0:0|0:0,0:0:0:0:
212,236,56726,1,2,0:0:0:0:
264,236,56939,2,0,L|404:248,1,130,8|8,0:0|0:0,0:0:0:0:
444,240,57577,1,10,0:0:0:0:
496,144,58003,2,0,P|460:116|368:108,1,130,4|2,0:0|0:0,0:0:0:0:
332,128,58641,1,0,0:0:0:0:
284,148,58854,6,0,L|272:308,1,130,10|8,0:0|0:0,0:0:0:0:
268,328,59492,1,0,0:0:0:0:
232,364,59705,2,0,P|172:348|96:348,1,130,4|2,0:0|0:0,0:0:0:0:
56,328,60343,1,8,0:0:0:0:
52,224,60769,1,8,0:0:0:0:
100,244,60982,2,0,P|172:260|240:256,1,130,10|4,0:0|0:0,0:0:0:0:
324,296,61833,1,2,0:0:0:0:
336,244,62046,1,0,0:0:0:0:
340,192,62258,6,0,L|328:56,1,130,10|8,0:0|0:0,0:0:0:0:
292,24,62897,1,0,0:0:0:0:
236,24,63109,2,0,P|180:48|104:24,1,130,4|10,0:0|0:0,0:0:0:0:
64,44,63748,1,8,0:0:0:0:
16,136,64173,1,8,0:0:0:0:
48,176,64386,2,0,L|180:184,1,130,10|4,0:0|0:0,0:0:0:0:
256,252,65237,2,0,P|252:284|260:320,1,65,2|0,0:0|0:0,0:0:0:0:
280,360,65663,5,10,0:0:0:0:
340,276,66088,1,8,0:0:0:0:
440,248,66514,2,0,L|428:104,1,130,4|10,0:0|0:0,0:0:0:0:
432,68,67152,2,0,P|368:76|304:56,1,130,8|8,0:0|0:0,0:0:0:0:
256,76,67790,2,0,L|120:84,1,130,10|4,0:0|0:0,0:0:0:0:
56,160,68641,2,0,L|64:228,2,65,2|0|4,0:0|0:0|0:1,0:0:0:0:
256,192,69280,12,0,72471,0:0:0:0:
