osu file format v9

[General]
AudioFilename: Flower Flag.mp3
AudioLeadIn: 0
PreviewTime: 221995
Countdown: 0
SampleSet: Soft
StackLeniency: 0.7
Mode: 0
LetterboxInBreaks: 1

[Editor]
DistanceSpacing: 1.2
BeatDivisor: 4
GridSize: 8

[Metadata]
Title:Flower Flag
Artist:FELT
Creator:y u z u k i
Version:mizuki
Source:touhou
Tags:maika happy30 mizuki yuyuko saigyouji yuzuki

[Difficulty]
HPDrainRate:6
CircleSize:4
OverallDifficulty:5
ApproachRate:7
SliderMultiplier:1.4
SliderTickRate:1

[Events]
//Background and Video events
0,0,"bgggggg.jpg"
//Break Periods
2,93945,99220
2,168944,185470
2,210945,215095
//Storyboard Layer 0 (Background)
//Storyboard Layer 1 (Fail)
//Storyboard Layer 2 (Pass)
//Storyboard Layer 3 (Foreground)
//Storyboard Sound Samples
//Background Colour Transformations
3,100,163,162,255

[TimingPoints]
745,375,4,2,1,80,1,0
22963,-100,4,2,1,5,0,0
24838,-100,4,2,1,80,0,0
63745,-100,4,2,1,80,0,1
75651,-100,4,2,1,80,0,0
75745,-100,4,2,1,80,0,1
90838,-100,4,2,1,5,0,1
93745,-100,4,2,1,40,0,0
100120,-100,4,2,1,80,0,0
138745,-100,4,2,1,80,0,1
150651,-100,4,2,1,80,0,0
150745,-100,4,2,1,80,0,1
165838,-100,4,2,1,5,0,1
168745,-100,4,2,1,40,0,0
168838,-100,4,2,1,80,0,0
209526,-100,4,2,1,40,0,0
209713,-100,4,2,1,50,0,0
209901,-100,4,2,1,60,0,0
210088,-100,4,2,1,70,0,0
210276,-100,4,2,1,80,0,0
210463,-100,4,2,1,90,0,0
210651,-100,4,2,1,5,0,0
215807,-100,4,2,1,80,0,0
220213,-100,4,2,1,40,0,0
220401,-100,4,2,1,50,0,0
220588,-100,4,2,1,60,0,0
220776,-100,4,2,1,70,0,0
220963,-100,4,2,1,80,0,0
222745,-100,4,2,1,80,0,1
234745,-100,4,2,1,5,0,0
237088,-100,4,2,1,80,0,0
237838,-100,4,2,1,5,0,0
240745,-100,4,2,1,40,0,0
258832,375,4,2,1,80,1,0

[Colours]
Combo1 : 214,124,252
Combo2 : 140,201,255
Combo3 : 254,150,213

[HitObjects]
256,192,23057,12,0,24744
120,312,25119,6,0,B|48:296,2,70
200,176,25869,1,0
200,176,26057,2,0,B|352:128,2,140
72,64,27182,1,0
88,144,27369,1,0
104,224,27557,1,0
120,304,27744,6,0,B|184:328|280:328,1,140,2|0
368,272,28307,2,0,B|328:256|272:264,2,70,0|0|0
440,312,28869,1,0
464,232,29057,1,0
432,152,29244,5,2
432,152,29619,1,2
376,88,29807,2,0,B|344:64|304:56,2,70
320,152,30369,1,0
240,168,30557,1,0
160,152,30744,2,0,B|128:216|128:304,1,140,2|0
64,344,31307,2,0,B|40:272|40:184,1,140,2|0
64,128,31869,1,0
128,72,32057,1,0
208,64,32244,5,2
208,64,32619,1,2
176,144,32807,2,0,B|208:224|304:192|336:272,1,210,0|0
288,336,33557,1,0
224,280,33744,2,0,B|272:216|336:184,1,140
400,144,34307,2,0,B|360:88|288:56,1,140
208,64,34869,1,0
144,120,35057,1,0
112,200,35244,6,0,B|96:232|104:272,1,70,0|0
184,368,35620,2,0,B|200:336|192:296,1,70,0|0
232,224,35994,1,2
312,192,36182,1,2
392,208,36369,1,2
448,272,36557,1,0
464,352,36744,6,0,B|424:360|384:352,1,70,0|0
312,344,37119,1,0
312,344,37307,2,0,B|280:280|272:184,1,140,0|0
336,96,37869,1,0
336,96,38057,2,0,B|368:160|368:248,2,140
240,232,39182,1,0
176,184,39369,1,0
112,136,39557,1,0
48,88,39744,6,0,B|104:40|184:40,1,140,2|0
232,104,40307,2,0,B|224:144|240:184,1,70,0|0
176,224,40682,2,0,B|200:256|240:272,1,70
312,296,41057,1,0
240,344,41244,2,0,B|200:352|152:336,1,70,0|0
280,208,41807,2,0,B|328:160|416:144,1,140,0|0
248,96,42557,1,0
248,96,42744,6,0,B|184:64|96:56,1,140,2|0
128,144,43307,2,0,B|152:216|120:296,1,140,0|0
48,312,43869,1,0
56,232,44057,2,0,B|128:208|224:224,2,140,0|0|0
192,328,45182,1,0
192,328,45557,6,0,B|192:248|240:192,1,140,2|0
304,240,46119,1,0
360,176,46307,1,0
360,176,46682,1,0
360,176,47057,2,0,B|352:96|288:40,1,140,2|0
224,24,47620,1,0
144,40,47807,1,0
72,88,47994,6,0,B|40:112|24:144,1,70,0|0
96,248,48370,2,0,B|128:224|160:176,1,70,0|0
200,264,48744,2,0,B|256:224|336:232,1,140,6|0
424,320,49307,2,0,B|368:368|264:352,1,140,2|0
208,336,49869,1,0
208,336,50057,2,0,B|168:272|192:184,1,140,2|0
224,128,50619,2,0,B|256:112|304:96,1,70
288,184,50994,2,0,B|320:168|368:152,2,70,0|8|0
232,248,51557,1,0
232,248,51744,6,0,B|160:280|72:240,1,140,6|0
128,176,52307,1,2
128,176,52682,1,2
128,176,53057,2,0,B|104:104|112:24,1,140,2|0
192,56,53619,2,0,B|224:64|272:64,1,70,2|0
344,48,53994,1,0
424,64,54182,1,0
472,136,54369,1,0
456,216,54557,1,0
384,256,54744,6,0,B|312:264|256:312,1,140,6|0
176,288,55307,2,0,B|192:216|248:168,1,140,2|0
392,88,56057,2,0,B|344:24|248:8,1,140,2|0
200,48,56619,1,8
200,48,56807,2,0,B|216:80|224:128,1,70
280,176,57182,1,0
280,176,57276,1,0
280,176,57369,1,0
216,232,57557,1,0
216,320,57744,6,0,B|288:304|336:240,1,140,4|0
280,176,58307,2,0,B|296:104|272:32,2,140,0|0|4
112,208,59432,1,2
176,368,59807,1,2
256,336,59994,2,0,B|224:312|200:264,1,70
232,160,60370,2,0,B|264:184|280:232,1,70
320,280,60744,6,0,B|392:288|464:248,1,140,6|0
408,184,61307,1,2
408,184,61494,2,0,B|376:112,1,70,2|0
440,64,61869,1,2
440,64,62057,2,0,B|376:32|296:40,1,140,2|0
272,160,62619,1,8
176,80,62807,1,8
152,200,62994,2,0,B|136:232|136:272,1,70
40,184,63369,2,0,B|56:152|56:112,1,70
120,64,63744,6,0,B|144:40|192:32,1,70,4|0
224,104,64119,1,8
224,104,64307,2,0,B|232:184|176:240,1,140
304,224,64869,2,0,B|320:184|336:144,1,70,8|0
312,80,65244,1,0
392,56,65432,1,0
416,136,65619,1,8
416,136,65807,2,0,B|440:208|408:280,1,140
336,304,66369,1,8
256,336,66557,6,0,B|224:264|256:184,1,140
344,120,67119,1,8
344,120,67307,2,0,B|376:184|344:264,1,140
264,248,67869,1,8
184,240,68057,1,0
184,240,68432,1,0
184,240,68619,2,0,B|144:176|72:160,1,140,8|0
128,96,69182,1,0
248,136,69369,1,8
248,136,69744,6,0,B|320:128|376:72,1,140,4|8
488,128,70307,2,0,B|408:136|352:208,1,140
320,264,70869,1,8
240,240,71057,1,0
192,312,71244,2,0,B|120:336|48:304,1,140,0|8
80,144,71994,1,0
128,72,72182,1,0
168,152,72369,1,8
216,64,72557,1,0
280,152,72744,6,0,B|288:224|360:280,1,140,4|8
464,320,73307,2,0,B|456:240|384:184,1,140,0|0
360,128,73869,1,8
392,48,74057,2,0,B|312:56|240:8,1,140
184,64,74619,1,8
184,64,74994,1,0
248,120,75182,1,0
168,168,75369,1,8
256,208,75557,1,0
168,264,75744,6,0,B|160:304|128:336,1,70,4|0
88,264,76119,1,8
88,264,76307,2,0,B|104:184|168:152,1,140
240,120,76869,1,8
272,40,77057,2,0,B|272:120|336:184,1,140,0|0
400,136,77619,2,0,B|432:120|472:112,2,70,8|0|0
321,167,78182,2,0,B|288:184|240:192,1,70,0|8
176,216,78557,6,0,B|152:288|176:360,1,140
272,280,79119,1,8
272,280,79307,2,0,B|296:208|272:128,1,140
200,112,79869,1,8
200,112,80057,2,0,B|160:128|128:152,1,70
72,96,80432,2,0,B|56:128|56:168,1,70,0|8
256,320,80994,5,0
208,248,81182,1,0
288,200,81369,1,8
200,160,81557,1,0
296,112,81744,2,0,B|456:96,1,140,4|8
328,24,82307,2,0,B|176:40,1,140
144,112,82869,1,8
208,168,83057,2,0,B|216:248|160:312,1,140
96,328,83619,1,8
120,160,83994,6,0,B|40:176,2,70,0|0|8
200,128,84557,2,0,B|232:200|336:208,1,140
392,216,85119,1,8
312,312,85307,2,0,B|280:240|312:152,1,140
352,104,85869,1,8
312,88,86244,5,2
272,96,86619,5,2
232,80,86994,5,2
192,88,87369,5,2
176,256,87744,6,0,B|248:232|344:264,1,140,4|8
248,152,88307,2,0,B|176:176|96:152,1,140
109,155,88869,1,8
216,24,89244,2,0,B|184:88|192:176,1,140,0|8
264,264,89807,2,0,B|296:200|288:128,1,140
352,72,90369,1,8
408,136,90557,1,0
480,96,90744,5,0
256,192,90838,12,4,93745
64,272,100120,5,0
120,336,100307,1,0
192,288,100495,2,0,B|224:224|224:144,1,140,0|0
320,72,101057,2,0,B|288:144|304:216,2,140
424,208,102182,1,0
344,200,102370,1,0
264,192,102557,1,0
184,184,102745,6,0,B|152:256|192:344,1,140,2|0
264,336,103307,2,0,B|344:352,2,70
182,320,103870,1,0
104,304,104057,1,0
24,280,104245,6,0,B|0:352,2,70
48,200,104807,1,0
128,216,104995,1,0
144,120,105182,1,0
224,192,105370,1,0
256,72,105557,6,0,B|312:120|320:208,1,140,2|0
272,264,106120,1,0
312,336,106307,1,2
312,336,106682,2,0,B|272:344|216:336,1,70
408,320,107057,1,0
408,320,107245,6,0,B|448:248|400:168,1,140
384,104,107807,2,0,B|288:112|304:216|200:240,1,210
160,336,108557,2,0,B|88:288|160:192|96:128,1,210
152,72,109307,2,0,B|192:56|240:64,1,70
288,112,109682,1,0
224,168,109870,1,0
280,232,110057,6,0,B|312:296|288:368,1,140
200,360,110620,1,0
192,280,110807,1,0
112,288,110995,2,8,B|80:256|80:200,1,70,0|0
128,160,111370,1,8
256,56,111745,6,0,B|288:48|352:56,1,70
400,88,112120,1,0
456,152,112307,1,0
424,232,112495,2,0,B|344:200|264:232,1,140,0|0
352,328,113057,2,0,B|424:352|496:336,2,140
272,312,113995,1,0
328,248,114182,1,0
248,216,114370,1,0
312,160,114557,6,0,B|336:88|288:24,1,140,2|0
208,24,115120,2,0,B|120:16,2,70,0|8|0
152,184,115870,1,0
232,200,116057,1,0
312,216,116245,1,0
392,232,116432,1,0
240,304,116807,1,2
288,136,117182,1,2
416,24,117557,1,2
416,24,117745,6,0,B|456:88|424:176,1,140,2|0
344,168,118307,2,0,B|280:128|184:152,1,140,2|0
144,200,118870,1,0
208,248,119057,1,2
208,248,119432,1,2
208,248,119807,2,0,B|136:232|56:248,1,140,2|0
24,176,120370,1,0
24,176,120557,6,0,B|80:144|176:144,1,140,2|0
224,88,121120,1,0
288,144,121307,1,0
224,296,121682,1,0
304,320,121870,1,0
360,256,122057,2,0,B|440:248|512:296,2,140,2|0|0
320,184,122995,1,0
240,216,123182,1,0
240,216,123276,1,0
240,216,123370,1,0
240,216,123557,1,0
160,184,123745,6,0,B|160:256,2,70,6|0|0
216,120,124307,2,0,B|176:56|72:56,1,140,2|0
56,128,124870,1,0
104,200,125057,2,0,B|144:264|248:264,1,140,2|0
304,280,125620,1,0
376,240,125807,1,0
304,192,125995,2,0,B|232:176,2,70
376,240,126557,1,0
376,240,126745,6,0,B|416:168|384:88,1,140,6|0
328,48,127307,1,2
328,48,127682,1,2
328,48,128057,2,0,B|264:16|168:24,1,140,2|0
112,48,128620,1,2
248,144,128995,1,0
320,192,129182,1,0
256,240,129370,1,0
328,288,129557,1,0
264,344,129745,6,0,B|184:368|112:328,1,140,4|0
176,264,130307,2,0,B|216:192|168:104,1,140,2|0
328,56,131057,2,0,B|296:128|344:216,1,140,2|0
296,272,131620,1,8
296,272,131807,2,0,B|368:296,1,70,0|0
440,320,132182,1,0
440,320,132276,1,0
440,320,132370,1,0
368,368,132557,1,0
288,336,132745,6,0,B|256:264|280:200,1,140,4|0
312,120,133307,2,0,B|368:72|464:56,2,140,0|0|4
168,32,134432,1,0
48,152,134807,1,0
120,200,134995,2,0,B|136:232|128:288,1,70
240,208,135370,2,0,B|224:168|232:120,1,70
312,160,135745,6,0,B|360:224|320:312,1,140,6|0
248,328,136307,2,0,B|176:312,2,70,2|0|2
216,240,136870,1,2
216,240,137057,2,0,B|64:208,1,140,2|0
136,104,137620,1,8
256,72,137807,1,8
352,152,137995,2,0,B|368:192|352:232,1,70
256,304,138370,2,0,B|240:272|256:232,1,70
248,152,138745,6,0,B|280:128|296:80,1,70,4|0
216,48,139120,1,8
216,48,139307,2,0,B|144:16|64:24,1,140
24,88,139870,2,0,B|104:136,1,70,8|0
144,184,140245,1,0
64,216,140432,1,0
104,288,140620,1,8
104,288,140808,2,0,B|160:336|256:336,1,140
320,320,141370,1,8
264,256,141557,1,0
264,256,141745,6,0,B|240:168|240:168,1,70
296,120,142120,1,8
296,120,142307,2,0,B|336:184|416:200,1,140
480,240,142870,2,0,B|424:296,1,70,8|0
352,304,143245,1,0
272,320,143433,1,0
192,336,143620,2,0,B|104:352,1,70,8|0
80,280,143995,1,0
8,216,144182,1,0
120,192,144370,1,8
16,120,144557,1,0
152,96,144745,6,0,B|208:48|280:32,1,140,4|8
320,104,145308,2,0,B|304:176|344:256,1,140
400,296,145870,1,8
456,232,146058,1,0
392,176,146245,2,0,B|328:160|248:168,1,140,0|8
216,328,146995,1,0
280,272,147183,1,0
192,240,147370,1,8
288,192,147558,1,0
184,120,147745,6,0,B|112:136|64:208,1,140,4|8
40,272,148308,2,0,B|72:200|32:120,1,140
8,56,148870,1,8
8,56,149058,2,0,B|168:24,1,140
216,72,149620,1,8
216,72,149995,1,0
144,112,150183,1,0
232,160,150370,1,8
120,192,150558,1,0
232,248,150745,6,0,B|272:264|320:248,1,70,4|0
368,296,151120,1,8
368,296,151308,2,0,B|400:232|376:160,1,140
456,136,151870,1,8
456,136,152058,2,0,B|392:176|312:160,1,140,0|0
360,88,152620,2,0,B|400:72|416:40,2,70,8|0|0
322,162,153183,2,0,B|280:176|250:218,1,70,0|8
192,248,153557,6,0,B|168:176|192:104,1,140,0|0
280,200,154120,1,8
280,200,154308,2,0,B|304:272|280:344,1,140
200,352,154870,1,8
200,352,155058,2,0,B|128:328,1,70
112,248,155433,2,0,B|192:272,1,70,0|8
312,168,155995,5,0
256,104,156183,1,0
224,192,156370,1,8
168,96,156558,1,0
96,200,156745,2,0,B|160:352,1,140,4|8
264,376,157307,2,0,B|200:224,1,140
184,168,157870,1,8
184,168,158058,2,0,B|240:224|328:224,1,140,0|0
392,200,158620,1,8
256,96,158995,6,0,B|344:80,2,70,0|0|8
208,168,159558,2,0,B|256:224|240:312,1,140,0|0
312,344,160120,1,8
312,344,160308,2,0,B|352:272|328:184,1,140
272,152,160870,1,8
248,184,161245,5,2
256,224,161620,5,2
232,264,161995,5,2
240,304,162370,5,2
80,352,162745,6,0,B|112:280|72:200,1,140,4|8
176,136,163307,2,0,B|144:208|184:288,1,140
168,352,163870,1,8
248,208,164245,2,0,B|312:184|392:208,1,140,0|8
448,312,164807,2,0,B|376:344|288:312,1,140
240,368,165370,1,8
184,304,165558,1,0
112,352,165745,5,0
256,192,165838,12,4,168744
424,112,186370,6,0,B|488:136,2,70,0|0|4
352,160,186932,1,0
296,96,187120,1,0
224,144,187307,1,8
224,144,187495,2,0,B|168:200|208:296,1,140,0|0
96,328,188057,2,0,B|144:264|96:176,2,140
96,328,189182,5,0
176,304,189370,1,0
256,280,189557,1,0
336,256,189745,2,0,B|352:344,1,70,4|0
448,192,190307,2,0,B|400:128|304:128,1,140,8|0
272,192,190870,1,0
272,192,191057,2,0,B|232:128|264:56,1,140,4|0
263,58,191620,1,4
112,136,191995,2,0,B|152:200|120:272,1,140,8|0
272,192,192745,6,0,B|352:176|424:232,1,140,4|0
472,328,193307,2,0,B|400:336|328:288,1,140,8|0
256,280,193870,2,0,B|184:320,1,70
56,216,194432,2,0,B|40:176|56:136,1,70,0|8
96,72,194807,1,0
176,40,194995,2,0,B|256:32,1,70
336,120,195370,2,0,B|256:128,1,70
184,136,195745,6,0,B|192:216|280:264,1,140,4|0
320,312,196307,2,0,B|256:272|160:296,2,140,8|0|0
256,160,197432,1,2
336,136,197620,1,0
416,168,197807,1,0
472,232,197995,2,0,B|496:264,2,35,8|0|0
440,312,198370,2,0,B|424:352,2,35,8|0|0
368,264,198745,6,0,B|320:200|248:184,1,140,4|0
88,168,199495,2,0,B|96:96|152:48,1,140,8|0
192,168,200057,2,0,B|184:240|112:296,2,140,0|8|0
288,32,201182,2,0,B|200:16,1,70
304,112,201557,2,0,B|352:176|456:168,2,140,0|8|0
136,96,202682,5,0
104,176,202870,1,0
72,256,203057,1,4
72,256,203432,1,0
72,256,203807,1,0
128,192,203995,1,0
208,184,204182,1,0
288,216,204370,2,0,B|352:264,1,70
344,258,204745,6,0,B|368:184|456:160,1,140,4|0
440,164,205307,1,0
320,48,205682,1,0
240,64,205870,1,0
296,128,206057,2,0,B|336:192|304:280,1,140
248,320,206620,1,0
136,192,206995,2,0,B|104:216|96:264,1,70,8|8
128,368,207370,2,0,B|160:344|176:288,1,70,0|8
208,240,207745,6,0,B|248:176|344:184,1,140,0|8
344,56,208307,2,0,B|296:112|200:104,1,140,0|0
136,80,208870,1,8
64,128,209057,2,0,B|16:192|48:264,1,140,4|0
112,312,209620,1,0
112,312,209807,1,0
176,240,209995,1,0
176,240,210182,1,0
264,312,210370,1,0
264,312,210557,1,0
320,200,210745,5,0
264,104,215995,6,0,B|104:88,2,140,0|0|2
248,280,217307,6,0,B|400:264,2,140,2|2|0
248,280,218245,1,2
16,176,218807,1,2
152,72,219182,1,0
152,72,219369,1,0
152,72,219557,1,0
152,72,219745,6,0,B|224:40|320:56,1,140,2|0
368,64,220307,1,0
440,120,220495,1,0
464,216,220682,1,0
408,304,220870,1,0
296,320,221057,6,0,B|248:304|192:336|144:320,1,140,4|0
80,288,221620,2,0,B|64:248|64:208,1,70,8|0
152,136,221995,2,0,B|168:176|168:216,1,70
248,240,222370,1,0
312,184,222557,1,0
256,120,222745,6,0,B|320:88|400:88,1,140,4|8
280,32,223307,2,0,B|208:8|128:16,1,140
72,64,223870,1,8
120,136,224057,2,0,B|120:208|48:248,1,140
72,328,224620,5,8
152,360,224807,2,0,B|240:344,1,70
288,240,225182,2,0,B|192:256,1,70,0|8
144,216,225557,2,0,B|112:144|136:80,1,140,0|0
248,24,226120,1,8
248,24,226307,2,0,B|280:96|248:176,1,140
232,240,226870,1,8
256,320,227057,2,0,B|328:344|408:312,1,140
393,317,227620,1,8
464,168,227995,5,0
392,120,228182,1,0
336,200,228370,1,8
296,96,228557,1,0
240,208,228745,2,0,B|264:280|224:352,1,140,4|8
152,248,229307,2,0,B|128:176|160:104,1,140
208,48,229870,1,8
208,48,230057,2,0,B|360:24,1,140
346,26,230620,1,8
296,184,230995,6,0,B|304:224|336:264,2,70,0|0|8
264,104,231557,2,0,B|216:168|112:152,1,140,0|0
64,120,232120,1,8
64,120,232307,2,0,B|32:192|72:280,1,140
136,296,232870,1,8
200,240,233245,5,2
272,280,233620,5,2
248,360,233995,5,2
168,368,234370,5,2
256,192,234745,12,0,236995
256,192,237370,5,0
256,192,237557,1,0
256,192,237745,1,0
256,192,237838,12,4,240745
