osu file format v9

[General]
AudioFilename: Flower Flag.mp3
AudioLeadIn: 0
PreviewTime: 221995
Countdown: 0
SampleSet: Soft
StackLeniency: 0.7
Mode: 0
LetterboxInBreaks: 1

[Editor]
DistanceSpacing: 1.5
BeatDivisor: 4
GridSize: 8

[Metadata]
Title:Flower Flag
Artist:FELT
Creator:y u z u k i
Version:happy30
Source:touhou
Tags:maika happy30 mizuki yuyuko saigyouji yuzuki

[Difficulty]
HPDrainRate:6
CircleSize:4
OverallDifficulty:7
ApproachRate:8
SliderMultiplier:1.4
SliderTickRate:1

[Events]
//Background and Video events
0,0,"bgggggg.jpg"
//Break Periods
2,92445,98245
2,167445,173995
//Storyboard Layer 0 (Background)
//Storyboard Layer 1 (Fail)
//Storyboard Layer 2 (Pass)
//Storyboard Layer 3 (Foreground)
//Storyboard Sound Samples
//Background Colour Transformations
3,100,163,162,255

[TimingPoints]
745,375,4,2,1,80,1,0
24745,-133.333333333333,4,2,1,50,0,0
36745,-100,4,2,1,60,0,0
48745,-100,4,2,1,60,0,0
54745,-100,4,2,1,60,0,0
56807,-100,4,2,1,60,0,0
62995,-76.9230769230769,4,1,1,70,0,0
63745,-76.9230769230769,4,2,1,80,0,1
75651,-76.9230769230769,4,2,1,80,0,0
75745,-76.9230769230769,4,2,1,80,0,1
92245,-100,4,2,1,60,0,0
137901,-100,4,1,1,60,0,0
138745,-76.9230769230769,4,2,1,80,0,1
150651,-76.9230769230769,4,2,1,80,0,0
150745,-76.9230769230769,4,2,1,80,0,1
167245,-76.9230769230769,4,2,1,80,0,0
174745,-133.333333333333,4,2,1,80,0,0
186370,-76.9230769230769,4,2,1,80,0,0
198745,-100,4,2,1,80,0,0
209057,-76.9230769230769,4,2,1,80,0,0
209432,-76.9230769230769,4,1,1,80,0,0
210745,-133.333333333333,4,2,1,50,0,0
219745,-133.333333333333,4,2,1,80,0,0
221526,-133.333333333333,4,1,1,80,0,0
222745,-76.9230769230769,4,2,1,80,0,1
234745,-100,4,2,1,80,0,0
257245,-100,4,1,1,80,0,0
258832,375,4,2,1,80,1,0
259019,-100,4,2,1,5,0,0

[Colours]
Combo1 : 214,124,252
Combo2 : 140,201,255
Combo3 : 254,150,213

[HitObjects]
48,128,12745,1,4
160,256,13120,1,8
232,216,13307,2,0,B|312:216|376:296,1,140,2|2
408,336,13870,1,8
480,128,14245,5,2
376,56,14526,1,0
376,56,14620,1,8
304,96,14807,2,0,B|224:96|160:176,1,140,2|2
120,216,15370,5,8
264,304,15745,1,2
104,360,16120,1,8
272,40,16495,5,0
296,120,16682,1,2
320,200,16870,1,8
176,288,17245,1,2
296,336,17526,1,0
296,336,17620,1,8
368,288,17807,2,0,B|448:288|512:368,1,140,2|2
456,224,18370,2,0,B|488:184|480:136,1,70,8|2
448,88,18745,5,4
336,216,19120,1,8
264,176,19307,2,0,B|184:176|120:256,1,140,2|2
88,296,19870,1,8
16,88,20245,5,2
120,16,20526,1,0
120,16,20620,1,8
176,80,20807,2,0,B|176:160|96:224,1,140,2|2
56,256,21370,5,8
192,352,21745,1,2
296,216,22120,1,8
328,296,22307,1,2
232,32,22682,1,2
200,112,22870,1,8
168,192,23057,1,4
256,192,23245,12,4,24745
384,304,25120,5,0
312,336,25307,1,0
240,304,25495,2,0,B|176:288|120:288,1,104.999996870756,2|0
304,224,26057,2,0,B|320:168|328:112,2,104.999996870756
208,48,27182,1,0
208,48,27370,1,2
208,48,27745,6,0,B|184:120|176:216,2,157.499995306134,0|0|0
272,96,29057,1,0
352,112,29245,1,2
456,288,29620,1,0
392,336,29807,2,0,B|344:360|280:352,1,104.999996870756,0|0
224,312,30370,1,0
168,256,30557,6,0,B|88:224|-8:240,1,157.499995306134
152,160,31307,2,0,B|232:184|320:128,1,157.499995306134
368,96,32057,1,0
416,32,32245,1,2
416,304,32620,1,0
352,256,32807,2,0,B|264:240|192:280,1,157.499995306134
128,320,33557,1,0
64,368,33745,5,2
64,216,34120,1,0
112,152,34307,1,0
256,88,34682,1,2
392,160,35057,1,0
440,224,35245,2,0,B|456:256|456:280,1,52.4999984353781,2|0
408,336,35620,1,0
336,304,35807,2,0,B|320:272|320:248,2,52.4999984353781,0|2|0
264,336,36370,2,0,B|216:336|168:344,1,78.7499976530672,0|2
168,344,36745,6,0,B|112:304|24:312,1,140,12|0
8,232,37307,1,2
248,192,37682,2,0,B|280:216|328:224,1,70,2|8
392,200,38057,2,0,B|432:144|424:56,2,140,0|0|2
280,320,39182,1,8
200,352,39370,1,2
120,320,39557,5,0
120,320,39651,1,0
120,320,39745,2,0,B|64:304|32:304,2,70,8|0|0
160,248,40307,2,0,B|216:208|304:216,1,140,2|8
376,216,40870,1,0
448,176,41057,2,0,B|464:136|464:96,1,70,2|8
336,32,41432,1,0
336,32,41526,2,0,B|312:88|328:152,1,105,8|10
232,288,42182,1,10
160,240,42370,2,0,B|88:208|16:216,1,140,8|4
120,80,43120,5,0
184,136,43307,2,0,B|256:104|328:112,1,140,2|10
384,168,43870,1,8
352,248,44057,1,0
352,248,44151,1,0
352,248,44245,2,0,B|344:288|344:336,1,70,10|0
488,224,44807,1,10
448,64,45182,1,10
368,96,45370,2,0,B|304:120|224:112,1,140,0|4
376,200,46120,6,0,B|416:208|456:232,1,70,2|0
472,304,46495,2,0,B|432:312|392:336,1,70
328,352,46870,1,10
248,384,47057,1,6
96,304,47432,2,0,B|88:248|104:208,1,70,8|8
152,176,47807,1,2
208,240,47995,2,0,B|216:296|200:336,1,70,8|8
24,176,48370,2,0,B|16:120|32:80,1,70,8|8
88,48,48745,6,0,B|152:96|240:104,1,140,4|0
296,72,49307,1,8
304,336,49682,2,0,B|312:280|336:256,1,70
400,232,50057,6,0,B|448:296|456:384,2,140,8|8|8
352,160,50995,1,0
272,144,51182,1,0
200,184,51370,1,2
136,240,51557,1,0
56,208,51745,6,0,B|8:144|0:56,1,140,12|2
64,16,52307,1,8
232,272,52682,2,0,B|224:328|200:352,1,70,2|0
288,360,53057,6,0,B|352:312|440:304,1,140,8|2
496,296,53620,1,8
296,200,53995,1,2
216,232,54182,1,0
136,208,54370,1,2
96,136,54557,1,0
24,184,54745,6,0,B|-8:256|24:336,1,140,12|0
88,368,55307,1,8
248,328,55682,1,8
112,224,56057,6,0,B|144:152|112:72,1,140,8|8
184,40,56620,1,0
184,40,56713,1,0
184,40,56807,1,2
232,112,56995,1,10
232,192,57182,1,8
232,192,57276,1,8
232,192,57370,2,8,B|216:232|208:272,1,70
264,328,57745,6,0,B|336:360|416:328,1,140,4|2
472,288,58307,1,8
280,200,58682,1,2
488,168,59057,1,2
320,40,59432,2,0,B|368:56|392:88,1,70,2|0
360,160,59807,2,0,B|288:192|208:160,1,140,2|2
152,120,60370,1,0
80,160,60557,2,0,B|56:192|48:232,1,70,0|4
224,336,61120,5,8
400,224,61495,1,8
320,24,61870,1,8
248,64,62057,2,0,B|296:120|312:208,1,140,12|8
328,272,62620,1,8
296,352,62807,1,8
200,248,62995,5,0
320,176,63182,1,0
376,304,63370,1,0
256,368,63557,1,0
120,320,63745,6,0,B|72:240|104:136,1,181.999996745586,6|2
176,192,64307,2,0,B|274:159|362:231,1,181.999996745586,0|8
432,176,64870,2,0,B|464:128|464:88,1,90.9999983727932,2|0
312,24,65245,6,0,B|272:88|296:168,1,136.49999755919,8|8
292,155,65620,1,10
224,288,65807,2,0,B|125:320|37:248,1,181.999996745586,8|8
24,176,66370,1,2
24,176,66463,1,0
24,176,66557,1,0
72,96,66745,6,0,B|136:56|216:80,1,136.49999755919,12|8
203,76,67120,1,10
168,160,67307,2,0,B|128:240|168:352,1,181.999996745586,8|8
320,224,67870,1,2
400,264,68057,2,0,B|440:184|400:72,1,181.999996745586,0|0
320,56,68620,6,0,B|304:104|272:152,1,90.9999983727932,10|8
270,301,68995,2,0,B|286:253|334:213,1,90.9999983727932,2|0
480,272,69370,2,0,B|464:320|416:360,1,90.9999983727932,10|0
416,360,69651,1,0
400,368,69745,1,6
96,120,70120,5,2
56,200,70307,2,0,B|152:192|232:272,1,181.999996745586,0|8
304,216,70870,2,0,B|344:184|360:136,1,90.9999983727932,2|0
440,184,71245,6,0,B|400:248|416:320,1,136.49999755919,8|8
414,314,71620,1,10
336,360,71807,1,0
256,320,71995,2,0,B|200:288|152:288,1,90.9999983727932,0|8
128,144,72370,2,0,B|184:176|232:176,1,90.9999983727932,2|0
304,152,72745,6,0,B|344:88|328:16,1,136.49999755919,12|8
329,21,73120,1,10
152,64,73307,2,0,B|96:152|136:256,1,181.999996745586,0|8
192,304,73870,1,2
192,304,74057,6,0,B|280:256|384:312,1,181.999996745586,12|8
360,216,74620,2,0,B|344:168|360:120,1,90.9999983727932,8|0
432,80,74995,1,8
504,192,75182,1,8
392,272,75370,1,8
312,160,75557,1,8
480,112,75745,6,0,B|504:192|464:264,1,136.49999755919,12|8
473,245,76120,1,10
392,208,76307,2,0,B|293:175|205:247,1,181.999996745586,8|8
144,184,76870,2,0,B|120:144|136:88,1,90.9999983727932,2|0
24,312,77245,6,0,B|104:288|176:328,1,136.49999755919,8|8
157,319,77620,1,10
240,352,77807,2,0,B|301:278|268:179,1,181.999996745586,8|0
56,80,78370,2,0,B|40:128|48:176,1,90.9999983727932,2|0
184,240,78745,6,0,B|264:216|336:256,1,136.49999755919,12|8
317,247,79120,1,10
392,192,79307,2,0,B|453:265|420:364,1,181.999996745586,0|8
328,344,79870,1,2
216,160,80057,2,0,B|225:64|317:17,1,181.999996745586,0|0
424,160,80620,6,0,B|368:176|320:160,1,90.9999983727932,10|0
152,48,80995,2,0,B|208:32|256:48,1,90.9999983727932,0|8
304,168,81370,1,10
184,232,81557,1,0
80,144,81745,6,0,B|32:224|40:320,1,181.999996745586,12|2
120,360,82307,2,0,B|200:312|296:320,1,181.999996745586,0|0
312,232,82870,2,0,B|360:256|424:256,1,90.9999983727932,2|0
168,96,83245,6,0,B|152:168|192:240,1,136.49999755919,8|8
187,229,83620,1,10
320,144,83807,2,0,B|368:224|360:320,1,181.999996745586,8|8
280,368,84370,1,2
56,160,84745,6,0,B|40:88|80:16,1,136.49999755919,12|8
75,27,85120,1,10
160,64,85307,2,0,B|256:112|344:88,1,181.999996745586,8|0
424,56,85870,5,2
480,128,86057,1,12
168,176,86432,1,8
88,264,86620,1,8
168,352,86807,1,8
248,264,86995,2,0,B|304:256|344:256,1,90.9999983727932,12|8
360,264,87276,1,8
384,272,87370,2,0,B|440:264,2,45.4999991863966,8|8|8
288,184,87745,6,0,B|272:144|280:88,1,90.9999983727932,4|0
416,32,88120,2,0,B|432:80|424:128,1,90.9999983727932,8|2
424,121,88682,1,8
360,184,88870,2,0,B|320:200|264:192,1,90.9999983727932,8|2
184,160,89245,6,0,B|152:224|160:296,1,136.49999755919,8|8
159,292,89620,1,0
304,376,89807,2,0,B|360:304|336:184,1,181.999996745586,8|8
288,128,90370,1,2
256,192,90557,12,4,92245
256,192,98995,12,4,99745
88,304,100120,5,2
160,336,100307,1,0
232,304,100495,2,0,B|296:280|384:288,1,140,0|2
208,216,101057,2,0,B|184:152|192:72,2,140
352,272,102182,2,0,B|368:232|368:192,1,70,0|2
448,184,102557,5,8
448,184,102745,2,0,B|472:248|464:328,2,140,8|2|0
248,272,103870,2,0,B|232:312|232:352,1,70,2|0
152,360,104245,1,0
112,288,104432,2,0,B|128:248|128:208,1,70,0|2
32,112,104807,2,0,B|16:152|16:192,2,70
96,64,105370,1,10
208,248,105745,6,0,B|288:232|352:264,1,140,4|2
408,208,106307,2,0,B|424:128|392:64,1,140
320,56,106870,1,2
264,112,107057,2,0,B|224:128|184:128,1,70
8,208,107620,2,0,B|48:224|88:224,1,70,2|0
128,288,107995,2,0,B|200:264|272:288,1,140,0|2
320,344,108557,1,0
392,304,108745,5,8
184,360,109120,1,8
64,176,109495,1,8
216,16,109870,1,8
280,64,110057,1,2
280,144,110245,2,0,B|264:200|264:232,1,70,8|2
144,288,110620,2,0,B|160:232|160:200,1,70,8|2
24,136,110995,2,0,B|40:192|40:224,1,70,8|8
24,312,111370,1,8
112,368,111557,1,8
200,304,111745,6,0,B|280:272|344:280,1,140,4|2
176,208,112307,2,0,B|183:151|151:71,1,140,0|8
80,112,112870,1,2
264,176,113057,2,0,B|344:208|408:200,1,140,8|0
464,152,113620,1,10
464,152,113713,1,8
464,152,113807,1,8
432,80,113995,1,0
352,56,114182,2,0,B|312:80|272:80,1,70,8|2
200,48,114557,1,0
352,160,114745,6,0,B|384:248|376:312,1,140,8|2
200,376,115307,2,0,B|168:288|176:224,1,140,0|8
216,168,115870,1,2
24,208,116057,2,0,B|56:248|96:256,1,70,0|8
192,72,116432,2,0,B|224:32|264:24,1,70,0|2
320,64,116807,2,0,B|360:128|344:208,1,140
272,232,117370,2,0,B|256:272|256:312,1,70,2|0
296,368,117745,6,0,B|376:384|432:336,1,140,4|2
496,288,118307,1,8
280,128,118682,2,0,B|232:112|200:112,1,70,8|2
160,168,119057,2,0,B|80:152|24:200,2,140,8|0|0
240,304,120182,1,8
296,248,120370,2,0,B|312:208|312:176,1,70,2|0
384,136,120745,6,0,B|376:208|416:272,1,140,8|2
480,320,121307,1,0
216,128,121682,2,0,B|200:168|200:200,1,70,0|2
120,216,122057,2,0,B|128:144|88:80,1,140,0|8
32,24,122620,1,10
208,248,122995,2,0,B|200:296|208:344,1,70,8|8
368,208,123370,2,0,B|376:160|368:112,1,70,10|8
408,72,123745,6,0,B|456:72|504:88,2,70,4|0|2
264,152,124307,2,0,B|192:144|128:184,1,140,8|8
80,248,124870,1,2
256,328,125057,2,0,B|328:320|392:360,1,140,8|8
456,312,125620,2,0,B|480:272|488:240,2,70,2|8|0
392,264,126182,6,0,B|400:216|392:168,1,70,0|2
344,128,126557,1,0
280,176,126745,2,0,B|224:224|136:216,1,140,4|2
0,96,127307,2,0,B|56:48|144:56,1,140,8|8
112,136,127870,1,2
56,272,128057,2,0,B|112:320|200:312,1,140,8|8
264,280,128620,1,2
336,320,128807,6,0,B|384:320|416:328,2,70
224,200,129370,2,0,B|176:200|144:208,1,70,2|0
112,136,129745,2,0,B|168:88|256:96,1,140,12|10
320,208,130307,2,0,B|288:288|320:360,1,140,8|0
480,224,131057,2,0,B|512:144|480:72,1,140,4|0
424,40,131620,1,2
344,64,131807,2,0,B|312:112|312:144,1,70,0|8
280,200,132182,1,8
280,200,132276,1,8
280,200,132370,1,8
280,200,132463,1,8
280,200,132557,1,8
248,272,132745,6,0,B|280:320|280:352,2,70,4|0|2
184,224,133307,1,8
384,248,133682,1,8
248,104,134057,1,10
440,40,134432,1,10
376,80,134620,2,0,B|352:120|352:152,1,70,0|10
344,224,134995,5,0
376,296,135182,1,8
320,352,135370,2,0,B|280:376|248:376,1,70,2|0
176,352,135745,1,4
128,200,136120,2,2,B|168:216|208:208,1,70,2|8
264,160,136495,1,0
240,88,136682,2,0,B|280:72|320:80,1,70,8|2
280,288,137057,2,0,B|192:312|144:280,1,140,12|8
64,224,137620,1,8
48,128,137807,1,8
120,64,137995,5,0
232,152,138182,1,0
144,264,138370,1,0
32,184,138557,1,0
200,32,138745,6,0,B|288:-8|384:32,1,181.999996745586,4|2
496,192,139307,2,0,B|408:232|312:192,1,181.999996745586,8|0
240,152,139870,2,0,B|208:208|208:248,1,90.9999983727932,2|0
248,320,140245,5,8
424,120,140526,1,8
424,120,140620,2,0,B|368:88|296:96,1,90.9999983727932,8|8
32,176,141182,2,0,B|64:232|56:304,1,90.9999983727932,0|2
120,328,141557,2,0,B|136:264|184:240,1,90.9999983727932,0|4
384,344,142026,5,8
384,344,142120,1,8
320,280,142307,2,0,B|280:192|328:96,1,181.999996745586,0|0
400,152,142870,2,0,B|416:200|392:248,1,90.9999983727932,2|0
224,352,143245,6,0,B|208:304|232:256,1,90.9999983727932,0|0
176,184,143620,2,0,B|192:136|168:88,1,90.9999983727932,2|8
24,248,143995,2,0,B|8:296|32:344,1,90.9999983727932,0|8
112,376,144370,1,8
112,376,144463,1,0
112,376,144557,1,0
256,240,144745,6,0,B|304:152|256:48,1,181.999996745586,4|2
262,64,145307,2,0,B|344:104|368:32|464:72,1,181.999996745586,0|8
504,128,145870,1,8
424,168,146057,1,0
488,240,146245,6,0,B|520:312|488:384,1,136.49999755919,8|8
492,372,146620,2,0,B|448:344|368:344,1,90.9999983727932,2|0
192,360,146995,2,0,B|240:368|304:336,1,90.9999983727932,0|8
320,264,147370,1,2
264,192,147557,1,8
312,112,147745,6,0,B|384:80|472:120,1,136.49999755919,4|8
445,109,148120,2,0,B|432:160|432:208,1,90.9999983727932,8|0
312,288,148495,2,0,B|325:237|325:189,1,90.9999983727932
256,144,148870,1,2
176,184,149057,2,0,B|120:264|152:376,2,181.999996745586,8|0|8
192,96,149995,6,0,B|256:120|312:112,1,90.9999983727932,8|0
368,88,150370,1,2
376,112,150463,1,0
384,136,150557,1,0
392,160,150651,1,0
400,184,150745,6,0,B|320:256|216:208,1,181.999996745586,4|2
160,272,151307,2,0,B|112:256|48:272,1,90.9999983727932
0,336,151682,2,0,B|80:408|184:360,1,181.999996745586,8|0
240,312,152245,5,8
272,232,152432,2,0,B|280:176|256:128,1,90.9999983727932,0|2
216,64,152807,2,0,B|296:-8|400:40,1,181.999996745586,8|8
456,96,153370,1,2
392,256,153557,6,0,B|312:328|208:280,1,181.999996745586
48,120,154120,1,2
112,56,154307,2,0,B|224:-8|296:112,1,181.999996745586,0|8
320,160,154870,1,2
264,232,155057,1,0
264,232,155151,1,0
264,232,155245,2,0,B|240:304|248:352,1,90.9999983727932,8|0
440,208,155620,6,0,B|464:136|456:88,1,90.9999983727932,2|8
304,112,155995,2,0,B|280:40|288:-8,1,90.9999983727932
472,232,156370,2,0,B|496:304|488:352,1,90.9999983727932,2|8
408,360,156745,6,0,B|328:296|224:320,1,181.999996745586,4|2
160,360,157307,1,0
56,208,157682,1,0
144,232,157870,2,0,B|192:248|272:224,1,90.9999983727932,2|4
344,88,158432,5,8
264,48,158620,2,0,B|216:32|136:56,1,90.9999983727932,2|8
96,96,158995,1,0
96,96,159088,1,0
96,96,159182,1,8
72,184,159370,1,2
136,248,159557,1,0
208,192,159745,6,0,B|272:144|360:176,1,136.49999755919,12|8
337,169,160120,1,2
392,240,160307,2,0,B|320:336|192:272,1,181.999996745586,8|8
144,248,160870,1,8
104,168,161057,2,0,B|88:120|112:72,1,90.9999983727932,4|0
184,32,161432,5,8
184,32,161620,1,12
248,96,161807,2,0,B|264:152|256:208,1,90.9999983727932,0|8
344,256,162182,1,0
336,232,162276,1,0
332,207,162370,1,8
336,184,162463,1,0
344,160,162557,1,0
416,96,162745,5,4
64,248,163307,1,0
64,248,163870,2,0,B|64:152|128:72,1,181.999996745586,8|4
464,352,164807,5,8
464,352,165370,2,0,B|464:256|400:176,1,181.999996745586,8|2
256,192,165838,12,4,167245
288,104,174745,6,0,B|280:48|304:-8,1,104.999996870756,4|2
448,88,175307,2,0,B|456:144|432:200,1,104.999996870756,0|8
400,264,175870,1,2
256,200,176245,5,8
160,272,176526,1,0
160,272,176620,1,8
96,224,176807,2,0,B|88:168|112:112,1,104.999996870756,8|8
400,224,177370,2,0,B|408:280|384:336,1,104.999996870756,2|8
184,376,178120,5,2
48,216,178495,1,0
144,32,178870,1,2
352,72,179245,6,0,B|360:112|344:144,1,52.4999984353781,8|8
296,184,179620,1,2
224,152,179807,2,0,B|216:112|232:80,1,52.4999984353781,8|0
416,200,180182,2,0,B|424:248|416:272,1,52.4999984353781,0|10
408,328,180557,1,8
344,368,180745,5,4
128,264,181307,1,2
344,176,181870,1,2
280,224,182057,1,4
224,176,182245,6,0,B|48:176,1,157.499995306134,0|8
360,296,183182,1,8
360,296,183370,2,0,B|472:296,1,104.999996870756,8|4
112,64,184026,5,0
112,64,184120,1,8
192,64,184307,2,0,B|320:64,1,104.999996870756,2|8
376,64,184870,1,2
456,64,185057,1,8
88,224,185432,5,8
88,224,185620,1,8
392,368,185995,1,8
448,248,186182,1,8
352,152,186370,1,8
320,240,186557,6,0,B|264:232|224:264,1,90.9999983727932,0|4
160,312,186932,1,0
40,168,187120,2,0,B|88:160|136:192,1,90.9999983727932,2|8
256,360,187495,2,0,B|360:400|432:312,1,181.999996745586,0|8
384,128,188057,6,0,B|280:88|208:176,1,181.999996745586,10|0
320,208,188620,2,0,B|336:264|320:312,1,90.9999983727932
128,352,188995,2,0,B|112:296|128:248,1,90.9999983727932,8|0
408,88,189370,2,0,B|424:144|408:192,1,90.9999983727932,2|8
248,240,189745,5,8
176,184,189932,2,0,B|72:144|0:232,2,181.999996745586,0|8|8
248,240,190870,2,0,B|272:288|272:344,1,90.9999983727932,8|0
96,368,191245,6,0,B|96:312|128:280,1,90.9999983727932,2|8
336,216,191620,2,0,B|440:256|512:168,1,181.999996745586,8|0
448,104,192182,1,8
448,104,192276,1,0
448,104,192370,1,2
352,312,192557,5,0
352,312,192651,1,0
352,312,192745,2,0,B|248:360|160:288,1,181.999996745586,4|0
248,200,193307,2,0,B|336:144|424:168,1,181.999996745586,10|8
216,352,193870,1,0
128,328,194057,6,0,B|72:240|96:152,1,181.999996745586,8|8
144,80,194620,1,2
232,104,194807,2,0,B|256:152|248:200,1,90.9999983727932,8|0
24,312,195182,2,0,B|0:264|8:216,1,90.9999983727932,8|8
64,160,195557,1,0
208,304,195745,6,0,B|296:360|384:336,1,181.999996745586,4|0
456,280,196307,1,10
304,184,196682,1,8
464,96,197057,5,8
464,96,197151,1,0
464,96,197245,1,2
400,32,197432,1,8
312,32,197620,1,8
256,104,197807,1,0
256,104,197901,1,0
256,104,197995,1,10
280,192,198182,2,0,B|288:248|272:296,1,90.9999983727932
276,282,198463,1,0
276,282,198557,1,0
184,160,198745,6,0,B|112:248|128:384,1,210,4|0
125,356,199495,1,8
125,356,199682,1,8
400,256,200057,5,0
400,256,200245,1,8
400,256,200432,2,0,B|328:288|256:264,1,140,8|8
192,224,200995,2,0,B|168:136,1,70,0|8
136,80,201370,1,0
72,128,201557,6,0,B|64:160|72:200,1,70,0|12
288,312,201932,2,0,B|320:240|280:176,1,140,0|8
240,104,202495,1,0
392,192,202682,2,0,B|400:224|392:264,1,70,8|8
184,360,203057,6,0,B|152:288|192:224,1,140,4|8
384,352,203807,1,8
496,200,204182,1,0
496,200,204370,2,0,B|456:184|416:152,1,70,8|0
376,224,204745,6,0,B|256:296|160:192,1,210,4|0
128,152,205495,1,10
8,272,205682,2,0,B|48:256|88:224,1,70
288,344,206057,6,0,B|408:416|504:312,1,210,8|0
456,256,206807,1,2
424,176,206995,1,8
352,224,207182,2,0,B|286:276|224:232,1,140,8|0
223,231,207651,1,0
223,231,207745,1,8
288,176,207932,5,8
216,128,208120,1,8
288,80,208307,1,8
224,32,208495,2,0,B|176:40|144:64,1,70,8|8
368,160,208870,1,0
464,32,209057,6,0,B|520:112|480:232,1,181.999996745586,4|0
432,304,209620,1,4
336,352,209807,1,0
232,320,209995,5,4
160,152,210182,1,0
328,80,210370,1,0
392,248,210557,1,0
232,320,210745,6,0,B|200:240|248:160,1,157.499995306134,0|2
243,168,211682,1,0
320,336,212057,2,0,B|392:376|480:352,1,157.499995306134
448,232,212807,2,0,B|384:216|328:248,1,104.999996870756,2|0
32,80,213557,6,0,B|104:40|192:64,1,157.499995306134
232,120,214307,2,0,B|192:200|80:176,1,157.499995306134,2|0
40,232,215057,2,0,B|16:288|24:344,1,104.999996870756
22,334,215620,1,2
336,208,215995,6,0,B|344:160|336:144,1,52.4999984353781
416,128,216370,2,0,B|440:184|432:240,1,104.999996870756,2|4
192,360,217307,2,0,B|168:304|176:248,1,104.999996870756
96,240,217870,2,0,B|104:192|96:176,1,52.4999984353781
24,48,218245,2,0,B|0:104|8:160,1,104.999996870756,2|0
272,232,218807,6,0,B|296:176|288:120,1,104.999996870756
232,72,219370,1,0
152,88,219557,1,0
112,160,219745,1,6
368,296,220120,1,0
368,296,220307,2,0,B|360:232|392:192,1,104.999996870756,2|2
184,352,220870,1,8
184,352,221057,2,0,B|192:288|160:248,1,104.999996870756,6|2
64,224,221620,5,0
48,128,221807,1,0
120,64,221995,5,4
232,152,222182,1,0
144,264,222370,1,0
40,176,222557,1,0
200,32,222745,6,0,B|288:-8|384:32,1,181.999996745586,4|2
312,352,223307,2,0,B|224:392|128:352,1,181.999996745586,0|8
16,288,223870,1,2
192,200,224057,6,0,B|312:152|336:288|480:168,1,272.99999511838,0|10
184,0,224807,2,0,B|96:56|112:176,1,181.999996745586,8|0
56,232,225370,1,2
56,232,225463,1,0
56,232,225557,1,0
200,112,225745,6,0,B|256:72|360:96,1,136.49999755919,8|0
331,90,226120,2,0,B|312:152|320:216,1,90.9999983727932,10|8
464,288,226495,2,0,B|488:248|480:168,1,90.9999983727932,0|8
424,120,226870,1,2
328,312,227057,6,0,B|248:384|136:328,1,181.999996745586
16,128,227620,2,0,B|96:56|208:112,1,181.999996745586,2|0
232,248,228182,1,8
104,336,228370,1,2
16,208,228557,1,8
136,112,228745,6,0,B|176:192|120:296,1,181.999996745586,4|2
376,368,229307,2,0,B|336:288|392:184,1,181.999996745586,0|8
432,112,229870,1,2
176,200,230057,6,0,B|160:248|176:304,1,90.9999983727932,0|8
344,120,230432,1,0
344,120,230526,1,0
344,120,230620,2,2,B|360:72|344:16,1,90.9999983727932,10|0
224,120,230995,2,0,B|208:168|224:224,1,90.9999983727932,0|8
440,344,231370,2,0,B|456:296|440:240,1,90.9999983727932,2|0
152,256,231745,6,0,B|136:304|152:360,1,90.9999983727932,12|2
64,232,232120,1,10
64,232,232307,2,0,B|80:184|64:128,1,90.9999983727932,8|2
232,312,232682,1,0
232,312,232869,2,0,B|280:328|336:312,1,90.9999983727932,10|0
432,208,233245,6,0,B|384:224|328:208,1,90.9999983727932,6|8
112,128,233620,2,0,B|160:144|216:128,1,90.9999983727932,2|8
384,32,233995,1,8
384,32,234088,1,0
384,32,234182,1,2
184,208,234370,1,8
184,208,234463,1,0
184,208,234557,1,2
456,104,234745,6,0,B|528:192|480:320,1,210,4|0
312,352,235682,1,8
240,296,235870,1,2
152,296,236057,1,0
72,336,236245,6,0,B|8:280|32:184,1,140,8|8
168,80,236807,2,0,B|232:136|208:232,1,140,8|8
120,192,237370,1,2
352,48,237745,5,8
312,128,237932,1,0
336,216,238120,1,8
416,264,238307,2,0,B|480:208|456:112,1,140,0|8
288,344,238870,1,2
168,136,239057,6,0,B|136:168|128:208,1,70,0|8
296,120,239620,1,2
128,48,239995,1,0
56,104,240182,1,8
40,192,240370,1,2
96,264,240557,1,8
184,248,240745,6,0,B|296:208|384:304,1,210,4|0
400,0,241682,1,8
416,88,241870,1,2
360,160,242057,1,8
272,144,242245,6,0,B|160:104|72:200,1,210,0|8
176,344,243182,1,8
392,32,243557,6,0,B|424:96|416:200,1,140
344,224,244120,1,10
272,168,244307,2,0,B|240:232|248:336,1,140,8|8
72,352,245057,5,4
464,208,245432,1,4
32,72,245807,1,4
96,128,245995,1,8
176,144,246182,1,0
176,144,246276,1,0
176,144,246370,1,2
256,112,246557,5,0
256,112,246651,1,0
256,112,246745,2,0,B|272:64|264:24,2,70,10|0|0
96,128,247307,2,0,B|64:200|80:272,1,140,0|8
312,344,247870,2,0,B|328:304|320:264,1,70,2|0
160,368,248245,6,0,B|145:303|177:231,1,140,8|0
424,136,248807,2,0,B|438:200|406:272,1,140,8|8
240,152,249370,2,0,B|224:112|232:72,1,70,2|0
344,168,249745,6,0,B|358:103|326:31,1,140,8|0
88,168,250307,2,0,B|73:232|105:304,1,140,8|8
264,368,251057,1,0
256,192,251245,12,4,252745
200,192,253307,5,0
56,104,253682,2,0,B|0:160|24:240,1,140,8|0
72,304,254245,1,8
320,112,254807,5,8
464,24,255182,2,0,B|520:80|496:160,1,140,8|0
440,216,255745,2,0,B|328:248,1,105,4|0
339,244,256120,2,0,B|320:288|320:336,1,70,8|2
288,152,256682,1,8
200,296,257057,1,2
24,104,257432,5,0
128,32,257620,1,0
184,144,257807,1,0
80,216,257995,1,0
24,104,258182,1,0
208,48,258370,5,0
272,128,258557,1,0
240,280,258832,1,4
256,192,259019,12,0,266519
