osu file format v9

[General]
AudioFilename: Flower Flag.mp3
AudioLeadIn: 0
PreviewTime: 221995
Countdown: 0
SampleSet: Soft
StackLeniency: 0.7
Mode: 0
LetterboxInBreaks: 1

[Editor]
DistanceSpacing: 0.8
BeatDivisor: 4
GridSize: 8

[Metadata]
Title:Flower Flag
Artist:FELT
Creator:y u z u k i
Version:Normal
Source:touhou
Tags:maika happy30 mizuki yuyuko saigyouji yuzuki

[Difficulty]
HPDrainRate:3
CircleSize:3
OverallDifficulty:3
ApproachRate:4
SliderMultiplier:1.2
SliderTickRate:1

[Events]
//Background and Video events
0,0,"bgggggg.jpg"
//Break Periods
2,93945,98800
2,168945,185425
//Storyboard Layer 0 (Background)
//Storyboard Layer 1 (Fail)
//Storyboard Layer 2 (Pass)
//Storyboard Layer 3 (Foreground)
//Storyboard Sound Samples
//Background Colour Transformations
3,100,163,162,255

[TimingPoints]
745,375,4,2,1,80,1,0
25026,-100,4,2,1,60,0,0
63276,-100,4,2,1,70,0,0
63745,-100,4,2,1,80,0,1
75651,-100,4,2,1,80,0,0
75745,-100,4,2,1,80,0,1
87651,-100,4,2,1,5,0,1
90370,-100,4,2,1,30,0,1
90745,-100,4,2,1,5,0,1
93745,-100,4,2,1,30,0,0
100026,-100,4,2,1,60,0,0
138745,-100,4,2,1,80,0,1
150651,-100,4,2,1,80,0,0
150745,-100,4,2,1,80,0,1
162651,-100,4,2,1,5,0,1
165370,-100,4,2,1,30,0,1
165745,-100,4,2,1,5,0,1
168745,-100,4,2,1,30,0,0
186651,-100,4,2,1,60,0,0
219651,-100,4,1,1,30,0,0
220401,-100,4,2,1,60,0,0
222745,-100,4,2,1,80,0,1
234276,-100,4,2,1,50,0,1
234651,-100,4,2,1,60,0,1
234745,-100,4,2,1,60,0,0
237745,-100,4,2,1,5,0,0
240745,-100,4,2,1,30,0,0
258832,375,4,2,1,80,1,0

[Colours]
Combo1 : 214,124,252
Combo2 : 140,201,255
Combo3 : 254,150,213

[HitObjects]
160,48,25120,6,0,B|136:104|136:176,1,120,2|0
232,184,25870,1,2
240,232,26057,2,0,B|264:288|264:360,2,120
328,192,27182,2,0,B|336:160|328:128,2,60,0|2|0
344,240,27745,5,0
464,160,28307,1,0
352,72,28870,1,0
256,56,29245,2,0,B|192:40|136:48,1,120,0|2
128,96,29807,2,0,B|112:160|120:216,2,120
88,64,30745,5,0
24,192,31307,1,0
152,256,31870,1,0
120,168,32244,2,0,B|128:104|168:40,1,120,0|2
176,8,32807,2,0,B|232:24|264:104|328:96,1,180,0|2
416,64,33745,6,0,B|464:160|456:248,2,180
336,112,35245,1,0
304,248,35807,1,2
176,312,36370,1,0
80,312,36745,6,0,B|120:192|208:104,1,240,4|0
288,72,37870,1,2
352,136,38245,2,0,B|312:256|224:344,1,240
144,288,39370,1,2
96,208,39745,5,0
160,80,40307,1,0
256,184,40870,1,0
304,264,41245,2,0,B|400:304|480:304,2,180,0|0|8
248,184,42745,5,0
320,56,43307,1,0
440,136,43870,1,8
416,232,44245,2,0,B|336:184|240:184,2,180,8|0|2
416,328,45745,6,0,B|344:320|296:288,1,120,8|2
264,272,46307,2,0,B|240:216|256:152,1,120,8|0
328,96,47057,2,0,B|352:152|336:216,1,120,8|0
360,256,47620,1,8
288,320,47995,1,8
192,336,48370,1,8
96,312,48745,5,4
192,200,49307,1,4
360,104,50057,2,0,B|408:56|464:40,2,120,4|0|0
320,136,50995,1,0
224,120,51370,1,2
152,56,51745,6,0,B|72:120|48:208,1,180,4|8
128,256,52682,1,0
184,176,53057,2,0,B|264:112|288:24,1,180,8|8
368,88,53995,1,0
400,176,54370,1,2
448,256,54745,6,0,B|328:312|256:320,1,180,4|8
288,224,55682,1,0
336,136,56057,2,0,B|368:80|376:8,2,120,4|0|0
216,56,57370,1,8
152,128,57745,6,0,B|104:208|96:304,1,180,4|0
192,280,58682,1,0
240,200,59057,2,0,B|296:104|304:8,1,180,4|8
392,56,59995,1,0
456,128,60370,1,8
464,224,60745,6,0,B|480:288|472:344,1,120,8|8
384,304,61495,2,0,B|368:240|376:184,1,120,8|0
384,136,62057,2,0,B|320:96|264:88,2,120,8|8|8
352,168,62995,1,8
256,192,63370,1,8
176,248,63745,6,0,B|264:328|400:344,1,240,4|0
408,248,64870,1,8
320,208,65245,2,0,B|232:128|96:112,1,240
32,176,66370,1,8
120,216,66745,5,4
272,96,67495,1,2
400,240,68245,1,0
328,176,68620,1,8
272,96,68995,2,0,B|232:152|224:216,1,120,0|8
280,288,69745,6,0,B|352:184|360:64,1,240,4|0
264,72,70870,1,8
176,112,71245,2,0,B|104:216|96:336,1,240
192,312,72370,2,0,B|248:280|320:272,1,120,8|0
416,120,73495,5,0
448,312,74245,2,0,B|472:256|480:192,1,120,0|8
416,120,74995,2,0,B|392:176|384:240,1,120,8|8
336,336,75745,6,0,B|216:312|104:240,1,240,4|0
32,200,76870,1,8
48,104,77245,2,0,B|168:128|280:200,1,240
352,248,78370,1,8
440,280,78745,6,0,B|472:224|480:168,1,120,0|8
384,160,79495,2,0,B|384:96|360:40,1,120,0|8
280,96,80245,2,0,B|232:56|168:40,2,120,0|8|0
216,168,81370,1,8
160,240,81745,6,0,B|264:304|400:312,1,240,8|0
416,216,82870,1,8
320,192,83245,2,0,B|216:128|80:120,1,240
128,32,84370,5,8
160,224,85120,1,8
336,152,85870,1,8
400,224,86245,1,0
384,320,86620,2,0,B|312:320|256:344,2,120,8|0|8
256,192,87745,12,2,90370
256,192,90745,12,0,93745
352,336,100120,6,0,B|376:280|376:208,1,120,2|0
280,200,100870,1,2
272,152,101057,2,0,B|248:96|248:24,2,120
184,192,102182,2,0,B|176:224|184:256,2,60,0|2|0
168,144,102745,5,0
48,224,103307,1,0
160,312,103870,1,0
256,328,104245,2,0,B|320:344|376:336,1,120,0|2
424,328,104807,2,0,B|440:264|432:208,2,120
384,296,105745,5,0
264,216,106307,1,0
392,152,106870,1,0
416,248,107244,2,0,B|408:312|368:376,1,120,0|2
336,344,107807,2,0,B|280:328|248:248|184:256,1,180,0|2
104,312,108745,6,0,B|56:216|64:128,2,180
192,272,110245,1,0
216,128,110807,1,2
352,72,111370,1,0
448,56,111745,6,0,B|408:176|320:264,1,240,4|0
240,304,112870,1,2
160,248,113245,2,0,B|200:128|288:40,1,240
368,96,114370,1,2
416,176,114745,5,0
352,304,115307,1,0
256,200,115870,1,0
208,120,116245,2,0,B|112:80|32:80,2,180,0|0|8
264,200,117745,5,4
192,328,118307,1,8
72,248,118870,1,8
96,152,119245,2,0,B|176:200|272:200,2,180,0|0|2
96,56,120745,6,0,B|168:64|216:96,1,120,8|2
248,112,121307,2,0,B|272:168|256:232,1,120,8|0
184,288,122057,2,0,B|160:232|176:168,1,120,8|0
152,128,122620,1,8
224,64,122995,1,8
320,48,123370,1,8
416,72,123745,5,4
320,184,124307,1,4
152,280,125057,2,0,B|104:328|48:344,2,120,4|0|0
192,248,125995,1,0
288,264,126370,1,2
360,328,126745,6,0,B|440:264|464:176,1,180,4|8
384,128,127682,1,0
328,208,128057,2,0,B|248:272|224:360,1,180,8|8
144,296,128995,1,0
112,208,129370,1,2
64,128,129745,6,0,B|184:72|256:64,1,180,4|8
224,160,130682,1,0
176,248,131057,2,0,B|144:304|136:376,2,120,4|8|0
296,328,132370,1,8
360,256,132745,6,0,B|408:176|416:80,1,180,4|0
320,104,133682,1,0
272,184,134057,2,0,B|216:280|208:376,1,180,4|8
120,328,134995,1,0
56,256,135370,1,8
48,160,135745,6,0,B|32:96|40:40,1,120,8|8
128,80,136495,2,0,B|144:144|136:200,1,120,8|0
128,248,137057,2,0,B|192:288|248:296,2,120,8|8|8
160,216,137995,1,8
256,192,138370,1,8
336,136,138745,6,0,B|248:56|112:40,1,240,4|0
104,136,139870,1,8
192,176,140245,2,0,B|280:256|416:272,1,240
480,208,141370,1,8
392,168,141745,5,4
240,288,142495,1,2
112,144,143245,1,0
184,208,143620,1,8
240,288,143995,2,0,B|280:232|288:168,1,120,0|8
232,96,144745,6,0,B|160:200|152:320,1,240,4|0
248,304,145870,1,8
336,272,146245,2,0,B|408:168|416:48,1,240
320,72,147370,2,0,B|264:104|192:112,1,120,8|0
96,264,148495,5,0
64,72,149245,2,0,B|40:128|32:192,1,120,0|8
96,264,149995,2,0,B|120:208|128:144,1,120,8|8
176,48,150745,6,0,B|296:72|408:144,1,240,4|0
480,184,151870,1,8
464,280,152245,2,0,B|344:256|232:184,1,240
160,136,153370,1,8
72,104,153745,6,0,B|40:160|32:216,1,120,0|8
128,224,154495,2,0,B|128:288|152:344,1,120,0|8
232,288,155245,2,0,B|280:328|344:344,2,120,0|8|0
296,216,156370,1,8
352,144,156745,6,0,B|248:80|112:72,1,240,8|0
96,168,157870,1,8
192,192,158245,2,0,B|296:256|432:264,1,240
384,352,159370,5,8
352,160,160120,1,8
176,232,160870,1,8
112,160,161245,1,0
128,64,161620,2,0,B|200:64|256:40,2,120,8|0|8
256,192,162745,12,0,165370
256,192,165745,12,0,168745
256,120,186745,6,0,B|168:80|72:80,2,180,4|8|0
256,216,188245,2,0,B|344:256|440:256,2,180,0|8|0
168,176,189745,6,0,B|128:264|128:360,2,180,4|8|0
256,216,191245,2,0,B|288:160|288:96,1,120,0|8
216,40,191995,1,8
128,80,192370,1,8
88,168,192745,6,0,B|40:256|24:344,2,180,4|8|0
160,232,194245,2,0,B|208:144|224:56,2,180,0|8|0
240,280,195745,6,0,B|328:328|416:344,2,180,4|8|0
152,248,197245,2,0,B|128:184|136:120,1,120,8|0
200,56,197995,2,0,B|224:120|216:184,1,120,8|8
240,264,198745,6,0,B|352:312|488:328,1,240,4|8
472,232,199870,1,0
424,152,200245,2,0,B|408:88|368:40,1,120,8|0
304,112,200995,2,0,B|320:176|360:224,1,120,8|0
272,264,201745,6,0,B|152:320|32:320,1,240,8|8
80,232,202870,1,0
136,152,203245,2,0,B|192:184|248:200,1,120,8|0
240,104,203995,2,0,B|184:72|128:56,1,120,8|8
136,152,204745,6,0,B|240:208|392:232,1,240,8|0
432,160,205870,1,8
344,128,206245,2,0,B|240:72|88:48,1,240,8|8
72,136,207370,6,0,B|40:208|40:264,1,120,0|8
136,248,208120,2,0,B|192:224|256:216,1,120,0|8
344,200,208870,2,0,B|376:272|376:328,1,120,0|8
280,328,209620,5,0
232,248,209995,1,8
232,152,210370,1,8
280,72,210745,5,0
256,192,212245,5,0
256,240,213745,5,0
256,288,215245,5,0
176,240,215620,1,0
112,168,215995,2,0,B|216:80|344:64,1,240,2|0
360,256,217495,6,0,B|304:296|240:320,2,120,0|0|2
256,96,218995,1,0
256,288,219745,6,0,B|200:328|128:336,1,120,0|0
72,272,220495,1,8
56,176,220870,1,8
112,96,221245,2,0,B|152:144|160:216,2,120,8|0|8
192,48,222370,1,8
240,128,222745,6,0,B|368:160|464:232,1,240,4|0
400,304,223870,1,8
304,280,224245,2,0,B|176:248|80:176,1,240,0|0
64,88,225370,1,8
160,112,225745,6,0,B|112:224|112:352,1,240
208,336,226870,1,8
304,320,227245,2,0,B|352:208|352:80,1,240
256,104,228370,1,8
184,168,228745,6,0,B|280:248|400:280,1,240,4|0
472,216,229870,1,8
384,168,230245,2,0,B|288:88|168:56,1,240
80,32,231370,5,8
120,224,232120,1,8
312,184,232870,2,0,B|280:248|272:304,1,120,8|0
368,272,233620,2,0,B|400:208|408:152,2,120,8|8|8
272,296,234745,6,0,B|144:296|16:248,1,240,4|0
64,168,235870,1,8
160,184,236245,2,0,B|288:184|416:232,1,240
464,288,237370,1,8
256,192,237745,12,0,240745
