osu file format v9

[General]
AudioFilename: Flower Flag.mp3
AudioLeadIn: 0
PreviewTime: 221995
Countdown: 0
SampleSet: Soft
StackLeniency: 0.7
Mode: 0
LetterboxInBreaks: 1

[Editor]
Bookmarks: 24771,112120
DistanceSpacing: 1.4
BeatDivisor: 4
GridSize: 8

[Metadata]
Title:Flower Flag
Artist:FELT
Creator:y u z u k i
Version:Lunatic
Source:touhou
Tags:maika happy30 mizuki yuyuko saigyouji yuzuki

[Difficulty]
HPDrainRate:7
CircleSize:4
OverallDifficulty:7
ApproachRate:8
SliderMultiplier:1.5
SliderTickRate:1

[Events]
//Background and Video events
0,0,"bgggggg.jpg"
//Break Periods
2,99945,109495
2,168945,182995
2,210945,215807
//Storyboard Layer 0 (Background)
//Storyboard Layer 1 (Fail)
//Storyboard Layer 2 (Pass)
//Storyboard Layer 3 (Foreground)
//Storyboard Sound Samples
//Background Colour Transformations
3,100,163,162,255

[TimingPoints]
745,375,4,2,1,80,1,0
23151,-100,4,2,1,5,0,0
24745,-100,4,2,1,30,0,0
25026,-100,4,2,1,40,0,0
35151,-100,4,2,1,40,0,0
35526,-100,4,2,1,45,0,0
35901,-100,4,2,1,50,0,0
36651,-100,4,2,1,60,0,0
62338,-100,4,2,1,30,0,0
62526,-100,4,2,1,40,0,0
62713,-100,4,2,1,50,0,0
62901,-100,4,2,1,60,0,0
63276,-100,4,2,1,50,0,0
63463,-100,4,2,1,60,0,0
63651,-100,4,2,1,70,0,0
63745,-100,4,2,1,80,0,1
74995,-100,4,2,1,70,0,1
75088,-100,4,2,1,50,0,1
75370,-100,4,2,1,70,0,1
75463,-100,4,2,1,50,0,1
75651,-100,4,2,1,80,0,0
75745,-100,4,2,1,80,0,1
86151,-100,4,2,1,50,0,1
86995,-100,4,2,1,60,0,1
87370,-100,4,2,1,70,0,1
88588,-100,4,2,1,70,0,1
89171,-100,4,2,1,60,0,1
90088,-100,4,2,1,50,0,1
90651,-100,4,2,1,40,0,1
91588,-100,4,2,1,30,0,1
92151,-100,4,2,1,5,0,1
92245,-100,4,2,1,5,0,0
93745,-100,4,2,1,30,0,0
94120,-100,4,2,1,50,0,0
99745,-100,4,2,1,35,0,0
100026,-100,4,2,1,60,0,0
110245,-100,4,2,1,5,0,0
111745,-100,4,2,1,40,0,0
112120,-100,4,2,1,60,0,0
137338,-100,4,2,1,30,0,0
137620,-100,4,2,1,40,0,0
137901,-100,4,2,1,50,0,0
138088,-100,4,2,1,60,0,0
138276,-100,4,2,1,70,0,0
138745,-100,4,2,1,80,0,1
150651,-100,4,2,1,80,0,0
150745,-100,4,2,1,80,0,1
163584,-100,4,2,1,70,0,1
164151,-100,4,2,1,60,0,1
165088,-100,4,2,1,50,0,1
165651,-100,4,2,1,40,0,1
166588,-100,4,2,1,30,0,1
167151,-100,4,2,1,5,0,1
167245,-100,4,2,1,5,0,0
168745,-100,4,2,1,30,0,0
185338,-100,4,2,1,50,0,0
185713,-100,4,2,1,5,0,0
185901,-100,4,2,1,50,0,0
186088,-100,4,2,1,5,0,0
186276,-100,4,2,1,50,0,0
186463,-100,4,2,1,5,0,0
186651,-100,4,2,1,60,0,0
204838,-100,4,2,2,50,0,0
205026,-100,4,2,1,60,0,0
205588,-100,4,2,2,50,0,0
205776,-100,4,2,1,60,0,0
206901,-100,4,2,2,45,0,0
209338,-100,4,2,1,30,0,0
209526,-100,4,2,1,40,0,0
209713,-100,4,2,1,50,0,0
209901,-100,4,2,1,60,0,0
210088,-100,4,2,1,60,0,0
210276,-100,4,2,1,70,0,0
210463,-100,4,2,1,40,0,0
219651,-100,4,1,1,40,0,0
220026,-100,4,1,1,20,0,0
220213,-100,4,2,1,40,0,0
220776,-100,4,2,2,40,0,0
220963,-100,4,2,1,55,0,0
221338,-100,4,2,1,65,0,0
222317,-100,4,2,2,50,0,0
222463,-100,4,2,1,40,0,0
222745,-100,4,2,2,60,0,1
232588,-100,4,2,1,70,0,1
233176,-100,4,2,1,60,0,1
233338,-100,4,2,1,80,0,1
233526,-100,4,2,1,60,0,1
233901,-100,4,2,1,30,0,1
234088,-100,4,2,1,50,0,1
234463,-100,4,2,1,50,0,1
234745,-100,4,2,1,80,0,0
235588,-100,4,2,1,70,0,0
236151,-100,4,2,1,60,0,0
237088,-100,4,2,1,50,0,0
237651,-100,4,2,1,40,0,0
238588,-100,4,2,1,30,0,0
239151,-100,4,2,1,5,0,0
240745,-100,4,2,1,30,0,0
240838,-100,4,2,1,60,0,0
258832,375,4,2,1,80,1,0

[Colours]
Combo1 : 214,124,252
Combo2 : 140,201,255
Combo3 : 254,150,213

[HitObjects]
256,192,23245,12,4,24745
72,104,25120,2,0,B|112:128|152:120,1,75
232,224,25495,2,0,B|152:248|80:200,1,150
24,240,26057,1,0
64,304,26432,1,0
136,320,26807,1,0
208,312,27182,1,0
208,312,27370,2,0,B|296:304,1,75
368,184,27745,6,0,B|416:256|392:328,1,150,2|0
288,224,28307,2,0,B|240:152|264:80,1,150
200,40,28870,1,0
176,112,29057,1,0
184,184,29245,2,0,B|120:240|40:216,1,150,2|0
152,320,29807,2,0,B|216:264|296:288,1,150
360,320,30370,1,0
320,216,30557,1,0
360,112,30745,6,0,B|344:72|352:40,2,75,2|0|0
432,144,31307,2,0,B|480:216|448:304,1,150
376,312,31870,1,0
304,328,32057,1,0
232,344,32245,2,0,B|160:368|80:352,1,150,2|0
136,256,32807,2,0,B|232:200|368:232,1,225
416,184,33557,1,0
416,184,33745,6,0,B|448:104|400:24,1,150,2|0
312,96,34307,2,0,B|280:176|328:256,2,150
208,64,35245,2,0,B|168:48|120:48,1,75,2|0
72,144,35620,2,0,B|112:128|160:128,1,75
264,216,35995,2,0,B|224:200|176:200,1,75,2|0
64,280,36370,2,4,B|104:264|152:264,1,75,0|0
160,288,36651,1,0
184,320,36745,6,0,B|232:320|272:304,2,75,4|0|2
320,256,37307,2,0,B|336:176|280:112,1,150
192,144,37870,1,2
112,176,38057,2,0,B|72:192|32:184,1,75
72,104,38432,1,0
152,64,38807,1,0
240,80,39182,1,0
304,136,39370,1,2
304,136,39557,6,0,B|352:128,2,37.5,0|0|4
216,216,39932,2,0,B|176:232|144:232,1,75,0|2
32,192,40307,2,0,B|80:264|48:360,1,150
112,160,40870,1,2
120,72,41057,1,0
152,48,41151,1,0
184,40,41245,6,0,B|224:32|264:40,1,75
304,184,41807,1,0
224,312,42182,1,0
224,312,42276,1,0
224,312,42370,2,0,B|264:320|304:312,1,75,8|0
400,136,42745,6,0,B|448:200|448:288,1,150,4|2
328,184,43307,1,8
328,184,43682,2,0,B|304:152|296:112,2,75,0|8|0
264,24,44245,6,0,B|184:32|112:80,1,150,4|2
48,200,44807,1,8
48,200,45182,2,0,B|80:232|80:280,2,75,0|8|0
112,336,45745,6,0,B|200:312|256:368,1,150,4|8
112,336,46307,2,0,B|144:256|232:256,1,150,4|8
336,304,46870,1,0
440,240,47057,2,0,B|480:160|424:96,1,150,4|0
256,120,47620,5,8
176,208,47807,2,0,B|136:200,2,37.5,0|0|8
296,240,48182,1,0
336,240,48276,1,0
376,232,48370,1,8
408,208,48463,1,0
432,176,48557,1,0
440,136,48651,1,0
416,104,48745,6,0,B|384:176|448:264,1,150,4|2
288,320,49307,2,0,B|320:248|256:160,1,150,4|2
268,177,49870,1,0
268,177,50057,2,0,B|208:224|120:208,1,150,4|0
56,152,50620,1,2
136,120,50807,1,0
168,88,50901,1,0
184,40,50995,2,0,B|256:24,1,75,8|0
360,88,51370,2,0,B|288:104,1,75,0|0
208,192,51745,6,0,B|248:256|248:336,1,150,4|0
144,280,52307,2,0,B|120:248|120:208,1,75,8|0
48,152,52682,1,0
160,96,52870,1,2
216,200,53057,2,0,B|296:192|352:128,1,150,4|0
368,104,53526,1,0
368,64,53620,1,2
248,72,53807,1,0
280,184,53995,6,0,B|312:208|360:192,1,75
368,336,54370,1,2
480,304,54558,1,0
456,280,54652,1,0
424,264,54745,6,0,B|352:240|280:288,1,150,4|0
184,264,55307,2,0,B|152:240|152:176,2,75,8|0|0
216,72,55870,1,2
256,152,56058,2,0,B|312:208|312:304,1,150,8|0
208,328,56620,1,4
96,280,56807,2,0,B|40:224|40:128,1,150,8|0
56,112,57277,1,0
80,88,57370,1,8
112,72,57464,1,0
152,72,57558,1,0
184,88,57652,1,0
216,104,57745,6,0,B|280:144|368:128,1,150,4|8
416,64,58307,1,0
328,64,58495,1,0
288,144,58682,1,0
344,216,58870,1,8
336,304,59057,6,0,B|280:360|224:304|224:304|192:312,1,150,4|0
136,248,59620,1,8
80,144,59807,2,0,B|24:136,2,37.5
128,56,60182,1,0
176,168,60370,1,8
224,40,60557,1,0
272,184,60745,6,0,B|344:224|424:200,1,150,4|0
464,144,61307,1,0
368,136,61495,1,8
328,224,61682,1,0
216,296,61870,1,8
80,296,62057,6,0,B|40:240|40:240|64:192|48:152,1,150,4|8
24,40,62620,1,8
128,96,62807,1,8
144,216,62995,1,8
72,312,63182,1,8
104,328,63276,1,0
136,336,63370,1,8
176,336,63463,1,0
216,328,63557,1,0
248,312,63651,1,0
264,280,63745,6,0,B|256:200|312:136,1,150,4|8
200,80,64307,2,0,B|136:32|56:32,1,150,8|0
40,152,64870,1,8
96,256,65057,1,0
128,240,65151,1,0
152,208,65245,2,0,B|176:176|176:136,2,75,0|0|8
192,48,65807,5,0
192,48,66182,1,0
288,160,66370,1,8
216,296,66557,2,0,B|296:344|376:320,1,150,0|0
248,224,67120,1,8
248,224,67307,2,0,B|168:176|88:200,1,150
48,56,67870,1,8
48,56,68057,6,0,B|0:136|24:216,1,150,0|0
168,280,68620,1,8
128,136,68807,1,0
248,232,68995,2,0,B|280:248|320:248,1,75
480,344,69370,2,0,B|432:344|384:328,1,75,8|0
368,328,69651,1,0
328,320,69745,6,0,B|304:248|344:168,1,150,4|8
376,88,70307,2,0,B|408:112|456:104,2,75,8|0|0
256,112,70870,1,8
184,208,71057,1,0
200,240,71151,1,0
208,280,71245,6,0,B|152:328|64:312,1,150,0|8
104,168,71807,1,0
200,56,71995,2,0,B|280:48,1,75
312,328,72370,2,0,B|232:336,1,75,8|0
208,344,72651,1,0
176,352,72745,2,0,B|144:320|144:280,1,75
352,248,73120,1,8
160,200,73307,2,0,B|104:136|16:176,1,150
56,256,73870,1,8
208,272,74057,5,0
232,248,74151,1,0
240,216,74245,1,0
232,136,74432,1,0
160,88,74620,1,8
72,112,74807,1,0
32,192,74995,1,8
40,224,75088,1,0
56,256,75182,1,0
80,280,75276,1,0
112,296,75370,1,8
144,296,75463,1,0
176,288,75557,1,0
208,272,75651,1,0
232,248,75745,6,0,B|256:216|248:176,1,75,4|0
352,280,76120,1,8
328,136,76307,2,0,B|376:72|464:88,1,150,8|0
320,40,76870,2,0,B|280:56|256:88,1,75,8|0
192,144,77245,1,0
320,216,77432,1,0
248,344,77620,1,8
248,344,77807,6,0,B|192:272|96:312,2,150
360,160,78745,2,0,B|288:216|328:312,1,150,0|8
408,248,79307,2,0,B|480:192|440:96,1,150
360,64,79870,1,8
224,128,80057,2,0,B|264:112,2,37.5
144,168,80432,5,0
288,208,80620,2,0,B|336:208|360:168,1,75,8|0
432,128,80995,1,0
408,232,81182,1,0
304,296,81370,1,8
176,328,81557,1,0
144,336,81651,1,0
112,336,81745,6,0,B|48:280|72:184,1,150,4|8
248,136,82307,2,0,B|336:128|376:40,1,150,8|0
416,136,82870,1,8
312,248,83057,1,0
312,248,83432,5,0
432,344,83620,2,0,B|464:312|464:272,1,75,8|0
456,192,83995,1,0
392,128,84182,1,0
304,144,84370,1,8
240,208,84557,6,0,B|152:224|104:160,1,150,4|0
136,80,85120,1,8
240,208,85307,2,0,B|208:232|208:280,2,75
296,136,85870,1,8
176,40,86057,1,0
352,192,86432,5,8
304,272,86620,1,8
208,320,86807,1,0
96,280,86995,1,8
40,160,87182,1,8
96,24,87370,1,8
128,32,87463,1,0
160,56,87557,1,0
176,88,87651,1,0
168,128,87745,6,0,B|136:152|144:200,1,75,4|0
264,288,88120,2,0,B|296:264|288:216,1,75,2|0
288,221,88682,1,0
224,128,88870,1,2
112,136,89057,1,0
112,136,89245,6,0,B|72:144|40:104,1,75,0|0
112,24,89620,2,0,B|152:16|184:56,1,75,2|0
178,49,90182,1,0
264,32,90370,1,2
344,80,90557,1,0
344,80,90745,6,0,B|392:80|416:128,1,75
336,168,91120,2,0,B|288:168|264:120,1,75,2|0
272,134,91682,1,0
200,176,91870,1,2
216,256,92057,1,0
256,192,92245,12,4,93745
112,72,94120,5,0
112,72,94307,2,0,B|192:104|256:32,1,150
72,152,94870,1,2
184,200,95057,1,0
184,200,95245,6,0,B|168:240|200:272,1,75
336,184,95620,1,2
336,184,95807,2,0,B|368:104|304:32,1,150
240,88,96370,1,2
424,208,96557,1,0
400,288,96745,6,0,B|320:264|256:328,1,150,0|2
112,96,97307,2,0,B|192:120|256:56,1,150
250,61,97776,1,0
250,61,97870,1,2
32,112,98057,6,0,B|24:168|80:176|80:176|56:232,1,150
104,296,98620,1,8
176,232,98807,1,0
224,336,98995,1,8
304,240,99182,1,0
360,368,99370,1,0
448,232,99557,1,0
448,232,99651,1,0
448,232,99745,1,4
256,192,110245,12,4,111745
192,256,112120,5,0
192,256,112307,2,0,B|192:176|232:112,1,150
320,144,112870,1,2
400,176,113057,2,0,B|440:192|480:184,1,75
440,104,113432,1,0
360,64,113807,1,0
272,80,114182,1,0
272,80,114370,1,2
208,136,114557,6,0,B|160:128,2,37.5,0|0|4
296,216,114932,2,0,B|336:232|368:232,1,75,0|2
480,192,115307,2,0,B|432:264|464:360,1,150
400,160,115870,1,2
392,72,116057,1,0
360,48,116151,1,0
328,40,116245,6,0,B|288:32|248:40,1,75
208,184,116807,1,0
288,312,117182,1,0
288,312,117276,1,0
288,312,117370,2,0,B|248:320|208:312,1,75,8|0
112,136,117745,6,0,B|64:200|64:288,1,150,4|2
184,184,118307,1,8
184,184,118682,2,0,B|208:152|216:112,2,75,0|8|0
248,24,119245,6,0,B|328:32|400:80,1,150,4|2
464,200,119807,1,8
464,200,120182,2,0,B|432:232|432:280,2,75,0|8|0
400,336,120745,6,0,B|312:312|256:368,1,150,4|8
112,48,121307,2,0,B|200:72|256:16,1,150,4|8
48,112,121870,1,0
48,112,122057,2,0,B|80:152|80:152|32:184|48:256,1,150,4|0
112,304,122620,1,8
112,304,122807,1,0
296,120,122995,5,8
256,128,123088,1,0
224,144,123182,1,0
200,168,123276,1,0
184,200,123370,1,8
184,240,123463,1,0
200,272,123557,1,0
224,296,123651,1,0
256,312,123745,6,0,B|336:328,2,75,4|0|2
432,200,124307,2,0,B|384:272|448:352,1,150,4|0
328,200,124870,1,2
328,200,125057,2,0,B|376:128|312:48,1,150,4|0
232,32,125620,1,2
264,112,125807,1,0
352,136,125995,2,0,B|392:152|432:144,1,75,8|0
288,328,126370,2,0,B|248:312|208:320,1,75
176,328,126651,1,0
144,344,126745,6,0,B|80:288|104:208,1,150,4|0
128,64,127307,2,0,B|88:64|56:40,1,75,8|0
224,56,127682,1,0
224,56,127870,1,2
328,168,128057,6,0,B|288:112|288:112|328:80|304:32,1,150,4|0
307,39,128526,1,0
307,39,128620,1,2
392,64,128807,1,0
440,144,128995,1,0
416,280,129182,1,0
288,320,129370,1,2
160,280,129557,1,0
120,200,129745,6,0,B|184:144|160:64,1,150,4|0
48,160,130307,2,0,B|16:192|16:232,2,75,8|0|0
24,312,130870,1,2
216,328,131057,6,0,B|176:256|88:256,1,150,8|0
256,64,131620,1,4
256,64,131807,2,0,B|296:136|384:136,1,150,8|0
416,128,132276,1,0
400,160,132370,1,8
392,192,132463,1,0
400,232,132557,1,0
416,264,132651,1,0
448,288,132745,6,0,B|424:360|424:360|384:328|336:360,1,150,4|8
280,304,133307,1,0
192,320,133495,1,0
104,352,133682,1,0
192,240,133870,1,8
72,152,134057,6,0,B|128:184|128:184|160:144|232:160,1,150,4|0
80,72,134620,1,8
80,72,134807,2,0,B|64:40,2,37.5
0,112,135182,1,0
32,256,135370,1,8
168,312,135557,1,0
256,336,135745,6,0,B|312:272|280:192,1,150,4|8
368,72,136307,2,0,B|400:48|448:56,1,75,0|8
360,240,136682,2,0,B|328:264|280:256,1,75,0|8
160,104,137057,6,0,B|80:80|16:136,1,150,4|0
32,40,137620,1,8
120,96,137807,1,8
168,208,137995,1,8
120,336,138182,1,0
144,304,138276,1,0
176,288,138370,1,8
216,280,138463,1,0
256,288,138557,1,0
288,304,138651,1,0
312,336,138745,6,0,B|288:248|352:192,1,150,4|8
288,24,139307,2,0,B|312:112|248:168,1,150,8|8
112,200,139870,1,8
48,264,140057,1,0
48,264,140151,1,0
48,264,140245,6,0,B|88:288|88:336,1,75
32,144,140620,1,8
32,144,140807,2,0,B|96:88|176:120,1,150
248,160,141370,1,8
360,256,141557,1,0
432,304,141745,6,0,B|496:248|472:160,1,150,0|8
424,96,142307,1,0
424,96,142682,1,0
280,56,142870,2,0,B|240:72|200:64,1,75,8|0
96,168,143245,2,0,B|136:152|176:160,1,75
24,208,143620,1,8
168,248,143807,1,0
136,336,143995,5,0
280,368,144182,1,0
368,344,144370,1,8
456,320,144557,1,0
432,288,144651,1,0
416,256,144745,6,0,B|384:176|448:112,1,150,4|8
312,40,145307,2,0,B|344:64|392:56,2,75,8|0|0
256,112,145870,1,8
184,208,146057,1,0
200,240,146151,1,0
208,280,146245,6,0,B|152:328|64:312,1,150,0|8
104,168,146807,1,0
160,96,146995,2,0,B|128:72|80:80,1,75
352,288,147370,2,0,B|384:312|432:304,1,75,8|0
440,264,147651,1,0
456,224,147745,6,0,B|480:144,1,75
280,336,148120,1,8
272,248,148307,2,0,B|216:184|128:224,1,150
344,192,148870,1,8
344,104,149057,1,0
376,80,149151,1,0
416,80,149245,5,0
456,160,149432,1,0
352,264,149620,1,8
200,288,149807,1,0
48,264,149995,1,8
48,224,150088,1,0
64,192,150182,1,0
88,160,150276,1,0
120,144,150370,1,8
160,136,150463,1,0
200,144,150557,1,0
232,168,150651,1,0
264,192,150745,6,0,B|288:160|280:120,1,75,4|0
304,288,151120,1,8
360,80,151307,2,0,B|408:16|496:32,1,150,8|0
472,176,151870,2,0,B|432:192|392:152,1,75,8|0
192,144,152245,5,0
320,216,152432,1,0
248,344,152620,1,8
248,344,152807,2,0,B|208:352|168:336,1,75
32,192,153182,2,0,B|72:184|112:200,1,75,0|8
360,160,153557,1,0
360,160,153651,1,0
360,160,153745,6,0,B|288:216|328:312,1,150,0|8
456,328,154307,2,0,B|528:272|488:176,1,150
336,80,154870,1,8
424,48,155057,2,0,B|464:32,2,37.5
248,112,155432,1,0
136,160,155620,1,8
192,264,155807,1,0
80,312,155995,2,0,B|48:280|56:232,1,75
120,128,156370,2,0,B|152:160|144:208,1,75,8|0
160,232,156651,1,0
176,264,156745,6,0,B|232:328|328:304,1,150,4|8
472,272,157307,2,0,B|416:208|320:232,1,150,8|8
248,208,157870,1,8
384,144,158057,1,0
384,144,158432,1,0
200,64,158620,2,0,B|232:32|272:32,1,75,8|0
352,48,158995,1,0
272,168,159182,1,0
328,304,159370,1,8
176,320,159557,6,0,B|88:336|40:272,1,150,4|0
96,128,160120,1,8
136,48,160307,2,0,B|112:16|64:16,2,75
208,96,160870,1,8
208,248,161057,2,0,B|184:176|184:176|224:192|256:160,1,150
144,312,161620,5,8
240,360,161807,1,0
352,320,161995,1,8
408,200,162182,1,8
352,64,162370,1,8
320,72,162463,1,0
288,96,162557,1,0
272,128,162651,1,0
280,168,162745,6,0,B|312:192|304:240,1,75,4|0
184,328,163120,2,0,B|152:304|160:256,1,75,2|0
160,261,163682,1,0
224,168,163870,1,2
336,176,164057,1,0
336,176,164245,6,0,B|376:184|408:144,1,75,0|0
336,64,164620,2,0,B|296:56|264:96,1,75,2|0
270,89,165182,1,0
184,72,165370,1,2
104,120,165557,1,0
104,120,165745,6,0,B|56:120|32:168,1,75
112,208,166120,2,0,B|160:208|184:160,1,75,2|0
176,174,166682,1,0
248,208,166870,1,2
232,288,167057,1,0
256,192,167245,12,4,168745
256,192,183745,12,0,185245
256,80,185432,5,0
256,80,185620,2,0,B|240:112|240:160,1,75,8|0
416,312,185995,2,0,B|432:280|432:232,1,75,8|0
408,120,186370,1,8
376,136,186463,1,0
352,160,186557,1,0
328,192,186651,1,0
312,224,186745,6,0,B|280:144|168:160,1,150,4|0
16,24,187307,2,0,B|48:104|160:88,1,150,8|0
96,200,187870,1,0
128,280,188057,2,0,B|184:272|184:216|184:216|240:232,1,150
272,48,188620,1,0
376,320,188807,2,0,B|352:288|360:248,1,75,0|8
424,112,189182,1,0
424,112,189370,2,0,B|448:144|440:184,1,75
328,88,189745,6,0,B|272:32|176:64,1,150,4|0
48,176,190307,2,0,B|112:232|200:200,1,150,8|0
256,144,190870,1,0
424,208,191057,1,0
264,272,191432,5,0
264,272,191526,1,0
264,272,191620,2,0,B|296:240|352:256,1,75
128,320,191995,1,8
104,288,192088,1,0
96,256,192182,1,0
104,216,192276,1,0
128,192,192370,1,8
160,184,192463,1,0
200,192,192557,1,0
224,216,192651,1,0
240,248,192745,6,0,B|312:200|288:96,1,150,4|0
160,48,193307,2,0,B|208:72|208:72|240:16|296:32,1,150,8|0
376,152,193870,1,0
480,264,194057,2,0,B|400:288|328:216,1,150
200,288,194620,1,8
200,288,194807,2,0,B|224:248|208:200,1,75,0|0
120,64,195182,2,0,B|96:96|112:152,2,75
208,48,195745,6,0,B|280:0|368:32,1,150,4|0
456,80,196307,2,0,B|384:128|296:96,1,150,8|0
264,176,196870,2,0,B|240:216|272:264,1,75
264,176,197245,6,0,B|224:160,2,37.5,8|0|0
352,208,197620,1,0
304,320,197807,1,0
304,320,197901,1,0
304,320,197995,1,8
184,344,198182,1,0
144,336,198276,1,0
120,312,198370,1,8
104,280,198463,1,0
112,240,198557,1,8
136,208,198651,1,0
168,192,198745,6,0,B|224:128|184:32,1,150,8|0
72,136,199307,1,0
72,136,199495,2,0,B|16:200|56:296,1,150,8|0
112,64,200057,1,0
112,64,200432,5,8
200,88,200620,1,0
232,176,200807,2,0,B|320:192|376:112,1,150,0|8
440,72,201370,1,0
456,160,201557,2,0,B|440:248|520:304,1,150,0|8
360,256,202120,1,0
360,256,202495,1,8
152,120,202682,1,8
256,72,202870,1,8
232,160,203057,6,0,B|288:224|240:312,1,150,0|8
328,336,203620,2,0,B|368:360|408:352,1,75
456,272,203995,1,0
472,240,204088,1,0
472,200,204182,1,8
392,120,204370,2,0,B|352:104,3,37.5,0|0|8|0
320,96,204745,6,0,B|304:128|304:168,1,75,8|8
320,280,205120,1,0
176,80,205495,2,0,B|136:88|104:72,2,75
240,144,206057,6,0,B|288:200|264:304,1,150,0|0
160,328,206620,1,8
88,240,206807,1,0
168,112,206995,2,0,B|208:96|240:96,1,75,8|8
104,160,207370,1,0
248,192,207557,1,8
248,192,207651,1,8
248,192,207745,6,0,B|320:216|400:208,1,150,8|8
264,280,208307,2,0,B|280:312|280:352,1,75,0|8
112,128,208682,2,0,B|96:96|96:56,1,75,0|8
400,160,209057,2,0,B|416:192|416:232,1,75,0|0
288,96,209432,5,8
288,96,209620,1,8
288,96,209807,1,8
200,80,209995,1,8
120,128,210182,1,0
88,216,210370,1,8
128,296,210557,1,8
208,328,210745,5,2
256,192,216557,5,0
256,192,216651,1,0
256,192,216745,1,2
80,328,217307,6,0,B|112:264|112:264|72:232|80:192,1,150
160,184,217870,1,0
56,48,218057,1,0
56,48,218151,1,0
56,48,218245,1,2
360,296,218807,5,0
256,152,219182,1,0
288,232,219370,1,0
256,312,219557,1,0
176,352,219745,6,0,B|96:368|32:312,1,150,0|0
184,272,220307,1,8
184,272,220495,1,0
72,128,220682,1,8
72,128,220870,1,8
248,184,221057,1,0
248,184,221151,1,0
248,184,221245,1,8
72,240,221432,5,0
176,96,221620,1,8
184,272,221807,1,0
72,240,221995,1,8
72,128,222182,1,0
176,96,222370,1,8
208,72,222463,1,8
240,56,222557,1,8
280,48,222651,1,8
320,56,222745,6,0,B|392:88|400:200,1,150,4|8
296,304,223307,2,0,B|304:256|344:240|344:240|368:264|408:256,1,150
464,120,223870,1,8
384,80,224057,1,0
384,80,224151,1,0
384,80,224245,6,0,B|328:24|240:48,1,150,0|8
128,304,224807,2,0,B|184:360|272:336,1,150,0|8
104,224,225370,1,8
144,144,225557,1,0
144,144,225651,1,0
144,144,225745,6,0,B|184:56|104:8,1,150,0|8
248,120,226307,2,0,B|208:208|288:256,1,150
432,200,226870,1,8
352,328,227057,1,0
352,328,227432,5,0
240,320,227620,1,8
128,304,227807,1,0
128,304,227901,1,0
128,304,227995,1,0
72,232,228182,1,0
128,88,228370,1,8
160,104,228463,1,0
184,136,228557,1,0
192,176,228651,1,0
200,216,228745,6,0,B|280:256|352:184,1,150,4|8
408,64,229307,2,0,B|328:24|256:96,1,150,0|8
472,200,229870,1,8
472,200,230057,2,0,B|512:272|464:360,1,150
472,344,230526,1,0
472,344,230620,1,8
376,232,230807,2,0,B|368:192|376:152,1,75
288,224,231182,1,0
456,176,231370,1,8
328,80,231557,6,0,B|304:48|256:48,1,75,0|0
200,112,231932,1,8
248,216,232120,1,8
176,304,232307,1,0
144,280,232401,1,0
128,248,232495,2,0,B|120:208|128:168,1,75,0|8
88,72,232870,1,0
88,72,233057,1,0
232,40,233245,5,0
232,40,233432,1,8
312,120,233620,1,0
200,216,233807,1,8
312,320,233995,1,0
312,320,234088,1,0
312,320,234182,1,0
312,320,234276,1,0
312,320,234370,1,8
312,320,234463,1,8
312,320,234557,1,8
312,320,234651,1,8
312,320,234745,6,0,B|336:352|384:344,1,75,4|0
472,224,235120,2,0,B|448:192|400:200,1,75,2|0
405,199,235682,1,0
336,112,235870,1,2
224,136,236057,1,0
224,136,236245,6,0,B|232:176|192:208,1,75,0|0
120,128,236620,2,0,B|112:88|152:56,1,75,2|0
147,61,237182,1,0
233,44,237370,1,2
313,92,237557,1,0
313,92,237745,6,0,B|361:92|385:140,1,75
305,180,238120,2,0,B|257:180|233:132,1,75,2|0
241,146,238682,1,0
168,192,238870,1,2
192,272,239057,1,0
256,192,239245,12,4,240745
120,152,241120,5,2
120,152,241307,2,0,B|88:240|160:320,1,150,0|0
224,168,241870,2,0,B|256:80|184:0,1,150,2|0
200,256,242620,5,2
280,288,242807,2,0,B|320:304,2,37.5
448,208,243182,1,0
360,224,243370,1,2
272,200,243557,1,0
72,88,243745,6,0,B|104:56|160:72,1,75
248,176,244120,2,0,B|216:208|160:192,1,75,2|0
232,56,244495,2,0,B|264:24|320:40,1,75
416,128,244870,2,0,B|384:160|328:144,1,75,2|0
264,112,245245,5,0
184,72,245432,1,0
96,96,245620,1,2
48,176,245807,1,0
72,264,245995,2,0,B|32:272,3,37.5,8|0|0|0
64,304,246370,2,0,B|104:296,3,37.5,8|0|0|0
144,280,246745,6,0,B|208:224|176:136,1,150,4|2
304,96,247307,2,0,B|248:32|160:64,1,150,0|0
272,176,247870,1,2
360,160,248057,1,0
384,128,248151,1,0
392,88,248245,6,0,B|400:48|376:16,1,75
280,136,248620,1,0
280,136,248807,2,0,B|224:200|264:288,1,150
336,320,249370,1,2
336,232,249557,1,0
248,216,249745,6,0,B|208:224|168:200,1,75
80,88,250120,2,0,B|120:80|160:104,1,75,2|0
48,288,250495,1,0
48,288,250682,2,0,B|80:312|128:304,1,75,0|2
208,304,251057,1,0
320,208,251245,5,0
288,352,251432,1,0
232,216,251620,1,2
360,296,251807,1,0
416,160,251995,2,0,B|448:144,7,37.5,0|0|0|0|2|0|0|0
384,176,252745,6,0,B|320:240|232:208,1,150,4|2
80,88,253307,2,0,B|144:24|232:56,1,150,0|0
368,96,253870,2,0,B|328:104|288:80,1,75,2|0
464,104,254245,6,0,B|488:192|432:256,1,150,0|2
336,360,254807,2,0,B|312:272|368:208,1,150,0|0
312,136,255370,1,2
280,48,255557,1,0
280,48,255651,1,0
280,48,255745,2,0,B|248:32|208:32,1,75
112,24,256120,5,2
0,48,256307,1,0
112,24,256495,1,2
40,112,256682,1,0
112,24,256870,1,2
112,136,257057,1,0
112,24,257245,1,2
184,112,257432,1,0
256,64,257620,6,0,B|296:80|328:80,1,75,0|0
256,320,257995,2,0,B|216:304|184:304,1,75,0|0
104,288,258370,5,0
24,296,258557,1,0
176,328,258832,1,4
