osu file format v9

[General]
AudioFilename: Flower Flag.mp3
AudioLeadIn: 1500
PreviewTime: 62956
Countdown: 0
SampleSet: Soft
StackLeniency: 0.7
Mode: 0
LetterboxInBreaks: 0

[Editor]
DistanceSpacing: 1.1
BeatDivisor: 2
GridSize: 4

[Metadata]
Title:Flower Flag
Artist:FELT
Creator:Quilt
Version:Normal
Source:Touhou
Tags:Maika Rain R_a_i_n Pastel S_MoMo yuyuko saigyouji

[Difficulty]
HPDrainRate:4
CircleSize:3
OverallDifficulty:4
ApproachRate:5
SliderMultiplier:1
SliderTickRate:1

[Events]
//Background and Video events
0,0,"BG.jpg"
//Break Periods
2,94142,98742
//Storyboard Layer 0 (Background)
Sprite,Background,Centre,"BG.jpg",320,240 F,0,0,,0
//Storyboard Layer 1 (Fail)
//Storyboard Layer 2 (Pass)
//Storyboard Layer 3 (Foreground)
Sprite,Foreground,Centre,"SB\BGm.jpg",320,240 F,0,12379,12942,0,1 F,0,12942,63192,1 F,0,63192,63942,1,0 F,0,63942,99192,0 F,0,99192,99942,0,1 F,0,99942,186942,1 F,0,186942,189942,1,0
Sprite,Foreground,Centre,"SB\f2.png",320,240 F,0,6754,6942,0,1 S,0,6754,12567,0.5440001,1.48 R,0,6754,12567,-1.184,-1.621246E-07 F,0,6942,10692,1 F,0,10692,12567,1,0
Sprite,Foreground,Centre,"SB\f1.png",320,240 F,0,754,1317,0 M,1,754,3942,320,253,283,226 S,0,754,3942,0.1280002,1.624 R,1,754,3942,-4.688,0.07999983 F,0,1317,3567,0,1 F,0,3567,3942,1,0
Sprite,Foreground,Centre,"SB\f2.png",320,240 F,0,1129,3567,0,1 M,1,1129,3942,324,272,255,232 S,0,1129,3942,1.936,0.7280002 R,1,1129,3942,0,-2.608 F,0,3567,3942,1,0
Sprite,Foreground,Centre,"SB\f2.png",320,240 M,0,3754,,320,240 F,0,3754,3942,0,1 S,1,3754,5442,1.496,1.96 R,0,3754,5442,0,-2.016 F,0,3942,5442,1,0
Sprite,Foreground,Centre,"SB\f1.png",320,240 F,0,5254,5442,0,0.316 S,0,5254,6942,1.576,1.28 R,0,5254,6942,0.5119998,-1.328 F,0,5442,6942,0.316,0
Sprite,Foreground,Centre,"SB\t2.png",320,240 M,0,6942,,398,258 F,0,6942,8442,1,0 S,0,6942,8442,1.264,1.744
Sprite,Foreground,Centre,"SB\t2.png",320,240 F,0,6754,6942,0,1 M,0,6754,12942,399,260,396,236 S,0,6754,12942,1.256,1.064 F,0,6942,12192,1 F,0,12192,12942,1,0
Sprite,Foreground,Centre,"SB\t1.png",320,240 F,0,754,942,0,1 M,0,754,12942,320,240,318,193 S,0,754,12942,1,1.296 F,0,942,12192,1,0.9787234 F,0,12192,12942,0.9787234,0
Sprite,Foreground,Centre,"SB\t1.png",320,240 F,0,942,1692,1,0 S,1,942,1692,1,1.352
Sprite,Foreground,Centre,"SB\white.png",320,240 F,0,11817,12379,0,1 F,0,12379,12754,1,0 M,0,12567,,320,240
Sprite,Foreground,Centre,"SB\BGm1.jpg",320,240 F,0,18754,18942,0,1 F,0,18942,19692,1,0 S,0,18942,19692,1,1.072 F,0,21942,24942,0,0.6 F,0,24942,35442,0.6 F,0,35442,36942,0.6,0 F,0,138192,138754,0,0.4 S,0,138192,138754,1 F,0,138754,138942,0.4,0.5 S,0,138754,139317,1,1.2 F,0,138942,139317,0.5,0
Sprite,Foreground,Centre,"SB\0.jpg",320,240 F,0,93567,93942,0,1 M,0,93567,99942,256,239,355,239 F,0,93942,99567,1 F,0,99567,99942,1,0
Sprite,Foreground,Centre,"SB\whitew.jpg",320,240 F,0,12192,12379,0,1 F,0,12379,12942,1,0
Sprite,Foreground,Centre,"SB\kkblack.jpg",320,240 F,0,75192,93942,1 F,0,93942,94692,1,0
Sprite,Foreground,Centre,"SB\f2.png",320,240 S,0,81567,,1.416 F,0,81567,81942,0,1 M,0,81567,85692,432,-143,345,348 R,0,81567,85692,0,-0.64 F,0,81942,85317,1 F,0,85317,85692,1,0
Sprite,Foreground,Centre,"SB\f2.png",320,240 S,0,87567,,1.608 F,0,87567,87942,0,1 M,0,87567,90942,457,63,353,434 R,0,87567,90942,0,-0.9919998 F,0,87942,90192,1 F,0,90192,90942,1,0
Sprite,Foreground,Centre,"SB\f2.png",320,240 S,0,84567,,1.56 F,0,84567,84942,0,1 M,0,84567,88692,123,16,188,354 R,0,84567,88692,0,1.392 F,0,84942,87942,1 F,0,87942,88692,1,0
Sprite,Foreground,Centre,"SB\f2.png",320,240 S,0,78567,,1 F,0,78567,78942,0,1 M,0,78567,81567,252,-6,282,231 F,0,78942,81567,1,0.006399989
Sprite,Foreground,Centre,"SB\f2.png",320,240 S,0,75567,,1.504 F,0,75567,76692,0,1 M,0,75567,83442,429,-155,67,420 R,0,75567,83442,0,1.936 F,0,76692,82692,1 F,0,82692,83442,1,0
Sprite,Foreground,Centre,"SB\f2.png",320,240 S,0,80817,,1.8 F,0,80817,81192,0,0.704 M,0,80817,84185,164,16,367,376 R,0,80817,84567,0.9440001,0.8639996 F,0,81192,83067,0.704 F,0,83067,84567,0.704,0 M,0,84185,84567,367,376,392,352
Sprite,Foreground,Centre,"SB\yuyuk.png",320,240 F,0,74442,75942,0,1 M,0,75567,,394,257 F,0,75942,93567,1 F,0,93567,95067,1,0
Sprite,Foreground,Centre,"SB\kk.jpg",320,240 F,0,63567,63942,0,1 F,0,63942,75192,1 F,0,75192,75942,1,0
Sprite,Foreground,Centre,"SB\white.png",320,240 F,0,63192,63754,0,0.7 F,0,63754,63942,0.7,1 S,0,63754,63942,2,2.5 F,0,63942,64317,1,0
Sprite,Foreground,Centre,"SB\Lyrics\01.png",320,240 F,0,25317,25692,0,1 M,0,25317,28879,200,330,240,330 F,0,28504,28879,1,0
Sprite,Foreground,Centre,"SB\Lyrics\02.png",320,240 F,0,28879,29254,0,1 M,0,28879,31692,400,400,360,400 F,0,31317,31692,1,0
Sprite,Foreground,Centre,"SB\Lyrics\03.png",320,240 F,0,31879,32254,0,1 M,0,31879,36567,220,330,260,330 F,0,36192,36567,1,0
Sprite,Foreground,Centre,"SB\Lyrics\04.png",320,240 F,0,37317,37692,0,1 M,0,37317,40692,400,400,360,400 F,0,40317,40692,1,0
Sprite,Foreground,Centre,"SB\Lyrics\05.png",320,240 F,0,41067,41442,0,1 M,0,41067,43879,220,330,260,330 F,0,43504,43879,1,0
Sprite,Foreground,Centre,"SB\Lyrics\06.png",320,240 F,0,44067,44442,0,1 M,0,44067,45192,400,400,380,400 F,0,44817,45192,1,0
Sprite,Foreground,Centre,"SB\Lyrics\07.png",320,240 F,0,45379,45754,0,1 M,0,45379,48004,200,330,240,330 F,0,47629,48004,1,0
Sprite,Foreground,Centre,"SB\Lyrics\08.png",320,240 F,0,48192,48567,0,1 M,0,48192,50817,400,400,380,400 F,0,50442,50817,1,0
Sprite,Foreground,Centre,"SB\Lyrics\09.png",320,240 F,0,51192,51567,0,1 M,0,51192,54004,200,330,240,330 F,0,53629,54004,1,0
Sprite,Foreground,Centre,"SB\Lyrics\10 copy.png",320,240 F,0,54192,54567,0,1 M,0,54192,57379,400,400,380,400 F,0,57004,57379,1,0
Sprite,Foreground,Centre,"SB\Lyrics\11.png",320,240 F,0,57567,57942,0,1 M,0,57567,59629,200,330,240,330 F,0,59254,59629,1,0
Sprite,Foreground,Centre,"SB\Lyrics\12.png",320,240 F,0,60192,60567,0,1 M,0,60192,63004,400,400,380,400 F,0,62629,63004,1,0
Sprite,Foreground,Centre,"SB\Lyrics\13.png",320,240 F,0,63192,63567,0,1 M,0,63192,65629,200,330,240,330 F,0,65254,65629,1,0
Sprite,Foreground,Centre,"SB\Lyrics\14.png",320,240 F,0,65817,66192,0,1 M,0,65817,69004,400,400,380,400 F,0,68629,69004,1,0
Sprite,Foreground,Centre,"SB\Lyrics\15.png",320,240 F,0,69192,69567,0,1 M,0,69192,72004,200,330,240,330 F,0,71629,72004,1,0
Sprite,Foreground,Centre,"SB\Lyrics\17.png",320,240 F,0,75192,75567,0,1 M,0,75192,77629,200,330,240,330 F,0,77254,77629,1,0
Sprite,Foreground,Centre,"SB\Lyrics\16.png",320,240 F,0,72192,72567,0,1 M,0,72192,75004,400,400,380,400 F,0,74629,75004,1,0
Sprite,Foreground,Centre,"SB\Lyrics\18.png",320,240 F,0,77817,78192,0,1 M,0,77817,81004,400,400,380,400 F,0,89629,81004,1,0
Sprite,Foreground,Centre,"SB\Lyrics\19.png",320,240 F,0,81192,81567,0,1 M,0,81192,84004,220,330,260,330 F,0,83629,84004,1,0
Sprite,Foreground,Centre,"SB\Lyrics\20 copy.png",320,240 F,0,84192,84567,0,1 M,0,84192,93754,400,400,380,400 F,0,93379,93754,1,0
Sprite,Foreground,Centre,"SB\Lyrics\21.png",320,240 F,0,100317,100692,0,1 M,0,100317,103879,220,330,260,330 F,0,103504,103879,1,0
Sprite,Foreground,Centre,"SB\Lyrics\22.png",320,240 F,0,104067,104442,0,1 M,0,104067,106504,400,400,380,400 F,0,106129,106504,1,0
Sprite,Foreground,Centre,"SB\Lyrics\23.png",320,240 F,0,106879,107254,0,1 M,0,106879,111192,240,330,300,330 F,0,111192,111567,1,0
Sprite,Foreground,Centre,"SB\Lyrics\24.png",320,240 F,0,112317,112692,0,1 M,0,112317,115692,400,400,380,400 F,0,115317,115692,1,0
Sprite,Foreground,Centre,"SB\Lyrics\25.png",320,240 F,0,116067,116442,0,1 M,0,116067,118879,240,330,300,330 F,0,118504,118879,1,0
Sprite,Foreground,Centre,"SB\Lyrics\26.png",320,240 F,0,119067,119442,0,1 M,0,119067,120379,400,400,380,400 F,0,120004,120379,1,0
Sprite,Foreground,Centre,"SB\Lyrics\27.png",320,240 F,0,120567,120942,0,1 M,0,120567,123004,240,330,300,330 F,0,122629,123004,1,0
Sprite,Foreground,Centre,"SB\Lyrics\28.png",320,240 F,0,123192,123567,0,1 M,0,123192,125817,400,400,380,400 F,0,125442,125817,1,0
Sprite,Foreground,Centre,"SB\Lyrics\29.png",320,240 F,0,126192,126567,0,1 M,0,126192,129004,240,330,300,330 F,0,128629,129004,1,0
Sprite,Foreground,Centre,"SB\Lyrics\30 copy.png",320,240 F,0,129192,129567,0,1 M,0,129192,132379,400,400,380,400 F,0,132004,132379,1,0
Sprite,Foreground,Centre,"SB\Lyrics\31.png",320,240 F,0,132567,132942,0,1 M,0,132567,135004,240,330,300,330 F,0,134629,135004,1,0
Sprite,Foreground,Centre,"SB\Lyrics\32.png",320,240 F,0,135192,135567,0,1 M,0,135192,138004,400,400,380,400 F,0,137629,138004,1,0
Sprite,Foreground,Centre,"SB\Lyrics\33.png",320,240 F,0,138192,138567,0,1 M,0,138192,140629,240,330,300,330 F,0,140254,140629,1,0
Sprite,Foreground,Centre,"SB\Lyrics\34.png",320,240 F,0,140817,141192,0,1 M,0,140817,144004,400,400,380,400 F,0,143629,144004,1,0
Sprite,Foreground,Centre,"SB\Lyrics\35.png",320,240 F,0,144192,144567,0,1 M,0,144192,147004,240,330,300,330 F,0,146629,147004,1,0
Sprite,Foreground,Centre,"SB\Lyrics\36.png",320,240 F,0,147192,147567,0,1 M,0,147192,150004,400,400,380,400 F,0,149629,150004,1,0
Sprite,Foreground,Centre,"SB\Lyrics\37.png",320,240 F,0,150192,150567,0,1 M,0,150192,152629,240,330,300,330 F,0,152254,152629,1,0
Sprite,Foreground,Centre,"SB\Lyrics\38.png",320,240 F,0,152817,153192,0,1 M,0,152817,156004,400,400,380,400 F,0,155629,156004,1,0
Sprite,Foreground,Centre,"SB\Lyrics\39.png",320,240 F,0,156192,156567,0,1 M,0,156192,159004,240,330,300,330 F,0,158629,159004,1,0
Sprite,Foreground,Centre,"SB\Lyrics\40 copy.png",320,240 F,0,159192,159567,0,1 M,0,159192,161629,400,400,380,400 F,0,161254,161629,1,0
Sprite,Foreground,Centre,"SB\Lyrics\41.png",320,240 F,0,161817,162192,0,1 M,0,161817,168942,240,330,300,330 F,0,168567,168942,1,0
//Storyboard Sound Samples
//Background Colour Transformations
3,100,163,162,255

[TimingPoints]
942,375,4,2,1,60,1,0
2723,-100,4,2,1,50,0,0
3848,-100,4,2,1,60,0,0
5723,-100,4,2,1,50,0,0
6848,-100,4,2,1,55,0,0
7598,-100,4,2,1,50,0,0
7973,-100,4,2,1,45,0,0
8723,-100,4,2,1,40,0,0
9098,-100,4,2,1,35,0,0
9848,-100,4,2,1,30,0,0
10035,-100,4,2,1,25,0,0
12848,-100,4,2,1,60,0,0
13973,-100,4,2,1,50,0,0
14348,-100,4,2,1,60,0,0
15473,-100,4,2,1,50,0,0
15848,-100,4,2,1,45,0,0
16223,-100,4,2,1,40,0,0
16598,-100,4,2,1,35,0,0
16973,-100,4,2,1,30,0,0
17348,-100,4,2,1,25,0,0
18848,-100,4,2,1,60,0,0
19410,-100,4,2,1,50,0,0
19973,-100,4,2,1,55,0,0
20348,-100,4,2,1,60,0,0
20910,-100,4,2,1,50,0,0
21473,-100,4,2,1,55,0,0
25223,-100,4,2,1,50,0,0
36848,-100,4,2,1,60,0,0
63942,-100,4,2,1,70,0,1
85879,-100,4,2,1,65,0,1
86254,-100,4,2,1,60,0,1
86629,-100,4,2,1,55,0,1
87004,-100,4,2,1,50,0,1
87379,-100,4,2,1,45,0,1
87942,-100,4,2,1,45,0,0
88692,-100,4,2,1,40,0,0
89442,-100,4,2,1,35,0,0
91504,-100,4,2,1,30,0,0
92442,-100,4,2,1,25,0,0
93192,-100,4,2,1,20,0,0
93942,-100,4,2,1,60,0,0
138942,-100,4,2,1,70,0,1
168942,-100,4,2,1,60,0,0

[Colours]
Combo1 : 128,255,255
Combo2 : 255,128,192
Combo3 : 128,128,255

[HitObjects]
180,112,942,2,0,B|124:152|124:240|180:288,2,200,4|2|0
256,192,2817,1,0
256,192,3192,1,2
256,192,3567,1,0
328,276,3942,6,0,B|384:236|384:148|328:100,2,200,4|2|0
256,192,5817,1,0
256,192,6192,1,2
256,192,6567,1,2
216,88,6942,6,0,B|216:160|120:152,1,100.000000596046,4|0
256,192,7692,1,2
156,236,8067,2,0,B|228:236|220:332,1,100.000000596046,0|0
256,192,8817,1,0
300,292,9192,2,0,B|300:220|396:228,1,100.000000596046,0|0
256,192,9942,5,2
256,192,10129,12,0,12192
200,192,12942,6,0,B|96:192|96:96,2,150.000000894069,2|0|2
312,192,14442,2,0,B|416:192|416:288,2,150.000000894069,2|0|2
256,96,15942,1,2
164,156,16317,1,0
200,260,16692,1,2
308,260,17067,1,0
344,156,17442,1,4
256,32,18942,6,0,B|256:136|120:136,1,150.000000894069,4|2
332,140,20067,1,2
256,220,20442,2,0,B|256:324|392:324,1,150.000000894069,4|2
180,328,21567,1,2
256,192,21942,12,4,24942
236,92,25692,6,0,B|184:108|156:160,1,100,2|0
116,188,26254,1,0
48,276,26629,2,0,B|84:316|140:316,1,100,0|2
224,248,27379,1,0
224,248,27567,2,0,B|264:208|320:236,1,100,0|2
416,280,28317,2,0,B|428:336|480:348,2,100,0|2|0
432,172,29442,5,2
332,304,30004,1,0
268,152,30567,2,0,B|204:144|168:184,1,100,0|2
40,272,31504,2,0,B|60:324|112:352|168:344,1,150,0|2
268,328,32442,5,0
428,284,33004,1,0
444,120,33567,1,2
360,52,33942,2,0,B|296:28|264:92,1,100.000000596046
248,128,34504,1,2
144,164,34879,6,0,B|88:140|92:72,2,100
188,196,35817,1,2
188,196,36192,1,0
172,88,36567,1,0
276,124,36942,5,4
268,232,37317,2,0,B|324:208,2,50,0|0|0
188,308,38067,1,2
188,308,38254,2,0,B|224:352|280:340,2,100,0|0|2
80,184,39567,2,0,B|140:200|168:152,1,100
236,68,40317,6,0,B|260:124|332:124,1,100.000000596046,0|2
404,188,41067,2,0,B|404:244|356:272,1,100,0|2
324,316,41629,1,2
216,344,42004,2,0,B|216:280|136:264,1,100.000000596046,0|0
104,260,42567,1,0
64,156,42942,6,0,B|152:136|180:72,1,150,4|2
192,236,44067,2,0,B|232:168,1,50,0|0
240,84,44629,2,0,B|288:68|288:68|344:84,1,100,0|2
432,132,45379,6,0,B|328:140|296:236,1,150.000000894069,0|4
264,304,46317,2,0,B|304:352|352:344,2,100,0|2|0
236,256,47254,2,0,B|236:160|140:128,1,150.000000894069,2|0
52,152,48192,6,0,B|60:224|156:208,1,100.000000596046,0|2
224,180,48942,1,4
324,48,49504,1,2
360,208,50067,2,0,B|336:260,1,50,0|0
85,147,51192,5,2
166,73,51567,1,2
227,164,51942,2,0,B|245:225|295:229,1,100,2|2
329,186,52504,2,0,B|341:122|409:122,2,100,4|0|2
419,324,53817,1,0
410,214,54192,5,0
410,214,54567,2,0,B|482:214|514:150,2,100.000000596046,0|4|0
357,198,55504,1,2
248,218,55879,1,0
140,244,56254,2,0,B|140:156|60:132,2,150,4|0|0
124,296,57567,5,0
220,244,57942,1,4
296,324,58317,1,2
296,324,58504,1,0
332,220,58879,1,2
424,280,59254,1,0
440,172,59629,1,2
424,280,60004,1,0
424,280,60192,5,0
320,316,60567,1,2
320,316,60942,2,0,B|272:348|224:316,1,100,4|2
160,228,61692,2,2,B|109:221,2,50
216,224,62254,2,0,B|312:216|352:168,1,150
404,264,63192,5,0
404,264,63567,1,0
404,264,63942,2,0,B|421:346|517:382,2,150,4|8|2
368,160,65442,6,0,B|356:112|308:84,1,100,2|8
256,64,66004,2,0,B|207:92|195:140,1,100,2|8
240,300,66942,1,0
240,300,67317,1,8
320,224,67692,6,0,B|392:184,2,50.000000298023,0|0|8
284,120,68442,2,0,B|316:80,2,50.000000298023,0|0|8
180,160,69192,1,0
180,160,69567,1,8
72,172,69942,6,0,B|176:228|184:340,1,200.000001192092,4|0
232,228,71067,1,8
340,208,71442,2,0,B|236:152|228:40,1,200.000001192092,2|0
184,152,72567,5,8
80,192,72942,1,4
96,84,73317,1,2
96,84,73504,1,0
204,68,73879,5,0
260,68,74067,2,0,B|316:68,1,50,8|8
336,176,74629,1,0
336,176,74817,1,0
228,176,75192,5,0
228,176,75567,1,8
160,264,75942,6,0,B|240:312|304:256,2,150.000000894069,4|2|8
96,176,77442,1,0
160,84,77817,2,0,B|240:44|328:92,2,150.000000894069,2|2|4
96,176,79317,5,8
64,280,79692,2,0,B|120:220|212:232,2,150,0|2|8
36,172,81192,1,0
36,172,81567,1,2
36,172,81942,2,0,B|124:196|180:140,1,150,4|0
332,88,83067,1,8
332,88,83254,1,0
424,144,83629,1,0
424,144,83817,1,8
320,180,84192,5,0
320,180,84379,1,0
320,180,84567,2,0,B|216:180,1,100.000000596046,8|4
144,100,85317,2,0,B|264:100,1,100.000000596046,8|4
320,180,86067,6,0,B|348:228|404:232,2,100,8|0|0
244,100,87192,2,0,B|208:60|154:50,1,100,8|2
256,192,87942,12,4,90567
256,192,90754,12,4,93942
88,136,99942,5,4
88,136,100317,2,0,B|96:200|160:208,1,100.000000596046,0|2
252,248,101067,1,0
252,248,101254,2,0,B|268:304|348:304,2,100.000000596046,2|0|2
256,140,102379,2,0,B|258:78|192:52,1,100.000000596046,0|2
152,56,102942,2,0,B|100:60|60:104,2,100,0|0|2
264,56,104067,5,0
152,56,104442,2,0,B|216:96|256:192,1,150,2|2
288,204,105192,2,0,B|352:204|384:148,2,100.000000596046,2|0|4
204,272,106317,6,0,B|204:328|240:360|304:364,2,150,0|2|0
256,176,107817,1,0
244,124,108004,2,0,B|168:88|100:136,1,150,2|0
172,220,108942,1,4
68,252,109317,1,0
80,304,109504,2,0,B|124:336|184:324,1,100,2|2
284,304,110254,2,0,B|372:288|388:208,1,150.000000894069,4|2
384,100,111192,1,0
276,76,111567,2,0,B|212:68|192:120,1,100,2|4
148,216,112317,6,0,B|236:240|252:336,2,150.000000894069,2|0|2
88,124,113817,1,0
88,124,114192,2,0,B|144:152|184:124,1,100,0|2
276,68,114942,6,0,B|292:140|364:188|436:196,1,200.000001192092,4|2
316,232,116067,1,0
276,332,116442,2,0,B|260:260|188:212|116:204,1,200.000001192092,4|2
160,100,117567,5,2
268,72,117942,2,0,B|284:144|356:192|428:200,1,200.000001192092,4|2
488,276,119067,1,2
468,168,119442,2,0,B|436:272|324:296,1,200,4|2
220,272,120567,1,2
220,272,120942,2,0,B|172:160|68:136,1,200.000001192092,4|2
64,248,122067,2,0,B|104:284,1,50,0|4
400,120,123192,5,0
400,120,123567,1,0
400,120,123942,2,0,B|324:152|296:228,2,150,4|2|2
444,88,125254,1,0
188,192,126192,5,0
188,192,126567,1,0
188,192,126942,2,0,B|220:116|296:88,2,150,4|2|2
268,268,128442,5,0
356,332,128817,2,0,B|428:316|436:236,1,100.000000596046,2|0
456,164,129567,1,0
456,164,129942,2,0,B|392:108|296:148,1,150.000000894069,4|2
240,220,130879,2,0,B|192:292|112:284,2,150,0|2|0
356,104,132567,5,0
356,104,132942,1,4
356,104,133317,1,0
336,212,133692,2,0,B|292:244|232:220,1,100,2|0
148,160,134442,2,0,B|100:112|140:56,1,100,2|0
236,104,135192,1,0
236,104,135567,1,2
344,108,135942,6,0,B|408:164|388:248,1,150,4|2
292,188,136879,1,0
192,140,137254,2,2,B|173:218|236:276,1,150,0|0
320,204,138192,5,0
424,240,138567,1,0
368,336,138942,2,0,B|312:364|220:356|184:304,1,200,4|0
100,236,140067,2,0,B|84:156|140:92|220:100,1,200.000001192092,8|8
248,200,141192,1,0
336,132,141567,5,8
336,132,141942,2,0,B|392:116|424:44,2,100.000000596046,0|4|0
236,172,143067,1,8
156,248,143442,2,0,B|95:257|64:215,2,100,4|8|0
252,304,144567,5,0
344,248,144942,2,0,B|236:220|192:120,1,200,4|0
56,296,146442,2,0,B|84:188|184:144,1,200,2|0
284,172,147567,1,8
376,236,147942,1,0
276,280,148317,1,8
276,280,148504,2,0,B|216:264|192:208,1,100
152,120,149254,2,0,B|232:112|288:172,1,150,4|0
368,96,150192,5,0
368,96,150567,1,8
368,96,150942,2,0,B|360:168|272:176,1,100.000000596046,4|0
260,144,151504,2,0,B|228:88|156:88,2,100.000000596046,8|0|8
388,248,152817,5,8
400,300,153004,2,0,B|408:364|488:348,2,100.000000596046,8|0|8
292,172,154317,1,8
292,172,154504,1,8
400,196,154879,1,0
360,92,155254,2,0,B|288:44|220:92,1,150,8|0
152,176,156192,5,0
152,176,156567,1,2
152,176,156942,2,0,B|112:120|56:144,2,100.000000596046,4|0|8
280,280,158254,6,0,B|336:276|380:236|384:176,1,150,0|8
364,80,159192,1,0
364,80,159567,1,8
364,80,159942,2,0,B|332:124|276:116,1,100,8|0
176,160,160692,2,0,B|120:136|120:64,2,100.000000596046,0|8|0
248,244,161817,1,8
248,244,162192,1,2
248,244,162567,1,8
256,192,162942,12,2,165567
256,192,165754,12,4,168942
168,232,169692,5,0
276,208,170067,1,2
268,100,170442,2,0,B|300:56|356:52,1,100,0|2
360,160,171192,2,0,B|328:204|272:208,1,100,0|2
176,164,171942,5,0
96,88,172317,1,2
24,172,172692,1,0
100,252,173067,1,2
192,316,173442,2,0,B|240:344|288:340,1,100,0|2
280,228,174192,2,0,B|232:200|184:204,1,100,0|2
80,240,174942,6,0,B|28:172|68:96,1,150,4|2
224,48,176067,1,2
312,116,176442,2,0,B|252:172|272:260,1,150,0|2
428,304,177567,1,2
480,208,177942,2,0,B|452:160|388:160,1,100,4|0
292,196,178692,2,0,B|240:212|196:176,1,100,4|0
120,100,179442,6,0,B|72:152|72:236|112:292,1,200,4|2
312,204,180942,2,0,B|360:152|360:68|320:12,1,200,4|0
252,100,182067,1,2
152,144,182442,2,0,B|128:196|152:240,1,100,0|2
252,196,183192,2,0,B|276:144|252:100,1,100,0|2
160,36,183942,5,0
160,36,184317,2,0,B|160:92,1,50,2|4
160,252,185067,1,2
348,140,185817,1,2
304,240,186192,2,0,B|204:240,2,100,0|4|0
