osu file format v9

[General]
AudioFilename: Flower Flag.mp3
AudioLeadIn: 1500
PreviewTime: 62956
Countdown: 0
SampleSet: Soft
StackLeniency: 0.7
Mode: 0
LetterboxInBreaks: 0

[Editor]
DistanceSpacing: 1.1
BeatDivisor: 2
GridSize: 4

[Metadata]
Title:Flower Flag
Artist:FELT
Creator:Quilt
Version:Lunatic
Source:Touhou
Tags:Maika Rain R_a_i_n Pastel S_MoMo yuyuko saigyouji

[Difficulty]
HPDrainRate:7
CircleSize:4
OverallDifficulty:7
ApproachRate:8
SliderMultiplier:1.6
SliderTickRate:2

[Events]
//Background and Video events
0,0,"BG.jpg"
//Break Periods
2,94142,99192
//Storyboard Layer 0 (Background)
Sprite,Background,Centre,"BG.jpg",320,240 F,0,0,,0
//Storyboard Layer 1 (Fail)
//Storyboard Layer 2 (Pass)
//Storyboard Layer 3 (Foreground)
Sprite,Foreground,Centre,"SB\BGm.jpg",320,240 F,0,12379,12942,0,1 F,0,12942,63192,1 F,0,63192,63942,1,0 F,0,63942,99192,0 F,0,99192,99942,0,1 F,0,99942,186942,1 F,0,186942,189942,1,0
Sprite,Foreground,Centre,"SB\f2.png",320,240 F,0,6754,6942,0,1 S,0,6754,12567,0.5440001,1.48 R,0,6754,12567,-1.184,-1.621246E-07 F,0,6942,10692,1 F,0,10692,12567,1,0
Sprite,Foreground,Centre,"SB\f1.png",320,240 F,0,754,1317,0 M,1,754,3942,320,253,283,226 S,0,754,3942,0.1280002,1.624 R,1,754,3942,-4.688,0.07999983 F,0,1317,3567,0,1 F,0,3567,3942,1,0
Sprite,Foreground,Centre,"SB\f2.png",320,240 F,0,1129,3567,0,1 M,1,1129,3942,324,272,255,232 S,0,1129,3942,1.936,0.7280002 R,1,1129,3942,0,-2.608 F,0,3567,3942,1,0
Sprite,Foreground,Centre,"SB\f2.png",320,240 M,0,3754,,320,240 F,0,3754,3942,0,1 S,1,3754,5442,1.496,1.96 R,0,3754,5442,0,-2.016 F,0,3942,5442,1,0
Sprite,Foreground,Centre,"SB\f1.png",320,240 F,0,5254,5442,0,0.316 S,0,5254,6942,1.576,1.28 R,0,5254,6942,0.5119998,-1.328 F,0,5442,6942,0.316,0
Sprite,Foreground,Centre,"SB\t2.png",320,240 M,0,6942,,398,258 F,0,6942,8442,1,0 S,0,6942,8442,1.264,1.744
Sprite,Foreground,Centre,"SB\t2.png",320,240 F,0,6754,6942,0,1 M,0,6754,12942,399,260,396,236 S,0,6754,12942,1.256,1.064 F,0,6942,12192,1 F,0,12192,12942,1,0
Sprite,Foreground,Centre,"SB\t1.png",320,240 F,0,754,942,0,1 M,0,754,12942,320,240,318,193 S,0,754,12942,1,1.296 F,0,942,12192,1,0.9787234 F,0,12192,12942,0.9787234,0
Sprite,Foreground,Centre,"SB\t1.png",320,240 F,0,942,1692,1,0 S,1,942,1692,1,1.352
Sprite,Foreground,Centre,"SB\white.png",320,240 F,0,11817,12379,0,1 F,0,12379,12754,1,0 M,0,12567,,320,240
Sprite,Foreground,Centre,"SB\BGm1.jpg",320,240 F,0,18754,18942,0,1 F,0,18942,19692,1,0 S,0,18942,19692,1,1.072 F,0,21942,24942,0,0.6 F,0,24942,35442,0.6 F,0,35442,36942,0.6,0 F,0,138192,138754,0,0.4 S,0,138192,138754,1 F,0,138754,138942,0.4,0.5 S,0,138754,139317,1,1.2 F,0,138942,139317,0.5,0
Sprite,Foreground,Centre,"SB\0.jpg",320,240 F,0,93567,93942,0,1 M,0,93567,99942,256,239,355,239 F,0,93942,99567,1 F,0,99567,99942,1,0
Sprite,Foreground,Centre,"SB\whitew.jpg",320,240 F,0,12192,12379,0,1 F,0,12379,12942,1,0
Sprite,Foreground,Centre,"SB\kkblack.jpg",320,240 F,0,75192,93942,1 F,0,93942,94692,1,0
Sprite,Foreground,Centre,"SB\f2.png",320,240 S,0,81567,,1.416 F,0,81567,81942,0,1 M,0,81567,85692,432,-143,345,348 R,0,81567,85692,0,-0.64 F,0,81942,85317,1 F,0,85317,85692,1,0
Sprite,Foreground,Centre,"SB\f2.png",320,240 S,0,87567,,1.608 F,0,87567,87942,0,1 M,0,87567,90942,457,63,353,434 R,0,87567,90942,0,-0.9919998 F,0,87942,90192,1 F,0,90192,90942,1,0
Sprite,Foreground,Centre,"SB\f2.png",320,240 S,0,84567,,1.56 F,0,84567,84942,0,1 M,0,84567,88692,123,16,188,354 R,0,84567,88692,0,1.392 F,0,84942,87942,1 F,0,87942,88692,1,0
Sprite,Foreground,Centre,"SB\f2.png",320,240 S,0,78567,,1 F,0,78567,78942,0,1 M,0,78567,81567,252,-6,282,231 F,0,78942,81567,1,0.006399989
Sprite,Foreground,Centre,"SB\f2.png",320,240 S,0,75567,,1.504 F,0,75567,76692,0,1 M,0,75567,83442,429,-155,67,420 R,0,75567,83442,0,1.936 F,0,76692,82692,1 F,0,82692,83442,1,0
Sprite,Foreground,Centre,"SB\f2.png",320,240 S,0,80817,,1.8 F,0,80817,81192,0,0.704 M,0,80817,84185,164,16,367,376 R,0,80817,84567,0.9440001,0.8639996 F,0,81192,83067,0.704 F,0,83067,84567,0.704,0 M,0,84185,84567,367,376,392,352
Sprite,Foreground,Centre,"SB\yuyuk.png",320,240 F,0,74442,75942,0,1 M,0,75567,,394,257 F,0,75942,93567,1 F,0,93567,95067,1,0
Sprite,Foreground,Centre,"SB\kk.jpg",320,240 F,0,63567,63942,0,1 F,0,63942,75192,1 F,0,75192,75942,1,0
Sprite,Foreground,Centre,"SB\white.png",320,240 F,0,63192,63754,0,0.7 F,0,63754,63942,0.7,1 S,0,63754,63942,2,2.5 F,0,63942,64317,1,0
Sprite,Foreground,Centre,"SB\Lyrics\01.png",320,240 F,0,25317,25692,0,1 M,0,25317,28879,200,330,240,330 F,0,28504,28879,1,0
Sprite,Foreground,Centre,"SB\Lyrics\02.png",320,240 F,0,28879,29254,0,1 M,0,28879,31692,400,400,360,400 F,0,31317,31692,1,0
Sprite,Foreground,Centre,"SB\Lyrics\03.png",320,240 F,0,31879,32254,0,1 M,0,31879,36567,220,330,260,330 F,0,36192,36567,1,0
Sprite,Foreground,Centre,"SB\Lyrics\04.png",320,240 F,0,37317,37692,0,1 M,0,37317,40692,400,400,360,400 F,0,40317,40692,1,0
Sprite,Foreground,Centre,"SB\Lyrics\05.png",320,240 F,0,41067,41442,0,1 M,0,41067,43879,220,330,260,330 F,0,43504,43879,1,0
Sprite,Foreground,Centre,"SB\Lyrics\06.png",320,240 F,0,44067,44442,0,1 M,0,44067,45192,400,400,380,400 F,0,44817,45192,1,0
Sprite,Foreground,Centre,"SB\Lyrics\07.png",320,240 F,0,45379,45754,0,1 M,0,45379,48004,200,330,240,330 F,0,47629,48004,1,0
Sprite,Foreground,Centre,"SB\Lyrics\08.png",320,240 F,0,48192,48567,0,1 M,0,48192,50817,400,400,380,400 F,0,50442,50817,1,0
Sprite,Foreground,Centre,"SB\Lyrics\09.png",320,240 F,0,51192,51567,0,1 M,0,51192,54004,200,330,240,330 F,0,53629,54004,1,0
Sprite,Foreground,Centre,"SB\Lyrics\10 copy.png",320,240 F,0,54192,54567,0,1 M,0,54192,57379,400,400,380,400 F,0,57004,57379,1,0
Sprite,Foreground,Centre,"SB\Lyrics\11.png",320,240 F,0,57567,57942,0,1 M,0,57567,59629,200,330,240,330 F,0,59254,59629,1,0
Sprite,Foreground,Centre,"SB\Lyrics\12.png",320,240 F,0,60192,60567,0,1 M,0,60192,63004,400,400,380,400 F,0,62629,63004,1,0
Sprite,Foreground,Centre,"SB\Lyrics\13.png",320,240 F,0,63192,63567,0,1 M,0,63192,65629,200,330,240,330 F,0,65254,65629,1,0
Sprite,Foreground,Centre,"SB\Lyrics\14.png",320,240 F,0,65817,66192,0,1 M,0,65817,69004,400,400,380,400 F,0,68629,69004,1,0
Sprite,Foreground,Centre,"SB\Lyrics\15.png",320,240 F,0,69192,69567,0,1 M,0,69192,72004,200,330,240,330 F,0,71629,72004,1,0
Sprite,Foreground,Centre,"SB\Lyrics\17.png",320,240 F,0,75192,75567,0,1 M,0,75192,77629,200,330,240,330 F,0,77254,77629,1,0
Sprite,Foreground,Centre,"SB\Lyrics\16.png",320,240 F,0,72192,72567,0,1 M,0,72192,75004,400,400,380,400 F,0,74629,75004,1,0
Sprite,Foreground,Centre,"SB\Lyrics\18.png",320,240 F,0,77817,78192,0,1 M,0,77817,81004,400,400,380,400 F,0,89629,81004,1,0
Sprite,Foreground,Centre,"SB\Lyrics\19.png",320,240 F,0,81192,81567,0,1 M,0,81192,84004,220,330,260,330 F,0,83629,84004,1,0
Sprite,Foreground,Centre,"SB\Lyrics\20 copy.png",320,240 F,0,84192,84567,0,1 M,0,84192,93754,400,400,380,400 F,0,93379,93754,1,0
Sprite,Foreground,Centre,"SB\Lyrics\21.png",320,240 F,0,100317,100692,0,1 M,0,100317,103879,220,330,260,330 F,0,103504,103879,1,0
Sprite,Foreground,Centre,"SB\Lyrics\22.png",320,240 F,0,104067,104442,0,1 M,0,104067,106504,400,400,380,400 F,0,106129,106504,1,0
Sprite,Foreground,Centre,"SB\Lyrics\23.png",320,240 F,0,106879,107254,0,1 M,0,106879,111192,240,330,300,330 F,0,111192,111567,1,0
Sprite,Foreground,Centre,"SB\Lyrics\24.png",320,240 F,0,112317,112692,0,1 M,0,112317,115692,400,400,380,400 F,0,115317,115692,1,0
Sprite,Foreground,Centre,"SB\Lyrics\25.png",320,240 F,0,116067,116442,0,1 M,0,116067,118879,240,330,300,330 F,0,118504,118879,1,0
Sprite,Foreground,Centre,"SB\Lyrics\26.png",320,240 F,0,119067,119442,0,1 M,0,119067,120379,400,400,380,400 F,0,120004,120379,1,0
Sprite,Foreground,Centre,"SB\Lyrics\27.png",320,240 F,0,120567,120942,0,1 M,0,120567,123004,240,330,300,330 F,0,122629,123004,1,0
Sprite,Foreground,Centre,"SB\Lyrics\28.png",320,240 F,0,123192,123567,0,1 M,0,123192,125817,400,400,380,400 F,0,125442,125817,1,0
Sprite,Foreground,Centre,"SB\Lyrics\29.png",320,240 F,0,126192,126567,0,1 M,0,126192,129004,240,330,300,330 F,0,128629,129004,1,0
Sprite,Foreground,Centre,"SB\Lyrics\30 copy.png",320,240 F,0,129192,129567,0,1 M,0,129192,132379,400,400,380,400 F,0,132004,132379,1,0
Sprite,Foreground,Centre,"SB\Lyrics\31.png",320,240 F,0,132567,132942,0,1 M,0,132567,135004,240,330,300,330 F,0,134629,135004,1,0
Sprite,Foreground,Centre,"SB\Lyrics\32.png",320,240 F,0,135192,135567,0,1 M,0,135192,138004,400,400,380,400 F,0,137629,138004,1,0
Sprite,Foreground,Centre,"SB\Lyrics\33.png",320,240 F,0,138192,138567,0,1 M,0,138192,140629,240,330,300,330 F,0,140254,140629,1,0
Sprite,Foreground,Centre,"SB\Lyrics\34.png",320,240 F,0,140817,141192,0,1 M,0,140817,144004,400,400,380,400 F,0,143629,144004,1,0
Sprite,Foreground,Centre,"SB\Lyrics\35.png",320,240 F,0,144192,144567,0,1 M,0,144192,147004,240,330,300,330 F,0,146629,147004,1,0
Sprite,Foreground,Centre,"SB\Lyrics\36.png",320,240 F,0,147192,147567,0,1 M,0,147192,150004,400,400,380,400 F,0,149629,150004,1,0
Sprite,Foreground,Centre,"SB\Lyrics\37.png",320,240 F,0,150192,150567,0,1 M,0,150192,152629,240,330,300,330 F,0,152254,152629,1,0
Sprite,Foreground,Centre,"SB\Lyrics\38.png",320,240 F,0,152817,153192,0,1 M,0,152817,156004,400,400,380,400 F,0,155629,156004,1,0
Sprite,Foreground,Centre,"SB\Lyrics\39.png",320,240 F,0,156192,156567,0,1 M,0,156192,159004,240,330,300,330 F,0,158629,159004,1,0
Sprite,Foreground,Centre,"SB\Lyrics\40 copy.png",320,240 F,0,159192,159567,0,1 M,0,159192,161629,400,400,380,400 F,0,161254,161629,1,0
Sprite,Foreground,Centre,"SB\Lyrics\41.png",320,240 F,0,161817,162192,0,1 M,0,161817,168942,240,330,300,330 F,0,168567,168942,1,0
//Storyboard Sound Samples
//Background Colour Transformations
3,100,163,162,255

[TimingPoints]
942,375,4,2,1,70,1,0
10692,-100,4,2,1,60,0,0
11442,-100,4,2,1,50,0,0
12004,-100,4,2,1,40,0,0
12754,-100,4,2,1,50,0,0
13785,-100,4,2,1,60,0,0
14535,-100,4,2,1,70,0,0
15660,-100,4,2,1,75,0,0
16223,-100,4,2,1,70,0,0
16598,-100,4,2,1,60,0,0
16973,-100,4,2,1,55,0,0
17348,-100,4,2,1,50,0,0
17723,-100,4,2,1,55,0,0
18098,-100,4,2,1,60,0,0
18285,-100,4,2,1,65,0,0
18473,-100,4,2,1,70,0,0
18660,-100,4,2,1,75,0,0
18848,-100,4,2,1,60,0,0
19598,-100,4,2,1,70,0,0
21473,-100,4,2,1,60,0,0
21660,-100,4,2,1,50,0,0
25129,-100,4,2,1,70,0,0
60848,-133.333333333333,4,2,1,70,0,0
61410,-100,4,2,1,70,0,0
63942,-100,4,2,1,70,0,1
87942,-100,4,2,1,90,0,0
89254,-100,4,2,1,80,0,0
90004,-100,4,2,1,70,0,0
91129,-100,4,2,1,60,0,0
91879,-100,4,2,1,50,0,0
92629,-100,4,2,1,40,0,0
93379,-100,4,2,1,30,0,0
93942,-100,4,2,1,30,0,0
99942,-100,4,2,1,70,0,0
105660,-100,4,2,2,70,0,0
106129,-100,4,2,1,70,0,0
138942,-100,4,2,1,70,0,1
168942,-100,4,2,1,50,0,0
169129,-100,4,2,1,40,0,0
169410,-100,4,2,1,45,0,0
169785,-100,4,2,1,50,0,0
170160,-100,4,2,1,55,0,0
170535,-100,4,2,1,60,0,0
170910,-100,4,2,1,65,0,0
171098,-100,4,2,1,70,0,0

[Colours]
Combo1 : 128,255,255
Combo2 : 255,128,192
Combo3 : 128,128,255

[HitObjects]
160,136,942,2,0,B|131:192|213:247|257:203,1,160,4|0
256,112,1504,2,0,B|304:72|382:123|348:193,1,160,0|0
317,260,2067,1,2
251,318,2254,1,0
168,348,2442,2,0,B|108:320|107:242|146:207,1,160,0|2
212,82,3004,1,0
270,158,3192,2,0,B|392:157,1,80
402,237,3567,2,0,B|298:238,1,80,2|0
220,280,3942,6,0,B|221:322|221:322|172:369,1,80,0|0
72,296,4317,2,0,B|71:254|71:254|120:207,1,80
174,178,4692,2,0,B|208:160|208:160|220:72,1,80,0|2
179,33,5067,2,0,B|256:24|256:24|366:100,1,160
410,113,5629,1,0
448,193,5817,2,0,B|495:176,4,40
348,176,6379,5,0
368,200,6473,1,0
384,224,6567,2,0,B|384:288|316:329|241:303,1,160,0|4
192,272,7129,1,2
104,232,7317,2,0,B|66:220|66:220|48:168,1,80
97,96,7692,1,0
188,61,7879,1,0
188,61,7973,1,0
188,61,8067,2,0,B|297:61,1,80
358,93,8442,6,0,B|404:96|424:136,1,80,0|2
456,228,8817,1,0
304,208,9004,1,0
336,288,9192,1,0
208,208,9379,1,0
176,288,9567,1,0
64,228,9754,1,2
64,228,9848,1,2
64,228,9942,1,0
256,192,10129,12,4,12192
51,136,12942,6,0,B|92:80|164:104|180:156,1,160,4|0
232,252,13504,2,0,B|248:296|288:304,1,80,0|2
400,328,13879,2,0,B|448:320|442:268,1,80,0|0
436,184,14254,1,2
400,96,14442,1,2
316,34,14629,2,0,B|280:64|224:16,1,80,0|0
136,112,15004,2,0,B|176:88|240:128,1,80,0|0
312,200,15379,2,0,B|272:176|232:200,1,80,0|0
112,240,15754,1,0
112,240,15942,5,2
272,320,16317,1,0
216,248,16692,1,2
336,208,17067,1,0
192,128,17442,1,2
368,64,17817,2,0,B|368:160,1,80,0|0
368,256,18192,5,2
472,104,18379,1,0
280,216,18567,1,2
264,104,18754,1,0
456,216,18942,6,0,B|416:192|376:216,1,80,4|0
265,313,19317,2,0,B|304:340|348:312,1,80,2|0
456,216,19692,1,0
456,216,19785,1,0
456,216,19879,1,0
414,113,20067,2,0,B|368:72|304:80|272:124,1,160,2|0
200,184,20629,2,0,B|192:236|144:232,1,80,0|2
33,183,21004,2,0,B|8:136|72:64|144:106,1,160,0|0
213,135,21567,1,2
291,189,21754,1,0
368,248,21942,1,4
256,192,22129,12,4,24942
76,82,25317,5,0
159,128,25504,1,0
230,192,25692,2,0,B|272:200|288:240,1,80
342,320,26067,2,0,B|365:361|408:352,1,80
474,284,26442,1,0
474,284,26629,2,0,B|385:258|359:173,1,160
324,108,27192,1,0
419,104,27379,2,0,B|432:56|380:32,1,80
304,20,27754,1,0
208,32,27942,2,0,B|112:32|76:108,1,160
160,152,28504,5,0
132,244,28692,2,0,B|228:244|264:168,1,160
272,322,29254,2,0,B|180:322,1,80,0|2
160,185,29629,2,0,B|256:185,1,80,0|2
398,69,30004,2,0,B|416:128|348:180|296:152,1,160,0|2
164,105,30567,6,0,B|116:99|108:56,2,80,0|0|0
238,168,31129,1,0
315,226,31317,1,0
386,289,31504,2,0,B|400:336|452:344,2,80
315,226,32067,1,0
238,167,32254,2,0,B|250:112|312:102,1,80,0|2
448,104,32629,2,0,B|400:104|372:144,1,80,0|2
304,176,33004,2,0,B|296:216|252:232,1,80,0|2
241,324,33379,5,0
241,324,33473,1,0
241,324,33567,1,2
128,352,33754,2,0,B|86:338|80:288,1,80
160,240,34129,2,0,B|160:192|112:176,1,80
56,64,34504,2,0,B|132:44|140:120|204:104,1,160,0|2
300,145,35067,1,0
392,192,35254,2,0,B|436:212|452:260,1,80
484,349,35629,5,0
484,349,35817,2,0,B|462:370|387:317|389:380,1,80,0|2
336,282,36192,2,0,B|363:245|387:296|438:237,1,80,0|2
472,188,36567,2,0,B|437:156|424:202|384:138,1,80,0|2
307,105,36942,5,4
279,89,37035,1,0
248,77,37129,2,0,B|209:56|169:77,1,80
212,162,37504,2,0,B|251:183|291:162,1,80
266,49,37879,6,0,B|226:20|188:43,1,80,0|2
114,72,38254,1,0
61,132,38442,1,0
24,204,38629,2,0,B|8:252|64:288,1,80,0|2
128,240,39004,2,0,B|184:204|240:228|268:276,1,160
324,336,39567,1,0
412,328,39754,2,0,B|444:338|482:304|500:260|464:212,1,160
352,152,40317,2,0,B|291:130|321:56,1,80,0|2
388,32,40692,6,0,B|371:84|304:112|236:61,1,160,2|0
159,36,41254,2,0,B|71:35,1,80,0|2
24,113,41629,2,0,B|114:114,1,80,0|2
200,128,42004,2,0,B|180:183|272:231|308:196,1,160
422,139,42567,1,2
422,139,42660,1,0
422,139,42754,1,0
422,139,42848,1,0
422,139,42942,2,0,B|480:128|509:46,2,80,4|0|2
344,192,43504,5,0
264,240,43692,1,0
168,248,43879,2,0,B|124:232|112:184,2,80
253,292,44442,1,2
342,326,44629,2,0,B|408:356|456:336|472:280,1,160
460,200,45192,1,0
452,176,45285,1,0
440,156,45379,1,2
376,96,45567,6,0,B|356:24|292:24|276:100,1,160,0|4
256,192,46129,2,0,B|228:248|204:192,1,80
204,96,46504,2,0,B|184:24|120:24|104:100,1,160,0|4
60,184,47067,1,0
44,260,47254,1,0
60,340,47442,2,0,B|88:372,2,40
152,260,47817,5,0
152,260,47910,1,0
152,260,48004,1,0
152,260,48098,1,0
152,260,48192,2,0,B|224:216|288:240|328:264,1,160
392,288,48754,1,0
480,296,48942,6,0,B|512:252|480:212,1,80,4|0
444,164,49317,1,0
396,112,49504,1,0
336,72,49692,1,0
272,44,49879,1,0
200,28,50067,1,0
128,28,50254,1,0
128,28,50817,5,0
200,28,51004,1,2
272,44,51192,1,0
336,72,51379,1,0
396,112,51567,1,0
444,164,51754,1,0
468,232,51942,2,0,B|492:280|452:304,1,80,4|0
384,336,52317,6,0,B|340:360|312:320,1,80
214,269,52692,1,0
280,192,52879,1,0
176,156,53067,1,0
264,88,53254,1,2
164,40,53442,1,0
164,40,53535,1,0
164,40,53629,1,2
164,40,53723,1,0
164,40,53817,1,0
264,88,54192,6,0,B|264:168,1,80
264,316,54567,2,0,B|264:236,1,80
264,88,54942,5,4
180,168,55129,1,0
264,248,55317,1,0
356,176,55504,2,0,B|372:108|332:76|256:88,1,160,2|0
152,104,56067,1,0
72,176,56254,6,0,B|100:244|181:247|207:147,1,160,4|2
252,104,56817,1,0
281,89,56910,1,0
313,89,57004,1,0
344,96,57098,1,0
372,112,57192,1,0
392,136,57285,1,0
404,164,57379,1,0
408,196,57473,1,0
404,228,57567,2,0,B|396:268|356:288,1,80,0|2
280,348,57942,6,0,B|176:348,1,80,4|2
136,268,58317,2,0,B|232:268,1,80,0|0
280,188,58692,2,0,B|180:188,1,80,0|0
136,108,59067,2,0,B|228:108,1,80,0|0
288,32,59442,2,0,B|196:32,1,80,0|0
104,32,59817,5,0
72,40,59910,1,0
48,64,60004,1,0
32,92,60098,1,0
20,120,60192,1,0
16,152,60285,1,0
16,184,60379,2,0,B|6:234|40:256,1,80,0|2
108,308,60754,5,0
185,342,60942,2,0,B|236:308|256:360|300:336,1,119.999996423721,4|2
384,320,61504,5,2
464,272,61692,1,2
507,187,61879,1,2
464,96,62067,1,4
384,48,62254,1,2
384,48,62629,5,0
396,188,62817,1,2
256,176,63004,1,0
192,256,63192,5,2
352,128,63379,1,0
160,128,63567,1,0
320,256,63754,1,2
256,64,63942,2,0,B|256:224,1,160,4|2
256,328,64504,1,0
356,352,64879,5,0
256,328,65067,1,0
164,280,65255,1,0
88,208,65442,1,0
48,80,65629,5,0
288,167,65817,1,2
112,144,66004,1,0
320,208,66192,5,2
176,208,66379,1,0
384,272,66567,1,0
240,272,66754,1,0
240,272,66848,1,0
240,272,66942,1,2
448,328,67129,6,0,B|512:384,1,80,0|2
480,224,67504,2,0,B|416:168,1,80,0|2
416,32,67879,2,0,B|480:88,1,80,0|2
387,121,68254,1,0
304,196,68442,1,0
248,96,68629,1,0
179,164,68817,1,2
179,164,68910,1,0
179,164,69004,1,0
76,172,69192,6,0,B|129:282,1,80
212,260,69567,2,0,B|272:256|272:256|364:320,1,160,0|4
436,252,70129,2,0,B|464:237|464:237|466:159,1,80
368,152,70504,1,0
296,240,70692,1,0
188,220,70879,1,0
128,316,71067,2,0,B|144:364|196:360,2,80,2|0|4
56,256,71629,5,0
124,188,71817,1,0
40,149,72004,1,0
116,91,72192,1,0
116,91,72285,1,0
116,91,72379,1,0
34,40,72567,5,0
34,40,72660,1,0
34,40,72754,1,0
0,130,72942,2,0,B|68:125|68:125|147:185,1,160,4|2
214,242,73504,2,0,B|244:272|244:272|281:237,1,80,0|2
296,153,73879,2,0,B|305:112|305:112|337:92,1,80,0|2
421,45,74254,1,4
421,45,74348,1,0
421,45,74442,1,2
421,45,74535,1,0
421,45,74629,2,0,B|475:70|459:142,1,80,2|0
352,300,75192,6,0,B|268:264,1,80,0|2
218,130,75567,2,0,B|335:180,1,80,0|2
352,298,75942,2,0,B|196:233,1,160,4|2
120,200,76504,1,0
128,288,76692,1,0
280,176,76879,1,2
288,264,77067,1,2
211,332,77254,6,0,B|212:220,1,80,0|2
210,105,77629,2,0,B|211:209,1,80,0|2
95,219,78004,2,0,B|191:219,1,80,0|2
325,219,78379,2,0,B|229:219,1,80,0|2
100,124,78754,1,0
100,124,78848,1,0
101,124,78942,2,0,B|112:64|200:66|216:132,1,160,4|0
264,212,79504,6,0,B|270:260|306:276,1,80,0|2
408,324,79879,1,0
408,325,79973,1,0
408,325,80067,1,0
408,325,80160,1,0
408,325,80254,2,0,B|468:304|496:248|480:188,1,160
440,104,80817,1,2
52,48,81192,5,0
160,76,81379,1,0
180,188,81567,1,0
292,196,81754,1,0
331,302,81942,2,0,B|348:348|388:356,2,80,4|0|0
292,196,82504,2,0,B|320:158|288:122,1,80,0|2
212,64,82879,2,0,B|254:56|274:11,2,80
123,118,83442,1,0
60,190,83629,1,0
16,275,83817,1,2
192,144,84192,6,0,B|192:240,1,80,2|0
320,224,84567,2,0,B|320:128,1,80,2|0
192,224,84942,2,0,B|288:224,1,80,4|0
320,144,85317,2,0,B|240:144,1,80,2|0
192,256,85692,1,2
352,128,85879,1,0
160,128,86067,1,2
320,256,86254,1,4
256,64,86442,6,0,B|256:160,1,80,0|2
256,320,86817,2,0,B|256:224,1,80,0|2
128,192,87192,2,0,B|224:192,1,80,0|2
384,192,87567,2,0,B|288:192,1,80,0|2
256,192,87942,12,2,90567
256,192,90754,12,4,93942
128,128,99942,5,4
128,128,100317,2,0,B|137:64|228:70|239:135,1,160,0|2
312,264,100879,2,0,B|347:317|408:278,2,80,0|0|2
247,212,101442,1,0
180,166,101629,1,0
175,245,101817,1,0
247,212,102004,1,0
180,166,102192,1,2
108,129,102379,1,0
40,84,102567,2,0,B|-7:83|-19:35,2,80
160,64,103129,6,0,B|256:64,1,80,0|2
304,192,103504,2,0,B|208:192,1,80,0|2
160,320,103879,2,0,B|288:320,1,80,0|2
288,220,104254,1,0
160,220,104442,1,0
224,108,104629,1,2
328,32,104817,5,0
456,32,105004,1,0
456,160,105192,1,0
328,160,105379,1,2
328,32,105567,1,0
456,32,105754,2,0,B|516:72|504:144|456:160,1,160,0|0
360,208,106317,1,0
272,256,106504,1,0
184,320,106692,6,0,B|88:320,1,80,0|2
272,256,107067,2,0,B|371:257,1,80,0|2
163,164,107442,1,0
163,164,107535,1,0
163,164,107629,2,0,B|240:96,1,80,0|2
320,112,108004,2,0,B|256:176,1,80,0|2
48,168,108379,2,0,B|128:96,1,80,0|2
288,48,108754,6,0,B|324:4|408:8|436:68,1,160,4|0
352,120,109317,1,2
420,192,109504,2,0,B|384:236|300:232|272:172,1,160
216,128,110067,1,2
95,40,110254,2,0,B|176:96,1,80,2|0
296,168,110629,1,0
134,168,110817,1,2
296,168,111004,5,0
216,240,111192,1,2
96,40,111379,1,0
320,64,111567,1,2
134,168,111754,1,0
134,168,111848,1,0
134,168,111942,2,0,B|56:120,1,80,4|0
152,272,112317,6,0,B|172:316|212:315,1,80
320,288,112692,1,2
322,184,112879,2,0,B|276:173|272:125,1,80
368,39,113254,2,0,B|446:86,1,80,0|2
440,184,113629,2,0,B|352:128,1,80,0|2
304,96,114004,1,0
224,64,114192,2,0,B|120:64,1,80,0|2
48,144,114567,1,0
48,144,114754,6,0,B|216:144,1,160,4|2
104,216,115317,2,0,B|16:216,1,80,0|2
144,288,115692,2,0,B|248:288,1,80,0|2
88,344,116067,6,0,B|0:344,1,80,0|2
176,216,116442,1,0
56,104,116629,2,0,B|128:40,1,80,0|2
248,72,117004,2,0,B|176:136,1,80,0|2
184,264,117379,2,0,B|264:192,1,80,0|2
448,128,117754,5,0
448,128,117848,1,0
448,128,117942,2,0,B|460:184|424:240|368:244,1,160,4|2
256,256,118504,2,0,B|208:232|176:272,1,80
72,288,118879,2,0,B|56:336|8:333,2,80,0|0|2
113,193,119442,1,0
200,136,119629,2,0,B|204:88|251:80,1,80,0|2
352,88,120004,1,0
416,160,120192,1,0
456,248,120379,2,0,B|401:216|320:252|324:312,1,160,2|2
312,204,120942,5,4
376,128,121129,2,0,B|328:144|288:104,1,80
216,176,121504,1,0
112,184,121692,2,0,B|147:225|95:265,1,80,2|0
216,176,122067,1,2
293,105,122254,2,0,B|288:53|336:44,1,80
424,48,122629,1,0
424,48,122817,1,2
424,48,123004,1,0
380,251,123192,6,0,B|336:220|312:260,1,80
263,324,123567,2,0,B|200:358|172:282,1,80
144,240,123942,1,4
200,180,124129,1,0
224,272,124317,1,2
160,320,124504,1,2
128,164,124692,1,0
272,208,124879,1,0
160,320,125067,1,2
128,164,125254,1,0
235,196,126192,5,2
172,296,126379,1,0
320,92,126567,1,2
300,304,126754,1,0
128,120,126942,1,4
436,240,127317,6,0,B|392:248|392:248|372:204,1,80,2|0
344,80,127692,1,0
253,154,127879,2,0,B|252:208|192:208,1,80,0|2
152,96,128254,1,0
120,208,128442,1,2
48,312,128629,2,0,B|16:224,1,80,0|2
360,48,129192,6,0,B|280:48,1,80,2|0
216,144,129567,2,0,B|296:144,1,80,2|0
384,232,129942,2,0,B|304:232,1,80,4|0
104,344,130317,1,2
160,272,130504,2,0,B|192:328|288:376,2,160,0|0|4
96,176,131442,1,2
104,72,131629,2,0,B|150:104|200:52,1,80
272,48,132004,5,2
304,40,132098,1,2
336,40,132192,1,2
368,56,132285,1,2
392,72,132379,1,2
472,168,132567,2,0,B|436:136|396:168,1,80,0|0
344,224,132942,1,4
200,264,133129,2,0,B|236:232|276:264,1,80
188,336,133504,6,0,B|152:368|112:336,1,80,0|0
156,216,133879,2,0,B|192:184|232:216,1,80
376,322,134254,5,0
320,148,134442,1,0
261,322,134629,1,0
411,214,134817,1,0
227,213,135004,1,0
192,320,135192,1,2
192,320,135379,2,0,B|144:320|110:268,1,80,0|2
144,200,135754,1,0
88,136,135942,2,0,B|96:96|160:48|224:64,1,160,4|2
368,64,136504,5,0
448,144,136692,1,0
448,256,136879,1,0
368,336,137067,2,0,B|288:336,1,80,2|0
112,128,137442,2,0,B|192:128,1,80,2|0
336,224,137817,1,0
176,224,138004,1,0
256,332,138192,1,0
256,128,138379,5,2
144,336,138567,1,2
384,336,138754,1,2
384,336,138942,2,0,B|288:272|304:176,1,160,4|0
352,80,139504,2,0,B|408:88|424:36,2,80
240,60,140067,1,2
216,168,140254,1,0
104,180,140442,1,2
72,288,140629,6,0,B|32:320|0:292,2,80,0|2|0
184,308,141192,1,0
256,224,141379,2,0,B|256:192|256:192|304:160,1,80,0|2
384,136,141754,1,0
456,72,141942,2,0,B|416:28|344:28|312:68,1,160,4|0
384,136,142504,1,0
456,200,142692,2,0,B|425:238|353:238|313:194,1,160,4|0
256,56,143254,5,0
256,56,143442,2,0,B|192:72|168:128|184:208,1,160
184,216,143910,1,0
192,248,144004,1,0
208,272,144098,1,0
232,296,144192,1,2
320,336,144379,6,0,B|368:336|336:304|400:296,1,80,0|2
496,288,144754,2,0,B|456:272|496:248|416:216,1,80,0|4
376,144,145129,2,0,B|328:160|296:112,1,80,0|2
240,80,145504,1,0
160,56,145692,1,2
79,57,145879,2,0,B|28:52|16:9,2,80,0|2|0
128,120,146442,1,4
160,192,146629,2,0,B|200:216|200:260,1,80,2|0
102,304,147004,6,0,B|63:293|64:240,1,80
208,140,147379,2,0,B|248:156|246:204,1,80
208,324,147754,2,0,B|185:368|128:356,2,80,0|4|0
241,195,148317,1,2
132,166,148504,2,0,B|147:115|200:64|288:96,1,160
414,74,149067,1,2
414,74,149254,2,0,B|364:88|341:137|369:219,1,160,4|0
373,237,149723,1,0
380,268,149817,1,0
370,298,149910,1,0
351,323,150004,1,2
192,336,150192,6,0,B|96:336,1,80,2|0
232,248,150567,2,0,B|328:248,1,80,2|0
80,168,150942,1,4
80,168,151129,1,0
80,168,151317,2,0,B|80:128|80:128|144:72,1,80,0|2
224,56,151692,2,0,B|240:88|240:88|288:112,1,80,0|2
384,80,152067,1,0
384,80,152254,2,0,B|440:120|440:120|440:216,1,160,2|0
432,296,152817,1,0
336,304,153004,6,0,B|288:288|288:288|264:240,1,80
312,192,153379,2,0,B|288:152|288:152|224:128,1,80
154,160,153754,1,2
82,63,153942,2,0,B|90:98|90:98|74:155,1,80,4|0
34,282,154317,2,0,B|69:316|69:316|132:317,1,80,0|2
226,300,154692,2,0,B|255:285|255:285|254:224,1,80
204,112,155067,2,0,B|245:120|245:120|296:93,1,80,2|0
408,65,155442,5,0
408,65,155535,1,0
408,65,155629,1,0
408,65,155723,1,0
408,65,155817,2,0,B|456:144,1,80,0|2
422,250,156192,2,0,B|374:171,1,80,0|2
344,296,156567,2,0,B|392:375,1,80,0|2
258,334,156942,6,0,B|170:189,1,160,4|0
85,116,157504,2,0,B|56:105|56:105|19:61,2,80,0|2|0
180,112,158067,1,2
212,204,158254,1,4
308,184,158442,1,2
357,265,158629,2,0,B|400:273|410:320,2,80
368,64,159192,6,0,B|280:64,1,80,2|0
192,136,159567,2,0,B|280:136,1,80,2|0
168,208,159942,2,0,B|88:208,1,80,4|0
304,264,160317,2,0,B|392:264,1,80,2|0
240,352,160692,2,0,B|240:160,1,160,2|0
168,248,161254,5,4
120,176,161442,1,0
168,104,161629,1,0
256,128,161817,1,0
256,216,162004,5,0
344,248,162192,1,0
392,176,162379,1,0
344,104,162567,1,0
256,128,162754,1,0
256,216,162942,5,4
256,192,163129,12,2,165567
256,192,165754,12,4,168942
128,128,169317,5,2
128,128,169504,2,0,B|224:128,1,80,0|2
320,208,169879,2,0,B|240:208,1,80,0|2
88,272,170254,2,0,B|176:272,1,80,0|2
280,344,170629,2,0,B|184:344,1,80,0|2
344,272,171004,1,0
428,224,171192,1,2
376,144,171379,1,0
432,64,171567,6,0,B|480:64|480:64|512:16,2,80,2|0|4
224,80,172129,2,0,B|192:64|192:64|160:16,2,80,0|6|0
352,184,172692,6,0,B|384:152|384:152|440:144,2,80,2|4|2
304,248,173254,1,4
240,296,173442,1,0
168,328,173629,2,0,B|112:336|112:288|64:304,1,80,0|2
152,240,174004,2,0,B|200:240|192:208|216:200,1,80,0|2
152,152,174379,2,0,B|96:152|136:112|56:112,1,80,0|2
152,56,174754,5,0
232,40,174942,2,0,B|264:136|368:152,1,160,4|0
416,176,175504,1,0
496,160,175692,2,0,B|488:264|376:272,1,160,2|0
280,304,176254,2,0,B|192:304,1,80,0|2
120,216,176629,2,0,B|216:216,1,80,0|2
176,128,177004,5,0
256,64,177192,2,0,B|264:124|304:168|388:180,1,160,2|0
360,284,177754,5,0
256,320,177942,2,0,B|256:268|220:220|156:208,1,160,2|0
112,88,178504,5,0
112,88,178598,1,0
112,88,178692,2,0,B|208:88,1,80,2|0
288,168,179067,2,0,B|208:168,1,80,2|0
80,200,179442,2,0,B|136:200|152:256,1,80,2|0
160,264,179723,1,0
176,288,179817,1,0
200,312,179910,1,0
232,328,180004,1,0
264,336,180098,1,0
296,336,180192,1,0
328,336,180285,1,0
360,336,180379,2,0,B|416:336,4,40,0|0|0|0|0
336,240,180942,6,0,B|416:240,1,80,4|0
336,152,181317,2,0,B|232:152,1,80,2|0
336,64,181692,2,0,B|376:48|376:48|432:64,2,80,2|0|2
264,192,182254,2,0,B|240:224|240:224|184:224,1,80,0|2
96,120,182629,2,0,B|112:96|112:96|168:96,1,80,0|2
264,44,183004,2,0,B|312:56|304:108,1,80,0|2
264,192,183379,1,0
324,268,183567,1,0
416,292,183754,6,0,B|432:342|477:350,2,80,0|4|0
448,164,184317,1,0
448,164,184504,1,0
392,72,184692,2,0,B|376:120|328:120,1,80,2|0
184,104,185067,2,0,B|139:120|140:176,1,80,2|4
168,272,185442,5,2
280,320,185629,1,0
248,176,185817,1,2
416,272,186004,1,0
424,136,186192,5,2
304,232,186379,1,0
208,56,186567,1,2
96,208,186754,1,0
224,328,186942,1,4
