osu file format v12

[General]
AudioFilename: Flower Flag.mp3
AudioLeadIn: 2500
PreviewTime: -1
Countdown: 0
SampleSet: Soft
StackLeniency: 0.7
Mode: 3
LetterboxInBreaks: 1

[Editor]
Bookmarks: 48744,60744,92481,123744,162744
DistanceSpacing: 1.4
BeatDivisor: 4
GridSize: 16

[Metadata]
Title:Flower Flag
TitleUnicode:Flower Flag
Artist:FELT
ArtistUnicode:FELT
Creator:Entozer
Version:Hard
Source:touhou
Tags:Yuyuko Saigyouji
BeatmapID:233656
BeatmapSetID:80831

[Difficulty]
HPDrainRate:6
CircleSize:7
OverallDifficulty:7
ApproachRate:5
SliderMultiplier:1.4
SliderTickRate:1

[Events]
//Background and Video events
0,0,"bg.jpg",1,1
//Break Periods
//Storyboard Layer 0 (Background)
//Storyboard Layer 1 (Fail)
//Storyboard Layer 2 (Pass)
//Storyboard Layer 3 (Foreground)
//Storyboard Sound Samples
//Background Colour Transformations
3,100,163,162,255

[TimingPoints]
745,374.99900373599,4,2,0,40,1,0

[HitObjects]
256,192,745,1,0,1:0:0:0:
36,192,745,1,0,0:0:0:0:
329,192,745,1,2,0:0:0:0:
182,192,932,1,0,0:0:0:0:
36,192,1119,1,0,0:0:0:0:
182,192,1307,1,0,0:0:0:0:
109,192,1307,1,0,0:0:0:0:
402,192,1307,1,2,0:0:0:0:
36,192,1494,1,0,0:0:0:0:
182,192,1682,1,0,0:0:0:0:
256,192,1682,1,0,1:0:0:0:
36,192,1869,1,0,0:0:0:0:
475,192,1869,1,2,0:0:0:0:
182,192,2057,1,0,0:0:0:0:
256,192,2057,1,0,1:0:0:0:
36,192,2244,1,0,0:0:0:0:
329,192,2244,1,2,0:0:0:0:
182,192,2432,1,0,0:0:0:0:
109,192,2432,1,8,0:0:0:0:
36,192,2619,1,0,0:0:0:0:
402,192,2807,1,2,0:0:0:0:
182,192,2807,1,0,0:0:0:0:
256,192,2807,1,0,1:0:0:0:
36,192,2994,1,0,0:0:0:0:
182,192,3182,1,0,0:0:0:0:
256,192,3182,1,0,1:0:0:0:
475,192,3369,1,2,0:0:0:0:
36,192,3369,1,0,0:0:0:0:
109,192,3369,1,8,0:0:0:0:
36,192,3744,1,0,0:0:0:0:
256,192,3744,1,0,1:0:0:0:
402,192,3744,1,2,0:0:0:0:
182,192,3932,1,0,0:0:0:0:
36,192,4119,1,0,0:0:0:0:
329,192,4119,1,2,0:0:0:0:
182,192,4307,1,4,0:0:0:0:
109,192,4307,1,8,0:0:0:0:
475,192,4307,1,2,0:0:0:0:
36,192,4494,1,0,0:0:0:0:
182,192,4682,1,0,0:0:0:0:
256,192,4682,1,0,1:0:0:0:
402,192,4682,1,2,0:0:0:0:
36,192,4869,1,0,0:0:0:0:
182,192,5057,1,0,0:0:0:0:
256,192,5057,1,0,1:0:0:0:
329,192,5057,1,2,0:0:0:0:
36,192,5244,1,0,0:0:0:0:
182,192,5432,1,4,0:0:0:0:
402,192,5432,1,2,0:0:0:0:
36,192,5619,1,0,0:0:0:0:
182,192,5807,1,6,0:0:0:0:
475,192,5807,1,2,0:0:0:0:
36,192,5994,1,0,0:0:0:0:
109,192,5994,1,8,0:0:0:0:
109,192,6182,1,8,0:0:0:0:
402,192,6182,1,2,0:0:0:0:
256,192,6369,1,0,1:0:0:0:
182,192,6744,1,4,2:0:0:0:
36,192,7119,1,0,0:0:0:0:
329,192,7119,1,2,0:0:0:0:
182,192,7307,1,0,0:0:0:0:
109,192,7307,1,8,0:0:0:0:
475,192,7307,1,2,0:0:0:0:
36,192,7494,1,0,0:0:0:0:
182,192,7682,1,0,0:0:0:0:
256,192,7682,1,0,1:0:0:0:
402,192,7682,1,2,0:0:0:0:
36,192,7869,1,0,0:0:0:0:
182,192,8057,1,0,0:0:0:0:
256,192,8057,1,0,1:0:0:0:
475,192,8057,1,2,0:0:0:0:
36,192,8244,1,0,0:0:0:0:
182,192,8432,1,0,0:0:0:0:
109,192,8432,1,8,0:0:0:0:
36,192,8619,1,0,0:0:0:0:
402,192,8807,1,2,0:0:0:0:
182,192,8807,1,0,0:0:0:0:
256,192,8807,1,0,1:0:0:0:
36,192,8994,1,0,0:0:0:0:
182,192,9182,1,0,0:0:0:0:
256,192,9182,1,0,1:0:0:0:
36,192,9369,1,0,0:0:0:0:
109,192,9369,1,8,0:0:0:0:
36,192,9744,1,0,0:0:0:0:
256,192,9744,1,0,1:0:0:0:
182,192,9932,1,0,0:0:0:0:
36,192,10119,1,0,0:0:0:0:
329,192,10119,1,2,0:0:0:0:
109,192,10307,1,8,0:0:0:0:
182,192,10307,1,0,0:0:0:0:
475,192,10307,1,2,0:0:0:0:
36,192,10682,1,0,0:0:0:0:
256,192,10682,1,0,1:0:0:0:
329,192,10682,1,2,0:0:0:0:
182,192,10869,1,0,0:0:0:0:
256,192,11057,1,4,0:0:0:0:
402,192,11057,1,2,0:0:0:0:
109,192,11057,1,0,1:0:0:0:
36,192,11432,1,8,0:0:0:0:
402,192,11432,1,2,0:0:0:0:
182,192,11619,1,0,1:0:0:0:
329,192,11619,1,2,0:0:0:0:
256,192,11619,1,4,0:0:0:0:
402,192,11807,1,2,0:0:0:0:
36,192,11994,1,0,1:0:0:0:
109,192,12088,1,0,1:0:0:0:
402,192,12182,1,2,0:0:0:0:
182,192,12182,1,0,1:0:0:0:
256,192,12276,1,0,1:0:0:0:
36,192,12369,1,0,1:0:0:0:
109,192,12463,1,0,1:0:0:0:
182,192,12557,1,0,1:0:0:0:
256,192,12651,1,0,1:0:0:0:
182,192,12744,128,0,13307:0:0:0:0:
36,192,12744,1,0,1:0:0:0:
256,192,13119,1,8,0:0:0:0:
329,192,13307,128,0,13869:0:0:0:0:
36,192,13682,1,0,1:0:0:0:
402,192,13869,128,0,14244:0:0:0:0:
256,192,13869,1,8,0:0:0:0:
182,192,14244,128,0,14807:0:0:0:0:
36,192,14244,1,0,1:0:0:0:
36,192,14526,1,0,1:0:0:0:
256,192,14619,1,8,0:0:0:0:
36,192,14807,1,0,1:0:0:0:
329,192,14807,128,0,15369:0:0:0:0:
36,192,15182,1,0,1:0:0:0:
402,192,15369,128,0,15744:0:0:0:0:
256,192,15369,1,8,0:0:0:0:
475,192,15744,128,0,16119:0:0:0:0:
36,192,15744,1,0,1:0:0:0:
329,192,16119,128,0,16494:0:0:0:0:
256,192,16119,1,8,0:0:0:0:
402,192,16494,128,0,16869:0:0:0:0:
36,192,16682,1,0,1:0:0:0:
256,192,16869,1,8,0:0:0:0:
182,192,16869,128,0,17244:0:0:0:0:
329,192,17244,128,0,18369:0:0:0:0:
36,192,17244,1,0,1:0:0:0:
36,192,17526,1,0,1:0:0:0:
256,192,17619,1,8,0:0:0:0:
36,192,17807,1,0,1:0:0:0:
36,192,18182,1,0,1:0:0:0:
256,192,18369,1,8,0:0:0:0:
182,192,18744,128,0,19307:0:0:0:0:
36,192,18744,1,0,1:0:0:0:
256,192,19119,1,8,0:0:0:0:
329,192,19307,128,0,19869:0:0:0:0:
36,192,19682,1,0,1:0:0:0:
402,192,19869,128,0,20244:0:0:0:0:
256,192,19869,1,8,0:0:0:0:
109,192,20244,128,0,20807:0:0:0:0:
36,192,20244,1,0,1:0:0:0:
36,192,20526,1,0,1:0:0:0:
256,192,20619,1,8,0:0:0:0:
182,192,20807,128,0,21369:0:0:0:0:
36,192,20807,1,0,1:0:0:0:
36,192,21182,1,0,1:0:0:0:
329,192,21369,128,0,21744:0:0:0:0:
256,192,21369,1,8,0:0:0:0:
36,192,21744,1,0,1:0:0:0:
182,192,21744,128,0,22307:0:0:0:0:
256,192,22119,1,8,0:0:0:0:
329,192,22307,128,0,22869:0:0:0:0:
36,192,22682,1,0,1:0:0:0:
256,192,22869,1,8,0:0:0:0:
402,192,22869,128,0,24744:0:0:0:0:
475,192,23057,1,4,0:0:0:0:
36,192,23432,1,0,3:0:0:0:
256,192,23619,1,0,3:0:0:0:
109,192,23807,1,0,3:0:0:0:
329,192,23994,1,0,3:0:0:0:
182,192,24182,1,0,1:0:0:0:
475,192,24369,1,0,1:0:0:0:
256,192,24557,1,0,0:0:0:0:
329,192,24744,1,4,0:0:0:0:
475,192,24744,1,2,0:0:0:0:
256,192,25119,1,2,0:0:0:0:
36,192,25119,1,0,0:0:0:0:
329,192,25307,1,2,0:0:0:0:
109,192,25307,1,0,0:0:0:0:
182,192,25494,128,0,25869:0:0:0:0:
329,192,25682,1,2,0:0:0:0:
109,192,25869,1,0,0:0:0:0:
402,192,25869,1,2,0:0:0:0:
36,192,26057,128,0,26432:0:0:0:0:
475,192,26244,1,2,0:0:0:0:
329,192,26432,1,2,0:0:0:0:
109,192,26432,128,0,26807:0:0:0:0:
475,192,26807,1,2,0:0:0:0:
182,192,26807,128,0,27182:0:0:0:0:
402,192,27182,1,2,0:0:0:0:
36,192,27182,1,0,0:0:0:0:
329,192,27369,1,2,0:0:0:0:
109,192,27369,1,0,0:0:0:0:
182,192,27557,128,0,28307:0:0:0:0:
256,192,27744,1,2,0:0:0:0:
329,192,28119,1,2,0:0:0:0:
402,192,28307,1,2,0:0:0:0:
402,192,28682,1,2,0:0:0:0:
475,192,28869,1,2,0:0:0:0:
109,192,28869,1,0,0:0:0:0:
36,192,29057,1,0,0:0:0:0:
329,192,29244,1,2,0:0:0:0:
109,192,29244,128,0,29619:0:0:0:0:
182,192,29619,1,0,0:0:0:0:
475,192,29807,1,2,0:0:0:0:
109,192,29807,128,0,30182:0:0:0:0:
182,192,30182,1,0,0:0:0:0:
402,192,30369,1,2,0:0:0:0:
109,192,30369,1,0,0:0:0:0:
36,192,30557,128,0,31307:0:0:0:0:
256,192,30744,1,2,0:0:0:0:
329,192,30932,1,2,0:0:0:0:
402,192,31119,1,2,0:0:0:0:
475,192,31307,1,2,0:0:0:0:
109,192,31682,1,0,0:0:0:0:
182,192,31869,1,0,0:0:0:0:
256,192,31869,1,2,0:0:0:0:
109,192,32057,1,0,0:0:0:0:
402,192,32244,1,2,0:0:0:0:
36,192,32244,128,0,32619:0:0:0:0:
329,192,32432,1,2,0:0:0:0:
182,192,32619,1,0,0:0:0:0:
256,192,32807,1,2,0:0:0:0:
109,192,32807,128,0,33369:0:0:0:0:
182,192,33369,1,0,0:0:0:0:
329,192,33463,1,2,0:0:0:0:
36,192,33557,1,0,0:0:0:0:
256,192,33744,1,2,0:0:0:0:
109,192,33744,128,0,34119:0:0:0:0:
329,192,34119,1,2,0:0:0:0:
36,192,34119,1,0,0:0:0:0:
256,192,34307,1,2,0:0:0:0:
402,192,34307,1,0,0:0:0:0:
182,192,34307,128,0,34682:0:0:0:0:
109,192,34682,128,0,35057:0:0:0:0:
329,192,34869,1,2,0:0:0:0:
36,192,35057,128,0,36369:0:0:0:0:
256,192,35244,1,0,0:0:0:0:
475,192,35244,1,2,0:0:0:0:
329,192,35432,1,0,0:0:0:0:
402,192,35619,1,0,0:0:0:0:
475,192,35807,1,0,0:0:0:0:
402,192,35994,1,0,0:0:0:0:
329,192,36182,1,0,0:0:0:0:
256,192,36369,1,0,0:0:0:0:
475,192,36744,1,0,0:0:0:0:
182,192,36744,128,0,39744:0:0:0:0:
36,192,37119,1,2,0:0:0:0:
475,192,37119,1,0,0:0:0:0:
109,192,37307,1,2,0:0:0:0:
475,192,37494,1,0,0:0:0:0:
475,192,37869,1,0,0:0:0:0:
256,192,37869,1,2,0:0:0:0:
329,192,38057,1,2,0:0:0:0:
475,192,38244,1,0,0:0:0:0:
402,192,38244,1,2,0:0:0:0:
475,192,38619,1,0,0:0:0:0:
256,192,38619,1,2,0:0:0:0:
402,192,38807,1,2,0:0:0:0:
475,192,38994,1,0,0:0:0:0:
329,192,39182,1,2,0:0:0:0:
475,192,39369,1,0,0:0:0:0:
109,192,39557,1,2,0:0:0:0:
475,192,39744,1,0,0:0:0:0:
36,192,39744,128,0,41244:0:0:0:0:
475,192,40119,1,0,0:0:0:0:
329,192,40119,1,2,0:0:0:0:
256,192,40307,1,0,0:0:0:0:
402,192,40307,1,2,0:0:0:0:
475,192,40494,1,0,0:0:0:0:
329,192,40682,1,2,0:0:0:0:
182,192,40682,1,0,0:0:0:0:
475,192,40869,1,0,0:0:0:0:
182,192,41057,1,2,0:0:0:0:
475,192,41244,1,0,0:0:0:0:
109,192,41244,128,0,41807:0:0:0:0:
256,192,41244,1,2,0:0:0:0:
475,192,41619,1,0,0:0:0:0:
36,192,41807,128,0,42369:0:0:0:0:
329,192,41807,1,2,0:0:0:0:
475,192,41994,1,0,0:0:0:0:
402,192,42182,1,2,0:0:0:0:
475,192,42369,1,0,0:0:0:0:
182,192,42369,128,0,42744:0:0:0:0:
475,192,42744,1,0,0:0:0:0:
109,192,42744,128,0,43869:0:0:0:0:
256,192,42744,1,2,0:0:0:0:
475,192,43119,1,0,0:0:0:0:
329,192,43307,1,2,0:0:0:0:
475,192,43494,1,0,0:0:0:0:
256,192,43682,1,2,0:0:0:0:
475,192,43869,1,0,0:0:0:0:
36,192,43869,1,0,0:0:0:0:
329,192,43869,1,2,0:0:0:0:
182,192,44057,1,0,0:0:0:0:
402,192,44057,1,2,0:0:0:0:
475,192,44244,1,0,0:0:0:0:
109,192,44244,128,0,44994:0:0:0:0:
475,192,44619,1,0,0:0:0:0:
256,192,44807,1,2,0:0:0:0:
475,192,44994,1,0,0:0:0:0:
182,192,44994,128,0,45369:0:0:0:0:
475,192,45369,1,0,0:0:0:0:
36,192,45369,128,0,45744:0:0:0:0:
329,192,45369,1,2,0:0:0:0:
475,192,45744,1,0,0:0:0:0:
182,192,45744,128,0,46119:0:0:0:0:
402,192,45744,1,2,0:0:0:0:
475,192,46119,1,0,0:0:0:0:
36,192,46119,1,0,0:0:0:0:
109,192,46307,128,0,46682:0:0:0:0:
475,192,46494,1,0,0:0:0:0:
256,192,46494,1,2,0:0:0:0:
36,192,46682,1,0,0:0:0:0:
329,192,46682,1,2,0:0:0:0:
475,192,46869,1,0,0:0:0:0:
182,192,46869,1,0,0:0:0:0:
402,192,46869,1,2,0:0:0:0:
109,192,47057,128,0,48744:0:0:0:0:
329,192,47057,1,2,0:0:0:0:
475,192,47244,1,0,0:0:0:0:
36,192,47432,1,0,1:0:0:0:
256,192,47619,1,8,0:0:0:0:
475,192,47619,1,0,0:0:0:0:
182,192,47807,1,0,1:0:0:0:
329,192,47994,1,8,0:0:0:0:
475,192,47994,1,0,0:0:0:0:
256,192,48182,1,0,3:0:0:0:
402,192,48369,1,0,3:0:0:0:
475,192,48369,1,0,0:0:0:0:
329,192,48557,1,0,1:0:0:0:
182,192,48744,1,4,0:0:0:0:
256,192,48744,1,0,0:0:0:0:
36,192,48744,1,0,0:0:0:0:
36,192,49307,1,2,0:0:0:0:
256,192,49307,1,0,0:0:0:0:
402,192,49307,1,0,0:0:0:0:
36,192,49682,1,2,0:0:0:0:
256,192,49869,1,0,0:0:0:0:
182,192,50057,1,0,0:0:0:0:
329,192,50057,1,2,0:0:0:0:
475,192,50057,1,4,0:0:0:0:
36,192,50432,1,0,0:0:0:0:
109,192,50619,1,0,0:0:0:0:
182,192,50807,1,0,0:0:0:0:
475,192,50807,1,4,0:0:0:0:
329,192,51182,1,0,0:0:0:0:
36,192,51182,1,0,3:0:0:0:
109,192,51369,1,0,1:0:0:0:
256,192,51369,1,0,0:0:0:0:
182,192,51557,1,0,0:0:0:0:
329,192,51744,1,2,0:0:0:0:
475,192,51744,1,0,0:0:0:0:
109,192,51744,1,4,0:0:0:0:
36,192,52307,1,8,0:0:0:0:
182,192,52682,1,0,1:0:0:0:
256,192,52682,1,2,0:0:0:0:
109,192,52869,1,0,1:0:0:0:
329,192,52869,1,2,0:0:0:0:
402,192,53057,1,2,0:0:0:0:
36,192,53057,1,4,0:0:0:0:
475,192,53432,1,2,0:0:0:0:
109,192,53432,1,0,1:0:0:0:
402,192,53619,1,2,0:0:0:0:
182,192,53619,1,8,0:0:0:0:
329,192,53807,1,2,0:0:0:0:
109,192,53807,1,0,1:0:0:0:
182,192,54182,1,0,3:0:0:0:
402,192,54182,1,2,0:0:0:0:
36,192,54369,1,0,3:0:0:0:
329,192,54369,1,2,0:0:0:0:
256,192,54557,1,2,0:0:0:0:
256,192,54744,1,0,0:0:0:0:
402,192,54744,1,2,0:0:0:0:
109,192,54744,1,4,0:0:0:0:
329,192,55119,1,2,0:0:0:0:
182,192,55119,1,0,1:0:0:0:
256,192,55307,1,2,0:0:0:0:
402,192,55307,1,0,0:0:0:0:
36,192,55307,1,0,1:0:0:0:
329,192,55682,1,2,0:0:0:0:
475,192,55682,1,0,0:0:0:0:
182,192,55682,1,0,1:0:0:0:
402,192,56057,1,2,0:0:0:0:
109,192,56057,1,4,0:0:0:0:
256,192,56432,1,2,0:0:0:0:
36,192,56432,1,8,0:0:0:0:
182,192,56619,1,0,1:0:0:0:
329,192,56807,1,2,0:0:0:0:
402,192,56807,1,0,0:0:0:0:
36,192,56994,1,0,1:0:0:0:
109,192,57088,1,0,1:0:0:0:
329,192,57182,1,2,0:0:0:0:
475,192,57182,1,0,0:0:0:0:
182,192,57182,1,0,3:0:0:0:
256,192,57276,1,0,3:0:0:0:
36,192,57369,1,0,1:0:0:0:
182,192,57557,1,0,3:0:0:0:
402,192,57744,1,2,0:0:0:0:
329,192,57744,1,0,0:0:0:0:
36,192,57744,1,0,1:0:0:0:
475,192,58119,1,8,0:0:0:0:
36,192,58307,1,0,1:0:0:0:
36,192,58682,1,0,1:0:0:0:
182,192,58682,1,0,0:0:0:0:
256,192,58682,1,2,0:0:0:0:
475,192,58869,1,8,0:0:0:0:
36,192,59057,1,0,1:0:0:0:
182,192,59057,1,0,0:0:0:0:
329,192,59057,1,2,0:0:0:0:
36,192,59432,1,0,1:0:0:0:
256,192,59432,1,0,0:0:0:0:
329,192,59432,1,2,0:0:0:0:
475,192,59619,1,8,0:0:0:0:
36,192,59807,1,0,1:0:0:0:
256,192,59807,1,0,0:0:0:0:
402,192,59807,1,2,0:0:0:0:
36,192,60182,1,0,1:0:0:0:
329,192,60182,1,2,0:0:0:0:
402,192,60182,1,0,0:0:0:0:
475,192,60369,1,8,0:0:0:0:
109,192,60369,1,2,0:0:0:0:
182,192,60369,1,0,0:0:0:0:
36,192,60557,1,0,1:0:0:0:
329,192,60557,1,2,0:0:0:0:
36,192,60744,1,0,1:0:0:0:
182,192,60744,1,2,0:0:0:0:
182,192,61119,1,2,0:0:0:0:
36,192,61119,1,0,0:0:0:0:
182,192,61494,1,2,0:0:0:0:
329,192,61494,1,0,0:0:0:0:
109,192,61682,1,2,0:0:0:0:
402,192,61682,1,0,0:0:0:0:
329,192,62057,1,2,0:0:0:0:
475,192,62057,1,0,0:0:0:0:
36,192,62432,1,0,0:0:0:0:
475,192,62432,1,0,1:0:0:0:
402,192,62619,1,0,0:0:0:0:
109,192,62619,1,0,3:0:0:0:
182,192,62807,1,0,0:0:0:0:
329,192,62807,1,0,1:0:0:0:
256,192,62994,1,8,0:0:0:0:
475,192,63182,1,0,1:0:0:0:
36,192,63276,1,0,1:0:0:0:
402,192,63369,1,0,1:0:0:0:
109,192,63463,1,0,1:0:0:0:
329,192,63557,1,0,3:0:0:0:
182,192,63651,1,0,3:0:0:0:
256,192,63744,1,0,1:0:0:0:
109,192,63744,128,2,64307:0:0:0:0:
36,192,64119,1,8,0:0:0:0:
182,192,64307,128,2,64869:0:0:0:0:
256,192,64682,1,0,1:0:0:0:
36,192,64869,1,8,0:0:0:0:
329,192,64869,128,2,65244:0:0:0:0:
256,192,65244,1,0,1:0:0:0:
182,192,65244,128,2,65807:0:0:0:0:
256,192,65526,1,0,1:0:0:0:
36,192,65619,1,8,0:0:0:0:
256,192,65807,1,0,1:0:0:0:
329,192,65807,128,2,66369:0:0:0:0:
256,192,66182,1,0,1:0:0:0:
36,192,66369,1,8,0:0:0:0:
402,192,66369,128,2,66744:0:0:0:0:
256,192,66744,1,0,1:0:0:0:
475,192,66744,128,2,67119:0:0:0:0:
256,192,67026,1,0,1:0:0:0:
36,192,67119,1,8,0:0:0:0:
329,192,67119,128,2,67494:0:0:0:0:
402,192,67494,128,2,67869:0:0:0:0:
256,192,67682,1,0,1:0:0:0:
36,192,67869,1,8,0:0:0:0:
182,192,67869,128,2,68244:0:0:0:0:
256,192,68244,1,0,1:0:0:0:
329,192,68244,128,2,69744:0:0:0:0:
256,192,68526,1,0,1:0:0:0:
36,192,68619,1,8,0:0:0:0:
256,192,68807,1,0,1:0:0:0:
256,192,69182,1,0,1:0:0:0:
36,192,69369,1,8,0:0:0:0:
256,192,69744,1,0,1:0:0:0:
182,192,69744,128,2,70307:0:0:0:0:
36,192,70119,1,8,0:0:0:0:
329,192,70307,128,2,70869:0:0:0:0:
256,192,70682,1,0,1:0:0:0:
36,192,70869,1,8,0:0:0:0:
402,192,70869,128,2,71244:0:0:0:0:
256,192,71244,1,0,1:0:0:0:
109,192,71244,128,2,71807:0:0:0:0:
256,192,71526,1,0,1:0:0:0:
36,192,71619,1,8,0:0:0:0:
256,192,71807,1,0,1:0:0:0:
182,192,71807,128,2,72369:0:0:0:0:
256,192,72182,1,0,1:0:0:0:
36,192,72369,1,8,0:0:0:0:
329,192,72369,128,2,72744:0:0:0:0:
256,192,72744,1,0,1:0:0:0:
475,192,72744,128,2,73119:0:0:0:0:
256,192,73026,1,0,1:0:0:0:
36,192,73119,1,8,0:0:0:0:
182,192,73119,128,2,73494:0:0:0:0:
402,192,73494,128,2,73869:0:0:0:0:
256,192,73682,1,0,1:0:0:0:
36,192,73869,1,8,0:0:0:0:
109,192,73869,128,2,74244:0:0:0:0:
256,192,74057,1,0,1:0:0:0:
329,192,74244,128,2,75744:0:0:0:0:
256,192,74432,1,0,1:0:0:0:
36,192,74619,1,8,0:0:0:0:
256,192,74807,1,0,1:0:0:0:
36,192,74994,1,0,1:0:0:0:
182,192,75088,1,0,1:0:0:0:
475,192,75182,1,0,1:0:0:0:
256,192,75276,1,0,1:0:0:0:
109,192,75369,1,0,3:0:0:0:
182,192,75463,1,0,3:0:0:0:
402,192,75557,1,0,3:0:0:0:
256,192,75651,1,0,3:0:0:0:
36,192,75744,1,0,1:0:0:0:
402,192,75744,128,2,76307:0:0:0:0:
256,192,76119,1,8,0:0:0:0:
182,192,76307,128,2,76682:0:0:0:0:
36,192,76682,1,0,1:0:0:0:
329,192,76682,128,2,77057:0:0:0:0:
256,192,76869,1,8,0:0:0:0:
109,192,77057,128,2,77807:0:0:0:0:
36,192,77244,1,0,1:0:0:0:
36,192,77526,1,0,1:0:0:0:
256,192,77619,1,8,0:0:0:0:
36,192,77807,1,0,1:0:0:0:
475,192,77807,128,2,78182:0:0:0:0:
36,192,78182,1,0,1:0:0:0:
402,192,78182,128,2,78557:0:0:0:0:
256,192,78369,1,8,0:0:0:0:
329,192,78557,1,2,0:0:0:0:
36,192,78744,1,0,1:0:0:0:
475,192,78744,1,2,0:0:0:0:
329,192,78932,1,2,0:0:0:0:
36,192,79026,1,0,1:0:0:0:
256,192,79119,1,8,0:0:0:0:
402,192,79119,1,2,0:0:0:0:
475,192,79307,128,2,79682:0:0:0:0:
36,192,79682,1,0,1:0:0:0:
402,192,79682,128,2,80057:0:0:0:0:
256,192,79869,1,8,0:0:0:0:
329,192,80057,1,2,0:0:0:0:
36,192,80244,1,0,1:0:0:0:
182,192,80244,1,2,0:0:0:0:
329,192,80432,1,2,0:0:0:0:
36,192,80526,1,0,1:0:0:0:
256,192,80619,1,8,0:0:0:0:
402,192,80619,128,2,81182:0:0:0:0:
36,192,80807,1,0,1:0:0:0:
36,192,81182,1,0,1:0:0:0:
329,192,81182,128,2,81744:0:0:0:0:
256,192,81369,1,8,0:0:0:0:
36,192,81557,1,0,1:0:0:0:
36,192,81744,1,0,1:0:0:0:
182,192,81744,128,2,82307:0:0:0:0:
256,192,82119,1,8,0:0:0:0:
329,192,82307,128,2,82682:0:0:0:0:
36,192,82682,1,0,1:0:0:0:
402,192,82682,128,2,83057:0:0:0:0:
256,192,82869,1,8,0:0:0:0:
182,192,83057,128,2,83807:0:0:0:0:
36,192,83244,1,0,1:0:0:0:
36,192,83526,1,0,1:0:0:0:
256,192,83619,1,8,0:0:0:0:
36,192,83807,1,0,1:0:0:0:
475,192,83807,128,2,84182:0:0:0:0:
36,192,84182,1,0,1:0:0:0:
402,192,84182,128,2,84557:0:0:0:0:
256,192,84369,1,8,0:0:0:0:
182,192,84557,1,2,0:0:0:0:
36,192,84744,1,0,1:0:0:0:
475,192,84744,1,2,0:0:0:0:
402,192,84932,1,2,0:0:0:0:
36,192,85026,1,0,1:0:0:0:
256,192,85119,1,8,0:0:0:0:
329,192,85119,1,2,0:0:0:0:
182,192,85307,128,2,85682:0:0:0:0:
36,192,85682,1,0,1:0:0:0:
329,192,85682,128,2,86057:0:0:0:0:
256,192,85869,1,8,0:0:0:0:
36,192,86057,1,0,1:0:0:0:
402,192,86057,128,2,86432:0:0:0:0:
256,192,86432,128,2,86807:0:0:0:0:
36,192,86432,1,8,0:0:0:0:
182,192,86619,1,8,0:0:0:0:
329,192,86807,128,2,87182:0:0:0:0:
36,192,86807,1,0,1:0:0:0:
256,192,86994,1,0,1:0:0:0:
109,192,87088,1,0,1:0:0:0:
475,192,87182,128,2,87744:0:0:0:0:
182,192,87182,1,0,1:0:0:0:
36,192,87276,1,0,1:0:0:0:
329,192,87369,1,0,3:0:0:0:
182,192,87463,1,0,3:0:0:0:
402,192,87557,1,0,3:0:0:0:
256,192,87651,1,0,3:0:0:0:
36,192,87744,1,0,1:0:0:0:
182,192,87744,128,0,88307:0:0:0:0:
256,192,88119,1,8,0:0:0:0:
329,192,88307,128,0,88869:0:0:0:0:
36,192,88682,1,0,1:0:0:0:
256,192,88869,1,8,0:0:0:0:
402,192,88869,128,0,89244:0:0:0:0:
36,192,89244,1,0,1:0:0:0:
182,192,89244,128,0,89807:0:0:0:0:
36,192,89526,1,0,1:0:0:0:
256,192,89619,1,8,0:0:0:0:
36,192,89807,1,0,1:0:0:0:
329,192,89807,128,0,90369:0:0:0:0:
36,192,90182,1,0,1:0:0:0:
256,192,90369,1,8,0:0:0:0:
402,192,90369,128,0,90744:0:0:0:0:
36,192,90744,1,0,1:0:0:0:
475,192,90744,128,0,91119:0:0:0:0:
256,192,91119,1,8,0:0:0:0:
329,192,91119,128,0,91494:0:0:0:0:
402,192,91494,128,0,91869:0:0:0:0:
36,192,91682,1,0,1:0:0:0:
256,192,91869,1,8,0:0:0:0:
182,192,91869,128,0,92244:0:0:0:0:
36,192,92244,1,0,1:0:0:0:
329,192,92244,128,0,93744:0:0:0:0:
475,192,92244,128,0,93744:0:0:0:0:
36,192,92526,1,0,1:0:0:0:
256,192,92619,1,8,0:0:0:0:
36,192,92807,1,0,1:0:0:0:
36,192,93182,1,0,1:0:0:0:
256,192,93369,1,8,0:0:0:0:
36,192,93744,1,0,1:0:0:0:
182,192,93744,128,0,94307:0:0:0:0:
256,192,94119,1,8,0:0:0:0:
329,192,94307,128,0,94869:0:0:0:0:
36,192,94682,1,0,1:0:0:0:
256,192,94869,1,8,0:0:0:0:
402,192,94869,128,0,95244:0:0:0:0:
36,192,95244,1,0,1:0:0:0:
109,192,95244,128,0,95807:0:0:0:0:
36,192,95525,1,0,1:0:0:0:
256,192,95619,1,8,0:0:0:0:
36,192,95807,1,0,1:0:0:0:
182,192,95807,128,0,96369:0:0:0:0:
36,192,96182,1,0,1:0:0:0:
256,192,96369,1,8,0:0:0:0:
329,192,96369,128,0,96744:0:0:0:0:
36,192,96744,1,0,1:0:0:0:
182,192,96744,128,0,97307:0:0:0:0:
256,192,97119,1,8,0:0:0:0:
329,192,97307,128,0,97869:0:0:0:0:
36,192,97682,1,0,1:0:0:0:
256,192,97869,1,8,0:0:0:0:
475,192,97869,128,0,99744:0:0:0:0:
36,192,98057,1,0,1:0:0:0:
36,192,98432,1,0,1:0:0:0:
256,192,98619,1,0,1:0:0:0:
109,192,98807,1,0,1:0:0:0:
329,192,98994,1,0,3:0:0:0:
182,192,99182,1,0,3:0:0:0:
402,192,99369,1,0,3:0:0:0:
109,192,99744,1,0,0:0:0:0:
402,192,99744,1,2,0:0:0:0:
182,192,99932,1,0,0:0:0:0:
256,192,100119,1,0,0:0:0:0:
329,192,100307,1,2,0:0:0:0:
109,192,100307,1,0,0:0:0:0:
182,192,100494,1,0,0:0:0:0:
256,192,100682,1,0,0:0:0:0:
402,192,100682,1,2,0:0:0:0:
109,192,100869,1,0,0:0:0:0:
475,192,100869,1,2,0:0:0:0:
182,192,101057,1,0,0:0:0:0:
256,192,101244,1,0,0:0:0:0:
475,192,101244,1,2,0:0:0:0:
109,192,101432,1,0,0:0:0:0:
402,192,101432,1,2,0:0:0:0:
182,192,101619,1,0,0:0:0:0:
256,192,101807,1,0,0:0:0:0:
475,192,101807,1,2,0:0:0:0:
109,192,101994,1,0,0:0:0:0:
182,192,102182,1,0,0:0:0:0:
402,192,102182,1,2,0:0:0:0:
256,192,102369,1,0,0:0:0:0:
329,192,102369,1,2,0:0:0:0:
182,192,102557,1,0,0:0:0:0:
36,192,102744,1,0,0:0:0:0:
475,192,102744,1,2,0:0:0:0:
109,192,102932,1,0,0:0:0:0:
182,192,103119,1,0,0:0:0:0:
402,192,103119,1,2,0:0:0:0:
36,192,103307,1,0,0:0:0:0:
329,192,103307,1,2,0:0:0:0:
109,192,103494,1,0,0:0:0:0:
182,192,103682,1,0,0:0:0:0:
402,192,103682,1,2,0:0:0:0:
475,192,103869,1,2,0:0:0:0:
36,192,103869,1,0,0:0:0:0:
109,192,104057,1,0,0:0:0:0:
182,192,104244,1,0,0:0:0:0:
329,192,104244,1,2,0:0:0:0:
36,192,104432,1,0,0:0:0:0:
109,192,104619,1,0,0:0:0:0:
402,192,104807,1,2,0:0:0:0:
182,192,104807,1,0,0:0:0:0:
36,192,104994,1,0,0:0:0:0:
109,192,105182,1,0,0:0:0:0:
182,192,105369,1,0,0:0:0:0:
329,192,105369,1,2,0:0:0:0:
109,192,105557,1,0,0:0:0:0:
402,192,105744,1,0,0:0:0:0:
182,192,105744,1,2,0:0:0:0:
329,192,105932,1,0,0:0:0:0:
256,192,106119,1,0,0:0:0:0:
402,192,106307,1,0,0:0:0:0:
329,192,106494,1,0,0:0:0:0:
256,192,106682,1,0,0:0:0:0:
402,192,106869,1,0,0:0:0:0:
109,192,106869,1,2,0:0:0:0:
329,192,107057,1,0,0:0:0:0:
256,192,107244,1,0,0:0:0:0:
182,192,107244,1,2,0:0:0:0:
402,192,107432,1,0,0:0:0:0:
109,192,107432,1,2,0:0:0:0:
329,192,107619,1,0,0:0:0:0:
36,192,107807,1,2,0:0:0:0:
256,192,107807,1,0,0:0:0:0:
402,192,107994,1,0,0:0:0:0:
402,192,108182,1,0,0:0:0:0:
402,192,108369,1,0,0:0:0:0:
402,192,108557,1,0,0:0:0:0:
109,192,108557,1,2,0:0:0:0:
475,192,108744,1,0,0:0:0:0:
182,192,108744,1,2,0:0:0:0:
402,192,108932,1,0,0:0:0:0:
329,192,109119,1,0,0:0:0:0:
36,192,109119,1,2,0:0:0:0:
475,192,109307,1,0,0:0:0:0:
109,192,109307,1,2,0:0:0:0:
402,192,109494,1,0,0:0:0:0:
329,192,109682,1,0,0:0:0:0:
182,192,109869,1,2,0:0:0:0:
475,192,109869,1,0,0:0:0:0:
402,192,110057,1,0,0:0:0:0:
329,192,110244,1,0,0:0:0:0:
36,192,110244,1,2,0:0:0:0:
256,192,110244,1,0,0:0:0:0:
329,192,110432,1,0,0:0:0:0:
182,192,110432,1,0,0:0:0:0:
329,192,110619,1,0,0:0:0:0:
109,192,110619,1,0,0:0:0:0:
329,192,110807,1,0,0:0:0:0:
36,192,110807,1,0,0:0:0:0:
329,192,110994,1,0,0:0:0:0:
109,192,110994,1,0,0:0:0:0:
329,192,111182,1,0,0:0:0:0:
182,192,111182,1,0,0:0:0:0:
329,192,111369,128,0,111744:0:0:0:0:
256,192,111369,1,0,0:0:0:0:
182,192,111744,1,2,0:0:0:0:
36,192,111744,1,4,0:0:0:0:
402,192,112119,1,0,0:0:0:0:
109,192,112119,1,2,0:0:0:0:
329,192,112307,1,0,0:0:0:0:
182,192,112307,1,2,0:0:0:0:
109,192,112494,1,2,0:0:0:0:
402,192,112494,128,0,112869:0:0:0:0:
475,192,112869,1,0,0:0:0:0:
182,192,112869,1,2,0:0:0:0:
36,192,113057,1,2,0:0:0:0:
402,192,113057,128,0,113432:0:0:0:0:
109,192,113432,1,2,0:0:0:0:
329,192,113432,128,0,113807:0:0:0:0:
402,192,113807,1,0,0:0:0:0:
182,192,113807,1,2,0:0:0:0:
329,192,113994,1,0,0:0:0:0:
475,192,114182,1,0,0:0:0:0:
109,192,114182,1,2,0:0:0:0:
402,192,114369,1,0,0:0:0:0:
36,192,114557,1,2,0:0:0:0:
329,192,114557,128,0,115307:0:0:0:0:
109,192,115307,1,2,0:0:0:0:
182,192,115682,1,2,0:0:0:0:
329,192,115869,1,0,0:0:0:0:
402,192,116057,1,0,0:0:0:0:
256,192,116057,1,2,0:0:0:0:
475,192,116244,1,0,0:0:0:0:
329,192,116432,128,0,116807:0:0:0:0:
36,192,116807,1,2,0:0:0:0:
402,192,116807,128,0,117182:0:0:0:0:
182,192,117182,1,2,0:0:0:0:
475,192,117182,128,0,117557:0:0:0:0:
402,192,117557,1,0,0:0:0:0:
109,192,117744,1,2,0:0:0:0:
256,192,117744,1,4,0:0:0:0:
329,192,117744,128,0,118119:0:0:0:0:
402,192,118119,1,0,0:0:0:0:
475,192,118307,128,0,118869:0:0:0:0:
402,192,118869,1,0,0:0:0:0:
182,192,118869,1,2,0:0:0:0:
109,192,119057,1,2,0:0:0:0:
329,192,119057,128,0,119432:0:0:0:0:
402,192,119432,128,0,119807:0:0:0:0:
182,192,119807,1,2,0:0:0:0:
475,192,119807,128,0,120369:0:0:0:0:
329,192,120369,1,0,0:0:0:0:
256,192,120369,1,2,0:0:0:0:
402,192,120557,128,0,121119:0:0:0:0:
182,192,120744,1,4,0:0:0:0:
36,192,120744,1,2,0:0:0:0:
475,192,121119,1,0,0:0:0:0:
402,192,121307,128,0,121682:0:0:0:0:
475,192,121682,1,0,0:0:0:0:
109,192,121682,1,2,0:0:0:0:
402,192,121869,1,0,0:0:0:0:
182,192,121869,1,2,0:0:0:0:
256,192,122057,1,2,0:0:0:0:
329,192,122057,128,0,122994:0:0:0:0:
182,192,122432,1,2,0:0:0:0:
402,192,122432,1,0,3:0:0:0:
402,192,122619,1,0,3:0:0:0:
109,192,122807,1,2,0:0:0:0:
475,192,122994,1,0,0:0:0:0:
256,192,122994,1,0,1:0:0:0:
182,192,123088,1,0,1:0:0:0:
36,192,123182,1,2,0:0:0:0:
402,192,123182,1,0,0:0:0:0:
256,192,123182,1,0,1:0:0:0:
182,192,123275,1,0,1:0:0:0:
329,192,123369,1,0,0:0:0:0:
475,192,123369,1,8,0:0:0:0:
256,192,123557,1,0,0:0:0:0:
182,192,123557,1,0,1:0:0:0:
36,192,123744,1,0,0:0:0:0:
329,192,123744,1,4,0:0:0:0:
402,192,123744,1,0,0:0:0:0:
36,192,124307,1,2,0:0:0:0:
256,192,124307,1,0,0:0:0:0:
402,192,124307,1,0,0:0:0:0:
36,192,124682,1,2,0:0:0:0:
256,192,124869,1,0,0:0:0:0:
329,192,125057,1,2,0:0:0:0:
182,192,125057,1,0,0:0:0:0:
475,192,125057,1,4,0:0:0:0:
36,192,125432,1,0,0:0:0:0:
109,192,125619,1,0,0:0:0:0:
475,192,125807,1,4,0:0:0:0:
182,192,125807,1,0,0:0:0:0:
36,192,126182,1,0,3:0:0:0:
329,192,126182,1,0,0:0:0:0:
256,192,126369,1,0,0:0:0:0:
109,192,126369,1,0,1:0:0:0:
182,192,126557,1,0,0:0:0:0:
109,192,126744,1,4,0:0:0:0:
329,192,126744,1,2,0:0:0:0:
475,192,126744,1,0,0:0:0:0:
36,192,127307,1,8,0:0:0:0:
182,192,127682,1,0,1:0:0:0:
256,192,127682,1,2,0:0:0:0:
329,192,127869,1,2,0:0:0:0:
109,192,127869,1,0,1:0:0:0:
36,192,128057,1,4,0:0:0:0:
402,192,128057,1,2,0:0:0:0:
109,192,128432,1,0,1:0:0:0:
475,192,128432,1,2,0:0:0:0:
402,192,128619,1,2,0:0:0:0:
182,192,128619,1,8,0:0:0:0:
329,192,128807,1,2,0:0:0:0:
109,192,128807,1,0,1:0:0:0:
182,192,129182,1,0,3:0:0:0:
402,192,129182,1,2,0:0:0:0:
329,192,129369,1,2,0:0:0:0:
36,192,129369,1,0,3:0:0:0:
256,192,129557,1,2,0:0:0:0:
109,192,129744,1,4,0:0:0:0:
256,192,129744,1,0,0:0:0:0:
402,192,129744,1,2,0:0:0:0:
182,192,130119,1,0,1:0:0:0:
329,192,130119,1,2,0:0:0:0:
402,192,130307,1,0,0:0:0:0:
36,192,130307,1,0,1:0:0:0:
256,192,130307,1,2,0:0:0:0:
475,192,130682,1,0,0:0:0:0:
182,192,130682,1,0,1:0:0:0:
329,192,130682,1,2,0:0:0:0:
109,192,131057,1,4,0:0:0:0:
402,192,131057,1,2,0:0:0:0:
36,192,131432,1,8,0:0:0:0:
256,192,131432,1,2,0:0:0:0:
182,192,131619,1,0,1:0:0:0:
329,192,131807,1,2,0:0:0:0:
402,192,131807,1,0,0:0:0:0:
36,192,131994,1,0,1:0:0:0:
182,192,132088,1,0,1:0:0:0:
329,192,132182,1,2,0:0:0:0:
36,192,132182,1,0,3:0:0:0:
475,192,132182,1,0,0:0:0:0:
182,192,132275,1,0,3:0:0:0:
109,192,132369,1,0,1:0:0:0:
256,192,132463,1,0,1:0:0:0:
109,192,132557,1,0,3:0:0:0:
256,192,132650,1,0,3:0:0:0:
36,192,132744,1,0,1:0:0:0:
329,192,132744,1,0,0:0:0:0:
402,192,132744,1,2,0:0:0:0:
475,192,133119,1,8,0:0:0:0:
36,192,133307,1,0,1:0:0:0:
182,192,133682,1,0,0:0:0:0:
256,192,133682,1,2,0:0:0:0:
36,192,133682,1,0,1:0:0:0:
475,192,133869,1,8,0:0:0:0:
182,192,134057,1,0,0:0:0:0:
329,192,134057,1,2,0:0:0:0:
36,192,134057,1,0,1:0:0:0:
329,192,134432,1,2,0:0:0:0:
256,192,134432,1,0,0:0:0:0:
36,192,134432,1,0,1:0:0:0:
475,192,134619,1,8,0:0:0:0:
256,192,134807,1,0,0:0:0:0:
402,192,134807,1,2,0:0:0:0:
36,192,134807,1,0,1:0:0:0:
402,192,135182,1,0,0:0:0:0:
36,192,135182,1,0,1:0:0:0:
329,192,135182,1,2,0:0:0:0:
182,192,135369,1,0,0:0:0:0:
109,192,135369,1,2,0:0:0:0:
475,192,135369,1,8,0:0:0:0:
36,192,135557,1,0,1:0:0:0:
329,192,135557,1,2,0:0:0:0:
182,192,135744,1,2,0:0:0:0:
36,192,135744,1,0,1:0:0:0:
182,192,136119,1,2,0:0:0:0:
36,192,136119,1,0,0:0:0:0:
182,192,136494,1,2,0:0:0:0:
329,192,136494,1,0,0:0:0:0:
402,192,136682,1,0,0:0:0:0:
109,192,136682,1,2,0:0:0:0:
329,192,137057,1,2,0:0:0:0:
475,192,137057,1,0,0:0:0:0:
475,192,137432,1,0,1:0:0:0:
36,192,137432,1,0,0:0:0:0:
109,192,137619,1,0,3:0:0:0:
402,192,137619,1,0,0:0:0:0:
329,192,137807,1,0,1:0:0:0:
182,192,137807,1,0,0:0:0:0:
256,192,137994,1,8,0:0:0:0:
475,192,138182,1,0,1:0:0:0:
36,192,138275,1,0,1:0:0:0:
402,192,138369,1,0,1:0:0:0:
109,192,138463,1,0,1:0:0:0:
329,192,138557,1,0,3:0:0:0:
182,192,138650,1,0,3:0:0:0:
109,192,138744,128,2,139307:0:0:0:0:
256,192,138744,1,0,1:0:0:0:
36,192,139119,1,8,0:0:0:0:
182,192,139307,128,2,139869:0:0:0:0:
256,192,139682,1,0,1:0:0:0:
36,192,139869,1,8,0:0:0:0:
329,192,139869,128,2,140244:0:0:0:0:
182,192,140244,128,2,140807:0:0:0:0:
256,192,140244,1,0,1:0:0:0:
256,192,140525,1,0,1:0:0:0:
36,192,140619,1,8,0:0:0:0:
329,192,140807,128,2,141369:0:0:0:0:
256,192,140807,1,0,1:0:0:0:
256,192,141182,1,0,1:0:0:0:
402,192,141369,128,2,141744:0:0:0:0:
36,192,141369,1,8,0:0:0:0:
475,192,141744,128,2,142119:0:0:0:0:
256,192,141744,1,0,1:0:0:0:
256,192,142026,1,0,1:0:0:0:
36,192,142119,1,8,0:0:0:0:
329,192,142119,128,2,142494:0:0:0:0:
402,192,142494,128,2,142869:0:0:0:0:
256,192,142682,1,0,1:0:0:0:
36,192,142869,1,8,0:0:0:0:
182,192,142869,128,2,143244:0:0:0:0:
256,192,143244,1,0,1:0:0:0:
329,192,143244,128,2,144744:0:0:0:0:
256,192,143526,1,0,1:0:0:0:
36,192,143619,1,8,0:0:0:0:
256,192,143807,1,0,1:0:0:0:
256,192,144182,1,0,1:0:0:0:
36,192,144369,1,8,0:0:0:0:
182,192,144744,128,2,145307:0:0:0:0:
256,192,144744,1,0,1:0:0:0:
36,192,145119,1,8,0:0:0:0:
329,192,145307,128,2,145869:0:0:0:0:
256,192,145682,1,0,1:0:0:0:
402,192,145869,128,2,146244:0:0:0:0:
36,192,145869,1,8,0:0:0:0:
109,192,146244,128,2,146807:0:0:0:0:
256,192,146244,1,0,1:0:0:0:
256,192,146526,1,0,1:0:0:0:
36,192,146619,1,8,0:0:0:0:
256,192,146807,1,0,1:0:0:0:
182,192,146807,128,2,147369:0:0:0:0:
256,192,147182,1,0,1:0:0:0:
36,192,147369,1,8,0:0:0:0:
329,192,147369,128,2,147744:0:0:0:0:
256,192,147744,1,0,1:0:0:0:
475,192,147744,128,2,148119:0:0:0:0:
256,192,148026,1,0,1:0:0:0:
182,192,148119,128,2,148494:0:0:0:0:
36,192,148119,1,8,0:0:0:0:
402,192,148494,128,2,148869:0:0:0:0:
256,192,148682,1,0,1:0:0:0:
109,192,148869,128,2,149244:0:0:0:0:
36,192,148869,1,8,0:0:0:0:
256,192,149057,1,0,1:0:0:0:
329,192,149244,128,2,150744:0:0:0:0:
256,192,149432,1,0,1:0:0:0:
36,192,149619,1,8,0:0:0:0:
256,192,149807,1,0,1:0:0:0:
36,192,149994,1,0,1:0:0:0:
182,192,150088,1,0,1:0:0:0:
475,192,150182,1,0,1:0:0:0:
256,192,150276,1,0,1:0:0:0:
109,192,150369,1,0,3:0:0:0:
182,192,150463,1,0,3:0:0:0:
402,192,150557,1,0,3:0:0:0:
256,192,150651,1,0,3:0:0:0:
36,192,150744,1,0,1:0:0:0:
402,192,150744,128,2,151307:0:0:0:0:
256,192,151119,1,8,0:0:0:0:
182,192,151307,128,2,151682:0:0:0:0:
36,192,151682,1,0,1:0:0:0:
329,192,151682,128,2,152057:0:0:0:0:
256,192,151869,1,8,0:0:0:0:
109,192,152057,128,2,152807:0:0:0:0:
36,192,152244,1,0,1:0:0:0:
36,192,152526,1,0,1:0:0:0:
256,192,152619,1,8,0:0:0:0:
475,192,152807,128,2,153182:0:0:0:0:
36,192,152807,1,0,1:0:0:0:
402,192,153182,128,2,153557:0:0:0:0:
36,192,153182,1,0,1:0:0:0:
256,192,153369,1,8,0:0:0:0:
329,192,153557,1,2,0:0:0:0:
475,192,153744,1,2,0:0:0:0:
36,192,153744,1,0,1:0:0:0:
329,192,153932,1,2,0:0:0:0:
36,192,154026,1,0,1:0:0:0:
402,192,154119,1,2,0:0:0:0:
256,192,154119,1,8,0:0:0:0:
475,192,154307,128,2,154682:0:0:0:0:
36,192,154682,1,0,1:0:0:0:
402,192,154682,128,2,155057:0:0:0:0:
256,192,154869,1,8,0:0:0:0:
329,192,155057,1,2,0:0:0:0:
36,192,155244,1,0,1:0:0:0:
182,192,155244,1,2,0:0:0:0:
329,192,155432,1,2,0:0:0:0:
36,192,155526,1,0,1:0:0:0:
402,192,155619,128,2,156182:0:0:0:0:
256,192,155619,1,8,0:0:0:0:
36,192,155807,1,0,1:0:0:0:
36,192,156182,1,0,1:0:0:0:
329,192,156182,128,2,156744:0:0:0:0:
256,192,156369,1,8,0:0:0:0:
36,192,156557,1,0,1:0:0:0:
36,192,156744,1,0,1:0:0:0:
182,192,156744,128,2,157307:0:0:0:0:
256,192,157119,1,8,0:0:0:0:
329,192,157307,128,2,157682:0:0:0:0:
36,192,157682,1,0,1:0:0:0:
402,192,157682,128,2,158057:0:0:0:0:
256,192,157869,1,8,0:0:0:0:
182,192,158057,128,2,158807:0:0:0:0:
36,192,158244,1,0,1:0:0:0:
36,192,158526,1,0,1:0:0:0:
256,192,158619,1,8,0:0:0:0:
475,192,158807,128,2,159182:0:0:0:0:
36,192,158807,1,0,1:0:0:0:
36,192,159182,1,0,1:0:0:0:
402,192,159182,128,2,159557:0:0:0:0:
256,192,159369,1,8,0:0:0:0:
182,192,159557,1,2,0:0:0:0:
475,192,159744,1,2,0:0:0:0:
36,192,159744,1,0,1:0:0:0:
402,192,159932,1,2,0:0:0:0:
36,192,160026,1,0,1:0:0:0:
256,192,160119,1,8,0:0:0:0:
329,192,160119,1,2,0:0:0:0:
182,192,160307,128,2,160682:0:0:0:0:
329,192,160682,128,2,161057:0:0:0:0:
36,192,160682,1,0,1:0:0:0:
256,192,160869,1,8,0:0:0:0:
36,192,161057,1,0,1:0:0:0:
402,192,161057,128,2,161432:0:0:0:0:
36,192,161432,1,8,0:0:0:0:
256,192,161432,128,2,161807:0:0:0:0:
182,192,161619,1,8,0:0:0:0:
329,192,161807,128,2,162182:0:0:0:0:
36,192,161807,1,0,1:0:0:0:
256,192,161994,1,0,1:0:0:0:
109,192,162088,1,0,1:0:0:0:
182,192,162182,1,0,1:0:0:0:
475,192,162182,128,2,162744:0:0:0:0:
36,192,162276,1,0,1:0:0:0:
329,192,162369,1,0,3:0:0:0:
182,192,162463,1,0,3:0:0:0:
402,192,162557,1,0,3:0:0:0:
256,192,162651,1,0,3:0:0:0:
36,192,162744,1,0,1:0:0:0:
