osu file format v12

[General]
AudioFilename: Flower Flag.mp3
AudioLeadIn: 2500
PreviewTime: -1
Countdown: 0
SampleSet: Soft
StackLeniency: 0.7
Mode: 3
LetterboxInBreaks: 1

[Editor]
DistanceSpacing: 1.4
BeatDivisor: 4
GridSize: 16

[Metadata]
Title:Flower Flag
TitleUnicode:Flower Flag
Artist:FELT
ArtistUnicode:FELT
Creator:Entozer
Version:Easy
Source:touhou
Tags:Yuyuko Saigyouji
BeatmapID:224695
BeatmapSetID:80831

[Difficulty]
HPDrainRate:4
CircleSize:7
OverallDifficulty:7
ApproachRate:5
SliderMultiplier:1.4
SliderTickRate:1

[Events]
//Background and Video events
0,0,"bg.jpg",1,1
//Break Periods
//Storyboard Layer 0 (Background)
//Storyboard Layer 1 (Fail)
//Storyboard Layer 2 (Pass)
//Storyboard Layer 3 (Foreground)
//Storyboard Sound Samples
//Background Colour Transformations
3,100,163,162,255

[TimingPoints]
745,374.99900373599,4,2,0,40,1,0

[HitObjects]
182,192,744,1,2,0:0:0:0:
329,192,1307,1,2,0:0:0:0:
402,192,1869,1,2,0:0:0:0:
109,192,2244,1,2,0:0:0:0:
329,192,2807,1,2,0:0:0:0:
402,192,3369,1,2,0:0:0:0:
256,192,3744,1,2,0:0:0:0:
36,192,4119,1,2,0:0:0:0:
402,192,4307,1,2,0:0:0:0:
182,192,4682,1,2,0:0:0:0:
329,192,5057,1,2,0:0:0:0:
402,192,5432,1,2,0:0:0:0:
475,192,5807,1,2,0:0:0:0:
182,192,6182,1,2,0:0:0:0:
256,192,6744,1,2,0:0:0:0:
36,192,7119,1,2,0:0:0:0:
475,192,7307,1,2,0:0:0:0:
182,192,8807,1,2,0:0:0:0:
329,192,9369,1,2,0:0:0:0:
256,192,9744,1,2,0:0:0:0:
109,192,10119,1,2,0:0:0:0:
402,192,10307,1,2,0:0:0:0:
329,192,10682,1,2,0:0:0:0:
182,192,11057,1,4,0:0:0:0:
475,192,11432,1,2,3:0:0:0:
36,192,11619,1,4,2:0:0:0:
256,192,11994,128,2,12744:0:0:0:0:
182,192,12744,1,2,0:0:0:0:
329,192,13307,1,2,0:0:0:0:
402,192,13869,1,2,0:0:0:0:
182,192,14244,1,2,0:0:0:0:
329,192,14807,1,2,0:0:0:0:
402,192,15369,1,2,0:0:0:0:
475,192,15744,1,2,0:0:0:0:
329,192,16119,1,2,0:0:0:0:
402,192,16494,1,2,0:0:0:0:
256,192,16869,1,2,0:0:0:0:
329,192,17244,1,2,0:0:0:0:
109,192,18744,1,2,0:0:0:0:
182,192,19307,1,2,0:0:0:0:
329,192,19869,1,2,0:0:0:0:
36,192,20244,1,2,0:0:0:0:
182,192,20807,1,2,0:0:0:0:
402,192,21369,1,2,0:0:0:0:
256,192,21744,1,2,0:0:0:0:
329,192,22307,1,2,0:0:0:0:
475,192,22869,1,2,0:0:0:0:
256,192,23057,128,2,24744:0:0:0:0:
36,192,24744,1,0,0:0:0:0:
109,192,25307,1,0,0:0:0:0:
182,192,25682,1,0,0:0:0:0:
329,192,26244,1,0,0:0:0:0:
475,192,26807,1,0,0:0:0:0:
402,192,27182,1,0,0:0:0:0:
36,192,27744,1,0,0:0:0:0:
182,192,28869,1,0,0:0:0:0:
109,192,29244,1,0,0:0:0:0:
402,192,29807,1,0,0:0:0:0:
109,192,30369,1,0,0:0:0:0:
36,192,30744,1,0,0:0:0:0:
329,192,31869,1,0,0:0:0:0:
402,192,32244,1,0,0:0:0:0:
329,192,32807,1,0,0:0:0:0:
182,192,33744,1,0,0:0:0:0:
329,192,34307,1,0,0:0:0:0:
256,192,34869,1,0,0:0:0:0:
402,192,35244,1,0,0:0:0:0:
109,192,36744,128,0,39744:0:0:0:0:
182,192,39744,128,0,41244:0:0:0:0:
402,192,41244,1,0,0:0:0:0:
329,192,41807,1,0,0:0:0:0:
475,192,42369,1,0,0:0:0:0:
402,192,42744,128,0,43869:0:0:0:0:
329,192,43869,1,0,0:0:0:0:
256,192,44057,1,0,0:0:0:0:
182,192,44244,1,0,0:0:0:0:
109,192,44807,1,0,0:0:0:0:
36,192,45369,1,0,0:0:0:0:
256,192,45744,1,0,0:0:0:0:
256,192,47057,1,0,0:0:0:0:
36,192,47432,1,0,0:0:0:0:
475,192,47619,1,0,0:0:0:0:
402,192,47994,1,0,0:0:0:0:
329,192,48182,1,0,0:0:0:0:
182,192,48369,1,0,0:0:0:0:
109,192,48557,1,0,0:0:0:0:
36,192,48744,1,4,0:0:0:0:
109,192,49307,1,4,0:0:0:0:
182,192,50057,1,4,0:0:0:0:
256,192,51744,1,4,0:0:0:0:
182,192,52682,1,0,0:0:0:0:
329,192,52869,1,2,0:0:0:0:
402,192,53057,1,2,0:0:0:0:
475,192,53432,1,2,0:0:0:0:
329,192,53619,1,2,0:0:0:0:
182,192,53807,1,2,0:0:0:0:
36,192,54744,1,0,0:0:0:0:
475,192,54744,1,4,0:0:0:0:
109,192,56057,1,0,0:0:0:0:
402,192,56057,1,4,0:0:0:0:
329,192,57744,1,4,0:0:0:0:
182,192,57744,1,0,0:0:0:0:
182,192,58682,1,2,0:0:0:0:
329,192,59057,1,2,0:0:0:0:
402,192,59432,1,2,0:0:0:0:
475,192,59807,1,2,0:0:0:0:
402,192,60182,1,2,0:0:0:0:
329,192,60369,1,2,0:0:0:0:
256,192,60744,1,0,1:0:0:0:
256,192,61119,1,0,1:0:0:0:
256,192,61494,1,0,1:0:0:0:
256,192,61869,1,0,1:0:0:0:
256,192,62244,128,0,63744:1:0:0:0:
182,192,63744,1,4,0:0:0:0:
475,192,64119,1,8,0:0:0:0:
475,192,64869,1,8,0:0:0:0:
109,192,65244,1,0,0:0:0:0:
402,192,65619,1,8,0:0:0:0:
402,192,66369,1,8,0:0:0:0:
36,192,66744,1,0,0:0:0:0:
329,192,67119,1,8,0:0:0:0:
329,192,67869,1,8,0:0:0:0:
109,192,68244,1,0,0:0:0:0:
256,192,68619,1,8,0:0:0:0:
256,192,69369,1,8,0:0:0:0:
329,192,69744,1,4,0:0:0:0:
36,192,70119,1,8,0:0:0:0:
36,192,70869,1,8,0:0:0:0:
402,192,71244,1,0,0:0:0:0:
109,192,71619,1,8,0:0:0:0:
109,192,72369,1,8,0:0:0:0:
475,192,72744,1,4,0:0:0:0:
182,192,73119,1,8,0:0:0:0:
182,192,73869,1,8,0:0:0:0:
256,192,74057,1,4,0:0:0:0:
256,192,74619,1,8,0:0:0:0:
256,192,74994,1,0,1:0:0:0:
256,192,75369,1,0,1:0:0:0:
182,192,75744,1,4,0:0:0:0:
329,192,76119,1,8,0:0:0:0:
402,192,76869,1,8,0:0:0:0:
109,192,77244,1,0,0:0:0:0:
329,192,77619,1,8,0:0:0:0:
402,192,78369,1,8,0:0:0:0:
36,192,78744,1,0,0:0:0:0:
329,192,79119,1,8,0:0:0:0:
402,192,79869,1,8,0:0:0:0:
109,192,80244,1,0,0:0:0:0:
329,192,80619,1,8,0:0:0:0:
402,192,81369,1,8,0:0:0:0:
329,192,81744,1,4,0:0:0:0:
182,192,82119,1,8,0:0:0:0:
109,192,82869,1,8,0:0:0:0:
402,192,83244,1,0,0:0:0:0:
182,192,83619,1,8,0:0:0:0:
109,192,84369,1,8,0:0:0:0:
475,192,84744,1,4,0:0:0:0:
182,192,85119,1,8,0:0:0:0:
109,192,85869,1,8,0:0:0:0:
256,192,86057,1,4,0:0:0:0:
256,192,86619,1,8,0:0:0:0:
256,192,86994,1,0,1:0:0:0:
256,192,87369,1,0,1:0:0:0:
182,192,87744,1,2,0:0:0:0:
329,192,88307,1,2,0:0:0:0:
402,192,88869,1,2,0:0:0:0:
182,192,89244,1,2,0:0:0:0:
329,192,89807,1,2,0:0:0:0:
402,192,90369,1,2,0:0:0:0:
475,192,90744,1,2,0:0:0:0:
182,192,91119,1,2,0:0:0:0:
329,192,91494,1,2,0:0:0:0:
36,192,91869,1,2,0:0:0:0:
256,192,92244,1,2,0:0:0:0:
109,192,93744,1,2,0:0:0:0:
182,192,94307,1,2,0:0:0:0:
329,192,94869,1,2,0:0:0:0:
36,192,95244,1,2,0:0:0:0:
182,192,95807,1,2,0:0:0:0:
329,192,96369,1,2,0:0:0:0:
182,192,96744,1,2,0:0:0:0:
329,192,97307,1,2,0:0:0:0:
475,192,97869,1,2,0:0:0:0:
256,192,98619,1,0,1:0:0:0:
256,192,98994,1,0,1:0:0:0:
182,192,99182,1,0,1:0:0:0:
109,192,99369,1,0,1:0:0:0:
36,192,99744,1,0,0:0:0:0:
109,192,100307,1,0,0:0:0:0:
182,192,100682,1,0,0:0:0:0:
329,192,101244,1,0,0:0:0:0:
475,192,101807,1,0,0:0:0:0:
402,192,102182,1,0,0:0:0:0:
36,192,102744,1,0,0:0:0:0:
182,192,103869,1,0,0:0:0:0:
109,192,104244,1,0,0:0:0:0:
402,192,104807,1,0,0:0:0:0:
109,192,105369,1,0,1:0:0:0:
36,192,105744,1,4,0:0:0:0:
329,192,106869,1,0,0:0:0:0:
402,192,107244,1,0,0:0:0:0:
329,192,107807,1,0,0:0:0:0:
182,192,108369,1,0,0:0:0:0:
36,192,108744,1,0,0:0:0:0:
109,192,109119,1,0,0:0:0:0:
182,192,109494,1,0,0:0:0:0:
329,192,109869,1,0,0:0:0:0:
402,192,110244,1,0,0:0:0:0:
475,192,110619,1,0,0:0:0:0:
402,192,110994,1,0,1:0:0:0:
329,192,111182,1,0,1:0:0:0:
182,192,111369,1,0,1:0:0:0:
109,192,111557,1,0,3:0:0:0:
36,192,111744,1,4,0:0:0:0:
256,192,113057,1,4,0:0:0:0:
402,192,113807,1,0,0:0:0:0:
329,192,114182,1,0,0:0:0:0:
182,192,114557,1,0,0:0:0:0:
109,192,115307,1,0,0:0:0:0:
36,192,115682,1,0,0:0:0:0:
256,192,116057,1,0,0:0:0:0:
329,192,116807,1,0,0:0:0:0:
402,192,117182,1,0,0:0:0:0:
329,192,117744,1,0,0:0:0:0:
256,192,118307,1,0,0:0:0:0:
109,192,118682,1,0,0:0:0:0:
182,192,119057,1,0,0:0:0:0:
256,192,119432,1,0,1:0:0:0:
329,192,119807,1,0,0:0:0:0:
402,192,120182,1,0,0:0:0:0:
256,192,120369,1,0,0:0:0:0:
36,192,120744,1,0,0:0:0:0:
256,192,121307,1,0,0:0:0:0:
475,192,122057,1,0,0:0:0:0:
402,192,122432,1,0,0:0:0:0:
329,192,122807,1,0,0:0:0:0:
256,192,123182,1,0,0:0:0:0:
36,192,123744,1,4,0:0:0:0:
109,192,124307,1,4,0:0:0:0:
182,192,125057,1,4,0:0:0:0:
475,192,126744,1,4,0:0:0:0:
36,192,128057,1,4,0:0:0:0:
182,192,129744,1,4,0:0:0:0:
256,192,130307,1,0,1:0:0:0:
329,192,130682,1,0,1:0:0:0:
109,192,131057,1,4,0:0:0:0:
182,192,131432,1,0,1:0:0:0:
329,192,131619,1,0,1:0:0:0:
256,192,131994,128,0,132744:1:0:0:0:
36,192,132744,1,4,0:0:0:0:
182,192,133119,1,0,0:0:0:0:
182,192,133869,1,0,0:0:0:0:
329,192,134619,1,0,0:0:0:0:
329,192,135369,1,0,0:0:0:0:
36,192,135744,1,0,0:0:0:0:
109,192,136119,1,0,0:0:0:0:
182,192,136494,1,0,0:0:0:0:
256,192,136869,1,0,0:0:0:0:
329,192,137432,1,0,0:0:0:0:
402,192,137619,1,0,0:0:0:0:
475,192,137994,128,0,138744:0:0:0:0:
182,192,138744,1,2,0:0:0:0:
329,192,139307,1,2,0:0:0:0:
402,192,139869,1,2,0:0:0:0:
182,192,140244,1,2,0:0:0:0:
329,192,140807,1,2,0:0:0:0:
402,192,141369,1,2,0:0:0:0:
475,192,141744,1,2,0:0:0:0:
182,192,142119,1,2,0:0:0:0:
329,192,142494,1,2,0:0:0:0:
36,192,142869,1,2,0:0:0:0:
256,192,143244,1,2,0:0:0:0:
109,192,144744,1,2,0:0:0:0:
182,192,145307,1,2,0:0:0:0:
329,192,145869,1,2,0:0:0:0:
109,192,146244,1,2,0:0:0:0:
182,192,146807,1,2,0:0:0:0:
329,192,147369,1,2,0:0:0:0:
256,192,147744,1,4,0:0:0:0:
36,192,148119,1,8,0:0:0:0:
36,192,148869,1,8,0:0:0:0:
256,192,149057,1,4,2:0:0:0:
256,192,149619,1,0,0:0:0:0:
182,192,149994,1,0,1:0:0:0:
256,192,150369,1,0,1:0:0:0:
329,192,150744,1,4,0:0:0:0:
36,192,151119,1,8,0:0:0:0:
36,192,151869,1,8,0:0:0:0:
402,192,152244,1,0,0:0:0:0:
109,192,152619,1,8,0:0:0:0:
109,192,153369,1,8,0:0:0:0:
475,192,153744,1,0,0:0:0:0:
182,192,154119,1,8,0:0:0:0:
182,192,154869,1,8,0:0:0:0:
402,192,155244,1,0,0:0:0:0:
256,192,155619,1,8,0:0:0:0:
256,192,156369,1,8,0:0:0:0:
182,192,156744,1,4,0:0:0:0:
475,192,157119,1,8,0:0:0:0:
475,192,157869,1,8,0:0:0:0:
109,192,158244,1,0,0:0:0:0:
402,192,158619,1,8,0:0:0:0:
402,192,159369,1,8,0:0:0:0:
36,192,159744,1,4,0:0:0:0:
329,192,160119,1,8,0:0:0:0:
329,192,160869,1,8,0:0:0:0:
256,192,161057,1,4,0:0:0:0:
475,192,161432,1,0,0:0:0:0:
402,192,161807,1,0,0:0:0:0:
329,192,162182,128,0,162744:0:0:0:0:
256,192,162744,1,4,0:0:0:0:
