osu file format v14

[General]
AudioFilename: (03) [FELT] Crumbling.mp3
AudioLeadIn: 0
PreviewTime: 173396
Countdown: 0
SampleSet: Normal
StackLeniency: 0.5
Mode: 0
LetterboxInBreaks: 1
WidescreenStoryboard: 1

[Editor]
DistanceSpacing: 1
BeatDivisor: 4
GridSize: 4
TimelineZoom: 1

[Metadata]
Title:Crumbling
TitleUnicode:Crumbling
Artist:FELT
ArtistUnicode:FELT
Creator:happy30
Version:Broken
Source:東方Project
Tags:renko vivienne w.nova Maurits"禅"Cornelis Grow Color C85 魔界地方都市エソテリア / Rural Makai City Esoteria 東方星蓮船 ~ Undefined Fantastic Object, stage 5 theme ZUN
BeatmapID:703275
BeatmapSetID:315451

[Difficulty]
HPDrainRate:7
CircleSize:4
OverallDifficulty:8
ApproachRate:9
SliderMultiplier:1.8
SliderTickRate:1

[Events]
//Background and Video events
0,0,"wallpaper-2810285.jpg",0,0
//Break Periods
2,67349,77563
2,198712,206284
2,298479,312679
//Storyboard Layer 0 (Background)
//Storyboard Layer 1 (Fail)
//Storyboard Layer 2 (Pass)
//Storyboard Layer 3 (Foreground)
//Storyboard Sound Samples

[TimingPoints]
373,348.837209302326,4,3,1,70,1,0
77814,-100,4,1,1,70,0,0
103803,-133.333333333333,4,1,1,70,0,0
105024,-133.333333333333,4,1,1,45,0,0
125954,-200,4,1,1,45,0,0
127349,-100,4,1,1,70,0,0
149675,-133.333333333333,4,3,1,92,0,0
160838,-100,4,3,1,92,0,0
171652,-200,4,1,1,92,0,0
172524,-100,4,1,1,92,0,0
173396,-83.3333333333333,4,1,1,100,0,1
195721,-83.3333333333333,4,1,1,70,0,0
207931,-133.333333333333,4,1,1,70,0,0
210721,-200,4,1,1,70,0,0
211768,-100,4,1,1,70,0,0
229210,-133.333333333333,4,1,1,70,0,0
240373,-100,4,1,1,70,0,0
252931,-83.3333333333333,4,1,1,100,0,1
275256,-133.333333333333,4,1,1,70,0,0
276652,-100,4,1,1,70,0,0
277000,-133.333333333333,4,1,1,70,0,0
298279,348.837209302326,4,1,1,70,1,0
328976,-125,4,2,1,60,0,0
340139,-111.111111111111,4,2,1,70,0,0
348511,-100,4,1,1,70,0,0
348860,-100,4,1,1,40,0,0
349034,-100,4,1,1,45,0,0
349209,-100,4,1,1,50,0,0
349383,-100,4,1,1,55,0,0
349558,-100,4,1,1,60,0,0
349732,-100,4,1,1,65,0,0
349906,-100,4,1,1,70,0,0
352697,-100,4,1,1,70,0,1
354441,-133.333333333333,4,1,1,70,0,0
355052,-83.3333333333333,4,1,1,70,0,0
355488,-83.3333333333333,4,1,1,100,0,1
373453,-133.333333333333,4,1,1,100,0,1
374151,-83.3333333333333,4,1,1,100,0,1
375023,-100,4,1,1,70,0,0

[Colours]
Combo1 : 255,255,128
Combo2 : 0,255,128
Combo3 : 0,128,255
Combo4 : 242,24,57

[HitObjects]
184,104,22698,6,0,P|208:152|224:192,1,90,4|0,0:2|0:0,0:0:0:0:
227,198,22960,2,0,L|328:216,1,90
408,152,23221,2,0,L|307:134,1,90
168,288,23570,1,0,0:0:0:0:
162,275,23657,2,0,P|120:232|80:216,1,90
80,216,23919,2,0,L|56:168,2,45
256,288,24268,1,0,0:0:0:0:
262,301,24355,2,0,P|304:344|392:328,1,135
360,248,24791,6,0,P|384:200|400:160,1,90,2|0,0:0|0:0,0:0:0:0:
403,154,25053,2,0,L|504:136,1,90
456,64,25314,2,0,L|355:82,1,90
208,120,25663,1,0,0:0:0:0:
214,133,25750,2,0,P|256:176|296:192,1,90
296,192,26012,2,0,L|320:240,2,45
440,296,26361,1,0,0:0:0:0:
434,309,26448,2,0,P|392:352|304:336,1,135
224,344,26884,6,0,P|200:296|184:256,1,90,2|0,0:0|0:0,0:0:0:0:
181,250,27146,2,0,L|80:232,1,90
0,296,27407,2,0,L|101:314,1,90,0|0,0:0|1:0,0:0:0:0:
272,232,27756,1,0,0:0:0:0:
285,226,27843,2,0,P|328:184|344:144,1,90
344,144,28105,2,0,L|392:120,2,45,0|0|0,0:0|0:0|1:0,0:0:0:0:
240,24,28454,1,0,0:0:0:0:
227,30,28541,2,0,P|184:72|200:160,1,135
344,144,28977,6,0,P|368:192|384:232,1,90,0|0,1:0|0:0,0:0:0:0:
387,238,29239,2,0,L|488:256,1,90
440,328,29500,2,0,L|339:310,1,90,0|0,0:0|1:0,0:0:0:0:
192,272,29849,1,0,0:0:0:0:
198,259,29936,2,0,P|240:216|280:200,1,90
280,200,30198,2,0,L|304:152,2,45,0|0|0,0:0|0:0|1:0,0:0:0:0:
424,96,30547,1,0,0:0:0:0:
418,83,30634,2,0,P|376:40|288:56,1,135,0|2,0:0|0:0,0:0:0:0:
96,264,31070,6,0,P|144:240|184:224,1,90,0|0,1:0|0:0,0:0:0:0:
190,221,31332,2,0,L|208:120,1,90
144,40,31593,2,0,L|126:141,1,90,0|0,0:0|1:0,0:0:0:0:
272,264,31942,1,0,1:0:0:0:
275,277,32029,1,0,1:0:0:0:
280,289,32117,2,0,L|272:335,2,45,0|0|0,1:0|1:0|1:0,1:0:0:0:
365,260,32466,6,0,P|411:245|470:230,1,90,4|0,1:0|0:0,0:0:0:0:
468,227,32727,1,0,0:0:0:0:
485,221,32814,1,0,1:0:0:0:
354,174,32989,1,0,0:0:0:0:
336,177,33076,2,0,P|307:112|318:59,1,90,0|0,1:0|0:0,0:0:0:0:
312,80,33338,1,0,1:0:0:0:
162,193,33599,2,0,P|106:202|51:227,1,90,0|0,1:0|0:0,0:0:0:0:
60,222,33861,2,0,L|47:338,1,90,0|0,1:0|0:0,0:0:0:0:
135,376,34210,2,0,L|148:260,1,90
6,150,34559,2,0,L|11:100,2,45,0|0|0,1:0|1:0|1:0,0:0:0:0:
235,69,34907,1,0,1:0:0:0:
111,133,35082,1,2,0:0:0:0:
195,243,35256,6,0,P|232:281|251:322,1,90,0|0,1:0|0:0,0:0:0:0:
251,331,35518,1,0,0:0:0:0:
253,348,35605,1,0,1:0:0:0:
323,230,35779,2,0,P|389:206|481:211,1,135,0|0,1:0|0:0,0:0:0:0:
470,208,36128,2,0,L|482:138,2,45,0|0|0,1:0|1:0|1:0,0:0:0:0:
411,122,36477,1,2,0:0:0:0:
414,109,36564,2,0,P|386:60|326:6,1,135,0|0,1:0|0:0,0:0:0:0:
199,235,37000,2,0,L|187:305,2,45,0|0|0,1:0|1:0|1:0,0:0:0:0:
136,176,37349,6,0,P|104:144|48:120,1,90,4|0,1:0|0:0,0:0:0:0:
48,112,37611,2,0,L|40:0,1,90,0|0,1:0|0:0,0:0:0:0:
128,48,37873,2,0,L|136:160,1,90,0|0,1:0|0:0,0:0:0:0:
48,352,38221,2,0,P|32:312|40:240,1,90,0|0,1:0|1:0,0:0:0:0:
37,248,38483,1,0,1:0:0:0:
46,232,38570,1,0,1:0:0:0:
144,304,38745,2,0,P|184:324|215:355,1,90,0|0,1:0|0:0,0:0:0:0:
232,376,39006,2,0,P|296:336|360:328,1,135,0|0,1:0|0:0,0:0:0:0:
426,274,39442,2,0,L|475:261,2,45,0|0|0,1:0|1:0|1:0,0:0:0:0:
352,216,39791,5,4,1:2:0:0:
354,218,41186,5,0,1:0:0:0:
438,185,41361,1,0,1:0:0:0:
256,320,41623,1,0,1:0:0:0:
74,185,41884,1,0,1:0:0:0:
63,176,41971,1,0,1:0:0:0:
51,168,42059,1,0,1:0:0:0:
41,158,42146,1,0,1:0:0:0:
30,149,42233,6,0,L|16:59,1,90,4|0,1:0|0:0,0:0:0:0:
102,146,42495,2,0,L|116:236,1,90,0|0,1:0|0:0,0:0:0:0:
119,252,42756,2,0,P|165:267|212:253,1,90,0|0,1:0|0:0,0:0:0:0:
210,245,43018,1,0,0:0:0:0:
216,232,43105,2,0,L|336:208,1,90,0|0,1:0|0:0,0:0:0:0:
345,206,43367,1,0,1:0:0:0:
383,228,43454,1,0,1:0:0:0:
403,267,43541,1,0,1:0:0:0:
393,310,43628,1,0,1:0:0:0:
232,144,43803,1,0,0:0:0:0:
239,129,43890,2,0,L|392:96,1,135,0|0,1:0|0:0,0:0:0:0:
216,48,44326,5,0,1:0:0:0:
216,48,44413,1,0,1:0:0:0:
432,160,44588,1,0,1:0:0:0:
432,160,44675,1,0,1:0:0:0:
144,176,44849,1,0,1:0:0:0:
264,352,45024,2,0,L|248:256,1,90,0|0,1:0|0:0,0:0:0:0:
247,251,45285,1,0,1:0:0:0:
304,128,45460,1,0,1:0:0:0:
304,128,45547,2,0,L|336:272,1,135
337,273,45896,1,0,1:0:0:0:
216,112,46070,2,0,P|160:88|112:88,1,90,0|0,1:0|0:0,0:0:0:0:
0,232,46419,2,0,P|56:256|104:256,1,90
98,258,46681,1,0,0:0:0:0:
110,252,46768,2,0,L|123:192,1,45,0|0,1:0|1:0,0:0:0:0:
195,254,46942,2,0,L|210:358,1,90,0|4,1:0|1:0,0:0:0:0:
207,343,47466,5,0,1:0:0:0:
273,224,47640,1,0,1:0:0:0:
269,210,47727,1,0,1:0:0:0:
430,156,47902,1,0,1:0:0:0:
426,170,47989,1,0,1:0:0:0:
365,313,48163,2,0,L|321:298,2,45
379,320,48425,2,0,L|453:297,1,45,0|0,1:0|1:0,0:0:0:0:
194,252,48686,2,0,L|120:275,1,45,0|0,1:0|1:0,0:0:0:0:
14,226,48948,1,0,0:0:0:0:
26,221,49035,2,0,L|137:191,1,90,0|0,1:0|1:0,0:0:0:0:
128,192,49297,1,0,1:0:0:0:
118,25,49471,5,0,0:0:0:0:
104,32,49559,2,0,P|83:76|86:120,1,90,0|0,1:0|0:0,0:0:0:0:
212,166,49907,1,0,1:0:0:0:
325,91,50082,1,0,0:0:0:0:
335,80,50169,2,0,L|431:61,1,90,0|0,1:0|0:0,0:0:0:0:
509,125,50431,2,0,L|413:144,1,90,0|0,1:0|0:0,0:0:0:0:
278,233,50779,1,0,1:0:0:0:
268,248,50867,1,0,1:0:0:0:
263,265,50954,1,0,1:0:0:0:
306,344,51128,5,4,1:2:0:0:
63,226,51390,1,4,1:0:0:0:
336,161,51652,2,0,P|349:102|341:67,1,90,0|0,1:0|0:0,0:0:0:0:
250,17,52000,1,0,1:0:0:0:
206,3,52088,1,0,1:0:0:0:
162,15,52175,1,0,0:0:0:0:
129,45,52262,1,0,0:0:0:0:
116,88,52349,1,0,0:0:0:0:
125,131,52436,1,0,0:0:0:0:
157,162,52524,2,0,L|203:184,1,45,0|0,1:0|1:0,0:0:0:0:
167,252,52698,5,0,0:0:0:0:
208,269,52785,1,0,0:0:0:0:
253,264,52873,1,0,0:0:0:0:
286,233,52960,1,0,0:0:0:0:
306,192,53047,1,0,1:0:0:0:
291,149,53134,1,0,1:0:0:0:
249,104,53221,5,0,1:0:0:0:
149,353,53483,1,0,1:0:0:0:
26,137,53745,1,0,1:0:0:0:
32,150,54006,1,0,1:0:0:0:
38,165,54268,6,0,P|120:128|173:195,1,180,4|0,1:0|0:0,0:0:0:0:
176,202,54704,1,0,0:0:0:0:
180,219,54791,1,0,3:0:0:0:
294,207,54966,1,0,3:0:0:0:
298,224,55053,1,0,3:0:0:0:
302,240,55140,1,0,3:0:0:0:
384,360,55314,2,0,L|397:262,1,90,0|0,1:0|0:0,0:0:0:0:
402,276,55576,1,0,0:0:0:0:
407,283,55663,1,0,1:0:0:0:
256,320,55838,1,0,1:0:0:0:
132,219,56012,1,0,1:0:0:0:
124,208,56099,2,0,L|5:180,1,90,0|0,1:0|1:0,1:0:0:0:
26,185,56361,1,0,0:0:0:0:
142,47,56535,1,0,1:0:0:0:
150,88,56623,1,0,1:0:0:0:
265,119,56797,1,0,1:0:0:0:
273,160,56885,1,4,1:0:0:0:
357,309,57059,6,0,P|378:243|401:219,1,90,0|0,0:0|1:0,0:0:0:0:
471,186,57407,1,0,1:0:0:0:
471,186,57495,1,0,1:0:0:0:
325,60,57669,1,0,1:0:0:0:
325,60,57756,1,0,1:0:0:0:
108,250,58105,1,4,1:2:0:0:
369,148,58454,1,0,1:0:0:0:
299,204,58628,1,0,1:0:0:0:
299,204,58716,1,0,1:0:0:0:
299,204,58803,1,0,1:0:0:0:
272,289,58977,1,0,1:0:0:0:
303,373,59152,5,0,0:0:0:0:
303,373,59239,1,0,0:0:0:0:
303,373,59326,1,0,0:0:0:0:
356,300,59500,1,0,1:0:0:0:
212,215,59675,2,0,P|171:199|114:196,1,90,0|0,1:0|0:0,0:0:0:0:
109,201,59936,1,0,0:0:0:0:
96,57,60111,1,0,0:0:0:0:
96,57,60198,2,0,L|104:117,1,45
31,150,60373,1,0,0:0:0:0:
2,188,60460,1,0,0:0:0:0:
1,227,60547,1,0,1:0:0:0:
20,266,60634,1,0,1:0:0:0:
54,282,60721,1,0,1:0:0:0:
104,368,60896,5,0,1:0:0:0:
408,304,61157,1,0,1:0:0:0:
168,104,61419,1,0,1:0:0:0:
168,104,61506,1,0,1:0:0:0:
168,104,61593,1,0,1:0:0:0:
216,260,61768,1,4,1:2:0:0:
256,192,61855,12,0,67000,2:0:0:0:
80,176,78163,5,8,0:0:0:0:
80,176,78512,6,0,P|128:192|192:240,1,90
224,280,78861,1,8,0:0:0:0:
296,224,79035,1,0,0:0:0:0:
308,211,79123,1,0,0:0:0:0:
328,208,79210,2,0,P|376:224|440:272,1,90
432,336,79559,1,8,0:0:0:0:
409,244,79733,6,0,L|399:111,1,90,8|0,0:0|0:0,0:0:0:0:
472,48,80082,2,0,L|481:180,1,90,0|8,0:0|0:0,0:0:0:0:
344,304,80431,1,0,0:0:0:0:
256,328,80605,2,0,L|248:376,2,45
200,256,80954,2,0,P|161:233|118:219,1,90,8|0,0:0|0:0,0:0:0:0:
120,312,81303,5,4,0:0:0:0:
224,168,81477,1,0,0:0:0:0:
160,104,81652,2,0,P|114:114|56:120,1,90,8|0,0:0|0:0,0:0:0:0:
53,121,81913,1,0,0:0:0:0:
35,124,82000,1,0,0:0:0:0:
209,32,82175,1,0,0:0:0:0:
14,205,82349,5,0,0:0:0:0:
200,256,82524,2,0,P|246:246|304:240,1,90,4|0,2:0|0:0,0:0:0:0:
344,168,82873,1,2,0:0:0:0:
120,312,83047,2,0,P|75:301|16:296,1,90
152,160,83396,1,2,0:0:0:0:
264,328,83570,2,0,P|328:352|400:264,1,180
404,265,84006,1,0,0:0:0:0:
408,247,84093,6,0,P|360:231|296:183,1,90,4|0,0:0|0:0,0:0:0:0:
387,145,84442,1,8,1:0:0:0:
216,224,84616,1,0,0:0:0:0:
204,211,84704,1,0,0:0:0:0:
184,208,84791,2,0,P|136:224|72:272,1,90
80,336,85140,1,8,0:0:0:0:
103,244,85314,6,0,L|113:111,1,90,8|0,0:0|0:0,0:0:0:0:
40,48,85663,2,0,L|31:180,1,90
168,304,86012,1,0,0:0:0:0:
256,328,86186,2,0,L|264:376,2,45
312,256,86535,2,0,P|351:233|394:219,1,90,8|0,0:0|0:0,0:0:0:0:
392,312,86884,5,4,0:0:0:0:
288,168,87058,1,0,0:0:0:0:
352,104,87233,2,0,P|398:114|456:120,1,90
459,121,87494,1,0,0:0:0:0:
477,124,87581,1,8,0:0:0:0:
303,32,87756,1,0,0:0:0:0:
498,205,87930,5,0,0:0:0:0:
312,256,88105,2,0,P|266:246|208:240,1,90,4|0,0:0|0:0,0:0:0:0:
113,61,88454,1,2,0:0:0:0:
122,247,88628,2,0,P|168:237|226:231,1,90,8|0,0:0|0:0,0:0:0:0:
49,118,88977,1,2,0:0:0:0:
200,58,89152,1,0,0:0:0:0:
200,58,89239,1,0,0:0:0:0:
200,58,89326,1,8,0:0:0:0:
33,207,89500,1,0,0:0:0:0:
152,320,89675,6,0,P|216:328|256:344,1,90
360,280,90024,2,0,P|296:272|256:256,1,90,8|0,0:0|0:0,0:0:0:0:
269,250,90285,1,0,0:0:0:0:
266,236,90373,1,0,0:0:0:0:
304,154,90547,1,0,0:0:0:0:
381,199,90721,1,0,0:0:0:0:
463,161,90896,6,0,P|473:100|482:70,1,90,8|0,0:0|0:0,0:0:0:0:
393,4,91245,1,0,0:0:0:0:
392,17,91332,1,0,0:0:0:0:
391,30,91419,2,0,P|381:91|372:121,1,90,8|0,0:0|0:0,0:0:0:0:
210,181,91768,2,0,L|153:168,2,45
285,149,92117,2,0,P|305:210|296:300,1,135
300,295,92466,6,0,P|346:289|409:308,1,90,4|0,0:0|0:0,0:0:0:0:
217,361,92814,2,0,P|177:315|118:289,1,90,8|0,0:0|0:0,0:0:0:0:
140,294,93076,1,0,0:0:0:0:
126,290,93163,2,0,L|100:193,1,90
85,114,93512,1,8,0:0:0:0:
13,269,93686,6,0,P|7:317|18:363,1,90,4|0,0:0|0:0,0:0:0:0:
260,220,94035,1,0,0:0:0:0:
268,209,94123,1,0,0:0:0:0:
276,198,94210,2,0,L|260:101,1,90
342,296,94559,2,0,L|330:358,2,45
418,249,94907,1,0,0:0:0:0:
429,338,95082,1,0,0:0:0:0:
232,299,95256,6,0,P|168:307|128:323,1,90,4|0,0:0|0:0,0:0:0:0:
284,188,95605,2,0,P|348:180|388:164,1,90,8|0,0:0|0:0,0:0:0:0:
375,158,95866,1,0,0:0:0:0:
378,144,95954,1,0,0:0:0:0:
259,37,96128,1,0,0:0:0:0:
209,111,96302,1,8,0:0:0:0:
204,201,96477,6,0,P|194:262|185:292,1,90,12|0,0:0|0:0,0:0:0:0:
70,156,96826,1,0,0:0:0:0:
71,143,96913,1,0,0:0:0:0:
72,130,97000,2,0,P|82:69|91:39,1,90
353,155,97349,2,0,L|410:142,2,45,8|0|0,0:0|0:0|0:0,0:0:0:0:
286,216,97698,2,0,P|266:277|275:367,1,135
271,362,98047,6,0,P|225:356|162:375,1,90,12|0,0:0|0:0,0:0:0:0:
352,275,98395,2,0,P|392:229|451:203,1,90
429,208,98657,1,0,0:0:0:0:
443,204,98744,2,0,L|469:107,1,90,8|0,0:0|0:0,0:0:0:0:
410,46,99093,1,0,0:0:0:0:
499,269,99267,6,0,P|505:317|494:363,1,90,4|0,0:0|0:0,0:0:0:0:
252,220,99616,1,8,0:0:0:0:
244,209,99704,1,0,0:0:0:0:
236,198,99791,2,0,L|252:101,1,90
171,65,100140,2,0,L|183:3,2,45
100,121,100489,1,0,0:0:0:0:
68,153,100576,1,0,0:0:0:0:
56,196,100663,1,0,0:0:0:0:
60,240,100750,1,0,0:0:0:0:
82,279,100838,5,4,0:0:0:0:
166,307,101012,1,0,0:0:0:0:
301,240,101186,1,0,0:0:0:0:
213,215,101361,1,0,0:0:0:0:
298,357,101535,1,0,0:0:0:0:
423,270,101710,5,0,0:0:0:0:
423,270,101797,1,0,0:0:0:0:
423,270,101884,2,0,P|434:220|430:146,1,90,4|0,0:0|0:0,0:0:0:0:
392,104,102233,1,8,0:0:0:0:
200,112,102407,2,0,P|189:162|193:236,1,90,4|0,0:2|0:0,0:0:0:0:
320,352,102756,6,0,P|331:302|327:228,1,90,8|0,0:0|0:0,0:0:0:0:
178,196,103105,2,0,L|82:180,1,90,4|0,0:2|0:0,0:0:0:0:
296,168,103454,1,0,0:0:0:0:
384,184,103628,1,0,0:0:0:0:
160,280,103803,5,4,0:2:0:0:
256,192,103890,12,0,105024,0:0:0:0:
88,160,105547,5,0,0:0:0:0:
280,216,106070,1,0,0:0:0:0:
336,160,106245,1,0,0:0:0:0:
192,88,106593,1,0,0:0:0:0:
376,272,106942,2,0,L|520:312,1,135.000005149842
512,296,107466,6,0,P|504:224|464:152,1,135.000005149842
336,360,107989,1,0,0:0:0:0:
224,240,108338,1,0,0:0:0:0:
232,256,108512,1,0,0:0:0:0:
376,144,108861,1,0,0:0:0:0:
368,160,109035,1,0,0:0:0:0:
216,144,109384,6,0,L|72:128,1,135.000005149842
12,101,109907,2,0,L|156:117,1,135.000005149842
256,320,110605,5,0,0:0:0:0:
424,160,111128,1,0,0:0:0:0:
232,216,111651,1,0,0:0:0:0:
176,160,111826,1,0,0:0:0:0:
320,88,112174,1,0,0:0:0:0:
136,272,112524,2,0,L|-8:312,1,135.000005149842
0,296,113047,6,0,P|8:224|48:152,1,135.000005149842
176,24,113570,1,0,0:0:0:0:
224,240,113919,1,0,0:0:0:0:
232,256,114093,1,0,0:0:0:0:
376,144,114442,1,0,0:0:0:0:
368,160,114616,1,0,0:0:0:0:
361,176,114791,6,0,L|369:256,1,67.5000025749208,0|0,0:0|2:0,0:0:0:0:
276,131,115140,2,0,L|268:51,1,67.5000025749208,0|0,0:0|2:0,0:0:0:0:
226,245,115489,2,0,L|234:325,1,67.5000025749208,0|0,0:0|2:0,0:0:0:0:
95,132,115838,2,0,L|87:52,1,67.5000025749208,0|0,0:0|2:0,0:0:0:0:
160,32,116186,5,4,0:2:0:0:
80,240,116361,1,0,0:0:0:0:
64,232,116710,1,0,0:0:0:0:
128,304,116884,2,0,L|208:296,1,67.5000025749208
296,192,117233,1,0,0:0:0:0:
408,352,117407,6,0,P|464:336|520:280,1,135.000005149842
512,275,118105,2,0,P|465:323|401:343,1,135.000005149842
224,248,118628,1,0,0:0:0:0:
304,104,118803,1,0,0:0:0:0:
360,208,118977,6,0,L|368:288,1,67.5000025749208
224,168,119500,2,0,L|216:248,1,67.5000025749208
348,114,120024,2,0,L|356:194,1,67.5000025749208
240,24,120547,6,0,L|232:104,1,67.5000025749208
352,200,120896,1,0,0:0:0:0:
256,328,121070,2,0,P|192:352|128:312,1,135.000005149842
352,32,121768,5,0,0:0:0:0:
448,232,122292,1,0,0:0:0:0:
200,368,122640,1,0,0:0:0:0:
216,192,122815,1,0,0:0:0:0:
104,352,122989,2,0,P|48:336|-8:280,1,135.000005149842
0,275,123687,2,0,P|46:323|110:343,1,135.000005149842
288,248,124210,5,0,0:0:0:0:
208,104,124385,1,0,0:0:0:0:
152,208,124559,2,0,L|144:288,1,67.5000025749208
288,168,125082,2,0,L|296:248,1,67.5000025749208
424,232,125606,2,0,L|416:312,1,67.5000025749208
480,184,125954,6,0,L|280:168,1,180,0|4,0:0|0:2,0:0:0:0:
216,160,126826,1,0,0:0:0:0:
192,24,127000,1,0,0:0:0:0:
304,176,127349,6,0,P|291:225|288:272,1,90,4|0,2:0|0:0,0:0:0:0:
287,277,127611,1,0,0:0:0:0:
288,290,127698,1,8,0:0:0:0:
366,353,127873,1,0,0:0:0:0:
366,353,127960,1,0,0:0:0:0:
366,353,128047,1,0,0:0:0:0:
206,246,128221,1,0,0:0:0:0:
388,219,128396,2,0,L|483:209,1,90,8|0,0:0|0:0,0:0:0:0:
486,218,128919,5,0,0:0:0:0:
486,218,129006,1,0,0:0:0:0:
486,218,129093,1,8,0:0:0:0:
486,218,129442,5,0,0:0:0:0:
486,218,129529,1,0,0:0:0:0:
486,218,129616,1,0,0:0:0:0:
328,160,129791,6,0,L|233:170,1,90,8|0,0:0|0:0,0:0:0:0:
176,112,130053,1,0,0:0:0:0:
181,101,130140,2,0,L|276:91,1,90,4|0,0:0|0:0,0:0:0:0:
368,240,130489,2,0,P|312:272|248:336,1,135,8|0,0:0|0:0,0:0:0:0:
248,336,130838,2,0,L|128:360,1,90
40,192,131186,1,8,0:0:0:0:
104,280,131361,6,0,L|272:248,1,135,4|0,0:2|0:0,0:0:0:0:
252,252,131710,1,0,0:0:0:0:
424,344,131884,1,8,0:0:0:0:
200,128,132233,1,0,0:0:0:0:
200,128,132320,1,0,0:0:0:0:
200,128,132407,1,0,0:0:0:0:
480,264,132582,1,8,0:0:0:0:
464,176,132756,1,0,0:0:0:0:
248,352,132931,6,0,P|200:328|160:320,1,90,4|0,0:0|0:0,0:0:0:0:
240,240,133279,2,0,P|283:229|323:208,1,90,8|0,0:0|0:0,0:0:0:0:
330,191,133541,1,0,0:0:0:0:
334,173,133628,1,0,0:0:0:0:
480,40,133803,1,0,0:0:0:0:
464,128,133977,1,8,0:0:0:0:
216,144,134152,6,0,P|136:176|64:136,1,135,4|0,0:0|0:0,0:0:0:0:
80,160,134500,2,0,L|91:83,2,45,0|0|8,0:0|0:0|0:0,0:0:0:0:
160,296,134849,1,0,0:0:0:0:
272,208,135024,6,0,L|283:285,2,45
352,248,135373,2,0,L|363:349,1,90,8|0,0:0|0:0,0:0:0:0:
364,350,135634,1,0,0:0:0:0:
365,363,135721,1,0,0:0:0:0:
502,295,135896,1,0,0:0:0:0:
401,165,136070,2,0,P|444:100|496:60,1,135,8|0,0:0|0:0,0:0:0:0:
501,53,136419,6,0,L|387:33,1,90
320,24,136768,1,8,0:0:0:0:
112,176,136942,2,0,L|226:156,1,90,4|0,0:2|0:0,0:0:0:0:
384,264,137291,1,2,0:0:0:0:
384,264,137378,1,0,0:0:0:0:
384,264,137466,2,0,L|270:244,1,90,8|0,0:0|0:0,0:0:0:0:
64,288,137814,1,2,0:0:0:0:
73,303,137902,1,0,0:0:0:0:
86,315,137989,1,0,0:0:0:0:
101,324,138076,1,0,0:0:0:0:
117,332,138163,2,0,L|231:312,1,90,8|0,0:0|0:0,0:0:0:0:
208,208,138512,6,0,P|221:159|224:112,1,90,4|0,0:0|0:0,0:0:0:0:
225,107,138774,1,0,0:0:0:0:
224,94,138861,1,8,0:0:0:0:
146,31,139036,1,0,0:0:0:0:
146,31,139123,1,0,0:0:0:0:
146,31,139210,1,0,0:0:0:0:
306,138,139384,1,0,0:0:0:0:
104,175,139559,1,8,0:0:0:0:
203,300,139733,6,0,P|275:318|394:316,1,180,4|0,0:0|0:0,0:0:0:0:
393,316,140169,1,0,0:0:0:0:
405,312,140256,1,8,0:0:0:0:
512,186,140605,1,0,0:0:0:0:
512,186,140692,1,0,0:0:0:0:
512,186,140779,1,0,0:0:0:0:
280,199,140954,6,0,L|270:104,1,90,8|0,0:0|0:0,0:0:0:0:
328,47,141216,1,0,0:0:0:0:
339,52,141303,2,0,L|349:147,1,90
215,270,141652,2,0,P|183:235|143:207,1,90,8|0,0:0|0:0,0:0:0:0:
137,206,141913,1,0,0:0:0:0:
125,206,142000,2,0,L|114:90,1,90
176,48,142349,1,8,0:0:0:0:
32,216,142524,6,0,L|43:332,1,90,4|0,0:2|0:0,0:0:0:0:
224,184,142873,1,0,0:0:0:0:
224,184,142960,1,0,0:0:0:0:
224,184,143047,1,8,0:0:0:0:
224,184,143396,1,0,0:0:0:0:
224,184,143483,1,0,0:0:0:0:
224,184,143570,1,0,0:0:0:0:
288,256,143745,2,0,L|328:280|368:304,1,90,8|0,0:0|0:0,0:0:0:0:
408,120,144093,6,0,P|384:168|376:208,1,90,4|0,0:0|0:0,0:0:0:0:
296,128,144442,2,0,P|285:84|264:44,1,90,8|0,0:0|0:0,0:0:0:0:
247,38,144703,1,0,0:0:0:0:
229,34,144790,1,0,0:0:0:0:
136,312,144965,1,0,0:0:0:0:
120,224,145139,1,8,0:0:0:0:
256,304,145314,2,0,P|336:272|408:312,1,135,4|0,0:0|0:0,0:0:0:0:
392,288,145663,2,0,L|381:365,2,45,0|0|8,0:0|0:0|0:0,0:0:0:0:
496,136,146186,6,0,L|507:59,2,45
408,160,146535,2,0,P|320:128|264:128,1,135,8|0,0:0|0:0,0:0:0:0:
264,128,146884,2,0,P|254:81|264:24,1,90
216,200,147233,2,0,P|226:247|216:304,1,90,8|0,0:0|0:0,0:0:0:0:
217,305,147495,1,0,0:0:0:0:
212,324,147582,2,0,P|147:302|92:293,2,90,0|0|8,0:0|0:0|0:0,0:0:0:0:
384,304,148105,6,0,P|359:247|334:213,1,90,4|0,0:0|0:0,0:0:0:0:
253,155,148454,1,0,0:0:0:0:
253,155,148541,1,0,0:0:0:0:
253,155,148628,1,8,0:0:0:0:
184,237,148803,1,0,0:0:0:0:
81,107,148977,2,0,L|74:56,2,45
84,123,149326,1,8,0:0:0:0:
29,193,149500,1,0,0:0:0:0:
73,277,149675,6,0,P|146:330|256:303,1,202.500007724762,4|0,1:0|0:0,0:0:0:0:
355,93,150373,1,0,0:0:0:0:
365,100,150721,2,0,L|382:173,1,67.5000025749208,0|0,0:0|1:0,0:0:0:0:
397,257,151070,1,0,0:0:0:0:
488,122,151245,1,0,0:0:0:0:
311,225,151419,6,0,P|275:228|246:244,1,67.5000025749208
406,273,151768,1,0,1:0:0:0:
497,138,151943,1,0,0:0:0:0:
398,287,152117,2,0,L|396:363,1,67.5000025749208,0|0,0:0|1:0,0:0:0:0:
414,145,152466,6,0,P|341:92|231:119,1,202.500007724762,4|0,1:0|0:0,0:0:0:0:
226,128,153338,1,0,0:0:0:0:
41,86,153512,1,0,0:0:0:0:
213,133,153686,6,0,L|231:220,1,67.5000025749208,0|0,1:0|0:0,0:0:0:0:
246,283,154035,1,0,0:0:0:0:
246,283,154123,1,0,0:0:0:0:
246,283,154210,2,0,P|316:291|399:262,1,135.000005149842,0|0,0:0|1:0,0:0:0:0:
425,206,154733,1,0,0:0:0:0:
312,44,154907,2,0,P|259:44|216:61,1,67.5000025749208,0|0,0:0|1:0,0:0:0:0:
149,209,155256,6,0,L|127:364,1,135.000005149842,4|0,1:0|0:0,0:0:0:0:
134,196,155779,2,0,L|112:351,1,135.000005149842
75,133,156303,1,0,0:0:0:0:
231,244,156477,6,0,P|277:261|337:192,1,135.000005149842,0|0,1:0|0:0,0:0:0:0:
215,171,157000,2,0,L|220:246,1,67.5000025749208
352,271,157349,2,0,L|347:346,1,67.5000025749208,0|0,1:0|0:0,0:0:0:0:
479,190,157698,2,0,L|484:265,1,67.5000025749208,0|0,0:0|1:0,0:0:0:0:
395,124,158047,6,0,L|255:106,1,135.000005149842,4|0,1:0|0:0,0:0:0:0:
412,116,158570,2,0,L|321:104,1,67.5000025749208,0|0,0:0|1:0,0:0:0:0:
384,32,158919,1,0,0:0:0:0:
304,208,159093,1,0,1:0:0:0:
120,160,159268,6,0,L|211:148,1,67.5000025749208,4|0,1:0|0:0,0:0:0:0:
309,219,159617,1,0,0:0:0:0:
112,152,159791,1,0,0:0:0:0:
216,232,159966,5,0,1:0:0:0:
209,247,160053,1,0,1:0:0:0:
206,263,160140,1,0,1:0:0:0:
204,279,160227,1,0,1:0:0:0:
202,295,160314,1,0,1:0:0:0:
203,311,160402,1,0,1:0:0:0:
203,327,160489,2,0,L|212:373,3,33.7500012874604,0|0|0|0,1:0|1:0|1:0|1:0,1:0:0:0:
203,327,160838,6,4,P|129:296|52:281,1,135,0|0,1:0|1:0,1:0:0:0:
62,282,161186,2,0,P|45:233|28:170,1,90,4|0,1:0|0:0,0:0:0:0:
233,148,161535,1,0,0:0:0:0:
74,273,161710,2,0,P|57:224|40:161,1,90
240,155,162059,6,0,P|266:236|287:335,1,180,0|0,1:0|0:0,0:0:0:0:
472,253,162582,2,0,P|423:243|373:237,1,90
233,144,162931,1,0,0:0:0:0:
323,148,163106,1,0,0:0:0:0:
408,119,163280,1,0,1:0:0:0:
408,119,163628,6,0,P|436:197|472:297,1,180,0|0,0:0|1:0,0:0:0:0:
417,362,164152,1,0,0:0:0:0:
229,153,164326,1,0,0:0:0:0:
291,217,164500,1,0,0:0:0:0:
303,306,164675,1,0,0:0:0:0:
220,270,164849,6,0,P|128:229|29:209,1,180,0|0,1:0|0:0,0:0:0:0:
50,211,165373,2,0,P|41:250|54:316,1,90,0|0,1:0|0:0,0:0:0:0:
303,208,165721,2,0,P|312:169|299:103,1,90,4|0,1:2|0:0,0:0:0:0:
200,271,166070,2,0,P|190:309|203:375,1,90,0|4,1:0|0:2,0:0:0:0:
376,269,166419,6,0,L|508:253,1,90,4|0,1:0|0:0,0:0:0:0:
512,136,166768,2,0,L|380:152,1,90,0|0,1:0|0:0,0:0:0:0:
205,85,167117,1,0,0:0:0:0:
268,21,167291,1,0,0:0:0:0:
283,109,167466,1,0,0:0:0:0:
214,167,167640,6,0,P|163:120|48:124,1,180,0|0,1:0|1:0,0:0:0:0:
5,305,168163,2,0,P|56:352|171:348,1,180,0|0,1:0|1:0,0:0:0:0:
223,286,168686,1,0,0:0:0:0:
299,238,168861,2,0,P|346:239|408:273,1,90,0|0,1:0|0:0,0:0:0:0:
462,299,169210,5,0,1:0:0:0:
462,299,169559,1,0,1:0:0:0:
187,84,169907,1,0,1:0:0:0:
228,244,170082,1,0,1:0:0:0:
177,76,170256,1,0,1:0:0:0:
216,240,170431,1,0,1:0:0:0:
48,64,170605,6,0,P|55:108|62:158,1,90,4|0,1:0|0:0,0:0:0:0:
98,350,170954,1,0,0:0:0:0:
241,269,171128,6,0,P|247:224|254:179,1,90,4|0,1:0|0:0,0:0:0:0:
280,30,171477,1,0,0:0:0:0:
391,159,171652,6,0,P|416:264|432:352,1,180,4|0,1:0|0:0,0:0:0:0:
209,275,172524,5,0,3:0:0:0:
205,289,172611,1,0,3:0:0:0:
202,302,172698,1,0,0:0:0:0:
197,314,172785,1,0,3:0:0:0:
194,327,172873,1,0,3:0:0:0:
192,340,172960,1,0,3:0:0:0:
189,353,173047,2,0,P|137:371|96:354,1,90,0|0,0:0|2:0,0:0:0:0:
134,193,173396,6,0,P|218:172|316:254,1,215.999993408203,4|8,1:0|0:0,0:0:0:0:
280,344,173919,1,0,1:0:0:0:
208,264,174093,1,0,1:0:0:0:
400,240,174268,2,0,L|520:232,1,107.999996704102,0|8,0:0|0:0,0:0:0:0:
400,48,174617,6,0,P|360:128|224:120,1,215.999993408203,4|0,0:0|0:0,0:0:0:0:
243,135,175053,1,0,0:0:0:0:
243,135,175140,1,8,0:0:0:0:
296,56,175314,1,0,0:0:0:0:
432,184,175489,1,0,0:0:0:0:
432,184,175576,1,0,0:0:0:0:
432,184,175663,2,0,P|384:232|360:272,1,107.999996704102,0|8,0:0|0:0,0:0:0:0:
304,360,176012,1,0,0:0:0:0:
232,168,176186,6,0,P|176:128|128:104,1,107.999996704102,4|0,0:0|2:0,0:0:0:0:
48,160,176535,1,8,0:0:0:0:
24,264,176710,1,0,0:0:0:0:
104,328,176884,1,0,0:0:0:0:
304,224,177059,2,0,P|308:171|320:104,1,107.999996704102,0|8,0:0|0:0,0:0:0:0:
216,256,177407,6,0,P|211:308|200:376,1,107.999996704102,6|0,0:0|0:0,0:0:0:0:
400,248,177756,1,2,0:0:0:0:
400,248,177843,1,0,0:0:0:0:
400,248,177931,2,0,P|452:243|520:232,1,107.999996704102,8|2,0:0|0:0,0:0:0:0:
80,176,178279,1,0,0:0:0:0:
184,152,178454,1,2,0:0:0:0:
280,200,178628,1,8,0:0:0:0:
384,168,178803,1,10,0:0:0:0:
384,168,178890,1,0,0:0:0:0:
384,168,178977,2,0,P|391:108|384:48,1,107.999996704102,4|0,0:0|0:0,0:0:0:0:
272,216,179326,6,0,P|265:276|272:336,1,107.999996704102,8|0,0:0|1:0,0:0:0:0:
112,120,179675,1,0,0:0:0:0:
152,224,179849,1,0,0:0:0:0:
120,328,180024,1,8,0:0:0:0:
104,128,180198,6,0,P|176:80|296:136,1,215.999993408203,4|0,0:0|0:0,0:0:0:0:
376,344,180721,1,8,0:0:0:0:
168,216,180896,2,0,P|208:144|352:128,1,215.999993408203
488,88,181419,2,0,P|424:80|392:48,1,107.999996704102,8|0,0:0|0:0,0:0:0:0:
344,136,181768,5,2,0:0:0:0:
464,272,181942,2,0,L|480:384,1,107.999996704102,0|8,0:0|0:0,0:0:0:0:
328,128,182291,1,2,0:0:0:0:
448,264,182465,2,0,L|464:376,1,107.999996704102
224,192,182814,1,10,0:0:0:0:
72,344,182989,6,0,P|121:271|241:293,1,215.999993408203,4|0,1:0|0:0,0:0:0:0:
248,304,183425,1,0,0:0:0:0:
254,320,183512,1,8,0:0:0:0:
95,200,183686,1,0,0:0:0:0:
184,48,183861,1,0,0:0:0:0:
232,16,183948,1,0,0:0:0:0:
288,0,184035,1,0,0:0:0:0:
344,16,184123,1,0,0:0:0:0:
384,56,184210,1,8,0:0:0:0:
408,104,184297,1,8,0:0:0:0:
408,160,184384,1,8,0:0:0:0:
392,208,184471,1,8,0:0:0:0:
360,248,184559,5,4,0:0:0:0:
304,120,184733,1,0,0:0:0:0:
472,232,184907,2,0,P|479:289|472:360,1,107.999996704102,8|0,0:0|0:0,0:0:0:0:
200,368,185256,2,0,P|193:311|200:240,1,107.999996704102
312,336,185605,1,8,0:0:0:0:
136,208,185779,6,0,P|176:128|312:136,1,215.999993408203,4|0,0:0|0:0,0:0:0:0:
293,121,186215,1,0,0:0:0:0:
293,121,186302,1,8,0:0:0:0:
128,328,186476,1,0,0:0:0:0:
32,136,186651,1,0,0:0:0:0:
32,136,186738,1,0,0:0:0:0:
32,136,186825,2,0,P|80:88|104:48,1,107.999996704102,0|8,0:0|0:0,0:0:0:0:
208,24,187174,1,0,0:0:0:0:
280,216,187349,6,0,P|320:264|384:280,1,107.999996704102,4|0,0:0|0:0,0:0:0:0:
464,224,187697,1,8,0:0:0:0:
488,120,187872,1,0,0:0:0:0:
272,224,188047,2,0,P|247:268|256:336,1,107.999996704102
448,232,188396,1,0,0:0:0:0:
296,128,188570,6,0,P|301:76|312:8,1,107.999996704102,6|0,0:0|0:0,0:0:0:0:
160,232,188919,2,0,P|155:284|144:352,1,107.999996704102,6|0,0:0|0:0,0:0:0:0:
40,112,189268,2,0,P|45:60|56:-8,1,107.999996704102,6|0,0:0|0:0,0:0:0:0:
328,88,189617,1,0,0:0:0:0:
280,184,189791,1,0,0:0:0:0:
320,288,189966,1,0,0:0:0:0:
280,376,190140,6,0,P|224:376|168:360,1,107.999996704102,4|0,0:0|0:0,0:0:0:0:
352,120,190489,2,0,P|408:120|464:136,1,107.999996704102,4|0,0:0|0:0,0:0:0:0:
184,168,190838,2,0,P|184:112|200:56,1,107.999996704102,4|0,0:0|0:0,0:0:0:0:
496,24,191186,2,0,P|496:80|480:136,1,107.999996704102,4|0,0:0|0:0,0:0:0:0:
168,184,191535,6,0,P|154:236|154:289,1,107.999996704102,4|0,0:0|0:0,0:0:0:0:
496,344,191884,2,0,P|509:291|509:238,1,107.999996704102,4|0,0:0|0:0,0:0:0:0:
320,296,192233,1,4,0:0:0:0:
320,296,192320,1,0,0:0:0:0:
320,296,192407,2,0,L|168:288,1,107.999996704102,0|4,0:0|0:0,0:0:0:0:
8,280,192756,1,0,0:0:0:0:
288,200,192931,6,0,L|440:208,1,107.999996704102,4|0,0:0|0:0,0:0:0:0:
16,88,193279,1,4,0:0:0:0:
104,152,193454,1,0,0:0:0:0:
112,48,193628,1,0,0:0:0:0:
8,176,193803,1,0,0:0:0:0:
128,312,193977,1,0,0:0:0:0:
312,264,194152,6,0,P|400:184|496:144,1,215.999993408203,4|0,0:0|0:0,0:0:0:0:
488,145,194588,1,0,0:0:0:0:
488,145,194675,1,0,0:0:0:0:
240,88,195024,1,0,0:0:0:0:
200,184,195198,1,0,0:0:0:0:
200,184,195285,1,0,0:0:0:0:
200,184,195373,2,0,P|183:242|168:313,1,107.999996704102
256,192,195721,12,4,198512,0:0:0:0:
112,128,206884,5,0,0:0:0:0:
118,142,207059,1,0,0:0:0:0:
164,207,207233,1,0,0:0:0:0:
256,256,207407,1,0,0:0:0:0:
256,256,207931,6,0,P|160:304|72:240,2,202.500007724762
267,244,209064,1,0,0:0:0:0:
271,227,209152,1,0,0:0:0:0:
273,210,209239,1,0,0:0:0:0:
270,193,209326,2,0,L|259:148,1,33.7500012874604
366,247,209675,5,0,0:0:0:0:
448,296,209849,1,0,0:0:0:0:
368,344,210024,1,0,0:0:0:0:
405,147,210198,5,0,0:0:0:0:
462,223,210372,1,0,0:0:0:0:
370,237,210547,1,0,0:0:0:0:
304,160,210721,6,0,L|288:64,1,90,0|0,0:0|2:0,0:0:0:0:
212,188,211245,1,0,0:0:0:0:
144,268,211419,2,0,L|160:356,1,90,2|0,2:0|0:0,0:0:0:0:
141,254,211942,1,2,2:0:0:0:
121,147,212117,1,0,2:0:0:0:
32,88,212291,5,0,0:0:0:0:
32,88,212378,1,0,0:0:0:0:
32,88,212466,2,0,L|40:184,1,90,4|0,1:0|0:0,0:0:0:0:
192,128,212814,2,0,P|240:96|272:80,1,90,8|0,0:0|0:0,0:0:0:0:
289,72,213076,1,0,0:0:0:0:
310,65,213163,1,0,0:0:0:0:
424,136,213338,1,0,0:0:0:0:
416,272,213512,1,8,0:0:0:0:
288,320,213686,6,0,P|280:264|288:200,1,90,4|0,0:0|0:0,0:0:0:0:
504,256,214035,1,0,0:0:0:0:
504,256,214123,1,0,0:0:0:0:
504,256,214210,2,0,P|512:312|504:376,1,90,8|0,0:0|0:0,0:0:0:0:
272,224,214559,2,0,L|280:168,2,45
88,248,214907,1,8,0:0:0:0:
208,344,215082,5,0,0:0:0:0:
214,326,215169,1,0,0:0:0:0:
213,307,215256,2,0,L|176:192,1,90,4|0,0:0|0:0,0:0:0:0:
296,48,215605,2,0,L|333:163,1,90,8|0,0:0|0:0,0:0:0:0:
323,133,215867,1,0,0:0:0:0:
323,133,215954,1,0,0:0:0:0:
392,88,216128,1,0,0:0:0:0:
232,160,216303,1,0,0:0:0:0:
424,360,216477,6,0,P|440:312|440:264,1,90
320,152,216826,1,2,0:0:0:0:
472,104,217000,1,0,0:0:0:0:
472,104,217088,1,0,0:0:0:0:
472,104,217175,1,0,0:0:0:0:
320,272,217349,1,2,0:0:0:0:
152,160,217524,1,0,0:0:0:0:
152,160,217612,1,0,0:0:0:0:
152,160,217699,1,0,0:0:0:0:
256,328,217873,5,0,0:0:0:0:
256,328,217960,1,0,0:0:0:0:
256,328,218047,1,4,0:0:0:0:
400,208,218221,1,0,0:0:0:0:
240,88,218396,1,8,0:0:0:0:
304,256,218570,1,0,0:0:0:0:
304,256,218657,1,0,0:0:0:0:
304,256,218745,2,0,P|368:304|472:288,1,180
304,160,219268,6,0,P|288:96|280:56,1,90,4|0,0:0|0:0,0:0:0:0:
145,234,219617,1,0,0:0:0:0:
140,255,219704,1,0,0:0:0:0:
136,272,219791,2,0,P|120:336|112:376,1,90,8|0,0:0|0:0,0:0:0:0:
32,136,220140,2,0,L|24:88,2,45
240,224,220489,6,0,P|224:288|216:328,1,90,8|0,0:0|0:0,0:0:0:0:
215,331,220750,1,0,0:0:0:0:
212,349,220838,1,4,0:0:0:0:
312,288,221012,1,0,0:0:0:0:
160,48,221186,2,0,P|128:88|112:136,1,90,8|0,0:0|0:0,0:0:0:0:
120,136,221448,2,0,P|192:152|272:136,1,135
320,96,221884,1,8,0:0:0:0:
488,192,222059,6,0,P|496:136|496:96,1,90
304,208,222407,1,0,0:0:0:0:
304,208,222495,1,0,0:0:0:0:
304,208,222582,2,0,P|296:264|296:304,1,90
432,288,222931,2,0,L|480:304,2,45
216,248,223279,6,0,P|160:240|80:248,1,135,8|0,0:0|0:0,0:0:0:0:
64,256,223628,1,0,0:0:0:0:
184,336,223803,1,0,0:0:0:0:
16,88,223977,2,0,P|72:128|112:136,1,90,8|0,0:0|0:0,0:0:0:0:
113,137,224239,1,0,0:0:0:0:
135,136,224326,1,0,0:0:0:0:
289,107,224500,1,0,0:0:0:0:
141,59,224675,1,0,0:0:0:0:
212,199,224849,6,0,P|296:216|340:234,1,90,4|0,0:0|0:0,0:0:0:0:
504,191,225198,1,0,0:0:0:0:
504,191,225285,1,0,0:0:0:0:
504,191,225373,2,0,P|420:174|376:156,1,90
142,251,225721,6,0,L|96:261,2,45
320,367,226070,2,0,P|329:312|324:273,1,90,8|0,0:0|0:0,0:0:0:0:
143,151,226419,2,0,P|134:206|139:245,1,90
402,167,226768,2,0,P|411:112|406:73,1,90,8|0,0:0|0:0,0:0:0:0:
397,57,227029,1,0,0:0:0:0:
380,40,227117,1,0,0:0:0:0:
261,81,227291,1,0,0:0:0:0:
240,205,227466,1,0,0:0:0:0:
325,297,227640,6,0,P|371:301|424:316,1,90
499,164,227989,1,0,0:0:0:0:
499,164,228076,1,0,0:0:0:0:
499,164,228163,2,0,P|453:168|400:183,1,90
208,325,228512,2,0,L|197:371,2,45
145,259,228861,1,0,0:0:0:0:
80,321,229035,1,0,0:0:0:0:
6,158,229210,6,0,P|79:105|189:132,1,202.500007724762,4|0,1:0|0:0,0:0:0:0:
338,281,229908,1,0,0:0:0:0:
324,278,230256,2,0,L|307:205,1,67.5000025749208,0|8,0:0|1:0,0:0:0:0:
282,40,230605,1,0,0:0:0:0:
208,197,230780,1,0,0:0:0:0:
400,173,230954,6,0,P|436:170|465:154,1,67.5000025749208
185,94,231303,1,8,1:0:0:0:
94,229,231478,1,0,0:0:0:0:
193,80,231652,2,0,L|195:4,1,67.5000025749208,0|8,0:0|1:0,0:0:0:0:
98,239,232001,6,0,P|171:292|281:265,1,202.500007724762,4|0,1:0|0:0,0:0:0:0:
286,256,232873,1,0,0:0:0:0:
471,298,233047,1,0,0:0:0:0:
299,251,233221,6,0,L|281:164,1,67.5000025749208,8|0,1:0|0:0,0:0:0:0:
266,101,233570,1,0,0:0:0:0:
266,101,233658,1,0,0:0:0:0:
266,101,233745,2,0,P|196:93|113:122,1,135.000005149842,0|8,0:0|1:0,0:0:0:0:
87,178,234268,1,0,0:0:0:0:
200,340,234442,2,0,P|253:340|296:323,1,67.5000025749208,0|8,0:0|1:0,0:0:0:0:
363,175,234791,6,0,L|385:20,1,135.000005149842,4|0,1:0|0:0,0:0:0:0:
381,165,235314,1,0,0:0:0:0:
408,260,235490,2,0,L|397:343,1,67.5000025749208
412,152,235838,1,0,0:0:0:0:
348,32,236012,6,0,P|302:15|242:84,1,135.000005149842,8|0,1:0|0:0,0:0:0:0:
297,213,236535,2,0,L|292:138,1,67.5000025749208
164,45,236884,2,0,L|160:113,1,67.5000025749208,8|0,1:0|0:0,0:0:0:0:
33,194,237233,2,0,L|28:119,1,67.5000025749208,8|0,0:0|1:0,0:0:0:0:
117,260,237582,6,0,L|257:278,1,135.000005149842,4|0,1:0|0:0,0:0:0:0:
100,268,238105,2,0,L|191:280,1,67.5000025749208,0|8,0:0|1:0,0:0:0:0:
128,352,238454,1,0,0:0:0:0:
208,176,238628,1,8,1:0:0:0:
392,224,238803,6,0,L|301:236,1,67.5000025749208,4|0,1:0|0:0,0:0:0:0:
203,165,239152,1,0,0:0:0:0:
400,232,239326,1,8,0:0:0:0:
296,152,239501,5,0,1:0:0:0:
303,137,239588,1,0,1:0:0:0:
306,121,239675,1,0,1:0:0:0:
308,105,239762,1,0,1:0:0:0:
310,89,239849,1,0,1:0:0:0:
309,73,239937,1,0,1:0:0:0:
309,57,240024,2,0,L|300:11,3,33.7500012874604,0|0|0|0,1:0|1:0|1:0|1:0,1:0:0:0:
309,57,240373,6,4,P|383:88|460:103,1,135,0|0,1:0|1:0,1:0:0:0:
450,102,240721,2,0,P|467:151|484:214,1,90,12|0,1:0|0:0,0:0:0:0:
279,236,241070,1,0,0:0:0:0:
438,111,241245,2,0,P|455:160|472:223,1,90
272,229,241594,6,0,P|246:148|225:49,1,180,8|0,1:0|0:0,0:0:0:0:
40,131,242117,2,0,P|89:141|139:147,1,90,8|0,0:0|0:0,0:0:0:0:
279,240,242466,1,0,0:0:0:0:
189,236,242641,1,0,0:0:0:0:
104,265,242815,1,8,1:0:0:0:
104,265,243163,6,0,P|76:187|40:87,1,180,4|8,0:0|1:0,0:0:0:0:
95,22,243687,1,0,0:0:0:0:
283,231,243861,1,0,0:0:0:0:
221,167,244035,1,0,0:0:0:0:
209,78,244210,1,0,0:0:0:0:
292,114,244384,6,0,P|384:155|483:175,1,180,8|0,1:0|0:0,0:0:0:0:
462,173,244908,2,0,P|471:134|458:68,1,90,8|0,1:0|0:0,0:0:0:0:
209,176,245256,2,0,P|200:215|213:281,1,90,4|0,1:2|0:0,0:0:0:0:
312,113,245605,2,0,P|322:75|309:9,1,90,8|4,1:0|0:2,0:0:0:0:
136,115,245954,6,0,L|4:131,1,90,4|0,1:0|0:0,0:0:0:0:
0,248,246303,2,0,L|132:232,1,90,0|0,1:0|0:0,0:0:0:0:
307,299,246652,1,0,0:0:0:0:
244,363,246826,1,0,0:0:0:0:
229,275,247001,1,0,0:0:0:0:
298,217,247175,6,0,P|349:264|464:260,1,180,8|0,1:0|1:0,0:0:0:0:
507,79,247698,2,0,P|456:32|341:36,1,180,8|0,1:0|1:0,0:0:0:0:
289,98,248221,1,0,0:0:0:0:
213,146,248396,2,0,P|166:145|104:111,1,90,8|0,1:0|0:0,0:0:0:0:
50,85,248745,5,4,1:0:0:0:
50,85,249094,1,0,0:0:0:0:
325,300,249442,1,0,1:0:0:0:
284,140,249617,1,0,1:0:0:0:
335,308,249791,1,0,1:0:0:0:
296,144,249966,1,0,1:0:0:0:
237,319,250140,6,0,P|193:326|143:333,1,90,4|0,1:0|0:0,0:0:0:0:
42,113,250489,1,0,0:0:0:0:
179,177,250663,6,0,P|224:183|269:190,1,90,4|0,1:0|0:0,0:0:0:0:
440,112,251012,1,0,0:0:0:0:
502,253,251186,2,0,P|454:260|378:279,1,90
395,273,251448,1,0,0:0:0:0:
380,280,251535,5,2,0:0:0:0:
268,189,251768,1,0,0:0:0:0:
403,186,252000,1,2,0:0:0:0:
230,348,252233,5,0,0:0:0:0:
154,236,252407,1,2,0:0:0:0:
154,236,252495,1,4,0:0:0:0:
154,236,252582,1,0,0:0:0:0:
202,111,252756,1,2,0:0:0:0:
461,227,252931,6,0,P|380:293|277:276,1,215.999993408203,4|8,1:0|0:0,0:0:0:0:
373,44,253454,1,0,1:0:0:0:
445,124,253628,1,0,1:0:0:0:
324,137,253803,2,0,L|204:145,1,107.999996704102,0|8,0:0|0:0,0:0:0:0:
112,336,254152,6,0,P|152:256|288:264,1,215.999993408203,4|0,0:0|0:0,0:0:0:0:
269,249,254588,1,0,0:0:0:0:
269,249,254675,1,8,0:0:0:0:
216,328,254849,1,0,0:0:0:0:
80,200,255024,1,0,0:0:0:0:
80,200,255111,1,0,0:0:0:0:
80,200,255198,2,0,P|128:152|152:112,1,107.999996704102,0|8,0:0|0:0,0:0:0:0:
208,24,255547,1,0,0:0:0:0:
280,216,255721,6,0,P|336:256|384:280,1,107.999996704102,4|0,0:0|2:0,0:0:0:0:
464,224,256070,1,8,0:0:0:0:
488,120,256245,1,0,0:0:0:0:
408,56,256419,1,0,0:0:0:0:
208,160,256594,2,0,P|204:213|192:280,1,107.999996704102,0|8,0:0|0:0,0:0:0:0:
296,128,256942,6,0,P|301:76|312:8,1,107.999996704102,6|0,0:0|0:0,0:0:0:0:
112,136,257291,1,2,0:0:0:0:
112,136,257378,1,0,0:0:0:0:
112,136,257466,1,8,0:0:0:0:
259,296,257640,1,2,0:0:0:0:
380,173,257814,1,0,0:0:0:0:
196,111,257989,1,2,0:0:0:0:
351,302,258163,1,8,0:0:0:0:
471,148,258338,1,10,0:0:0:0:
471,148,258425,1,0,0:0:0:0:
471,148,258512,2,0,P|478:88|471:28,1,107.999996704102,4|0,0:0|0:0,0:0:0:0:
249,177,258861,6,0,P|242:237|249:297,1,107.999996704102,8|0,0:0|1:0,0:0:0:0:
400,264,259210,1,0,0:0:0:0:
360,160,259384,1,0,0:0:0:0:
392,56,259559,1,8,0:0:0:0:
408,256,259733,6,0,P|336:304|216:248,1,215.999993408203,4|0,0:0|0:0,0:0:0:0:
136,40,260256,1,8,0:0:0:0:
344,168,260431,2,0,P|304:240|160:256,1,215.999993408203
24,296,260954,2,0,P|88:304|120:336,1,107.999996704102,8|0,0:0|0:0,0:0:0:0:
168,248,261303,5,2,0:0:0:0:
48,112,261477,2,0,L|32:0,1,107.999996704102,0|8,0:0|0:0,0:0:0:0:
255,360,261826,1,2,0:0:0:0:
375,224,262000,2,0,L|391:112,1,107.999996704102
288,192,262349,1,10,0:0:0:0:
72,40,262524,6,0,P|121:113|241:91,1,215.999993408203,4|0,1:0|0:0,0:0:0:0:
248,80,262960,1,0,0:0:0:0:
254,64,263047,1,8,0:0:0:0:
95,184,263221,1,0,0:0:0:0:
184,336,263396,1,0,0:0:0:0:
232,368,263483,1,0,0:0:0:0:
288,384,263570,1,0,0:0:0:0:
344,368,263658,1,0,0:0:0:0:
384,328,263745,1,8,0:0:0:0:
408,280,263832,1,8,0:0:0:0:
408,224,263919,1,8,0:0:0:0:
392,176,264006,1,8,0:0:0:0:
360,136,264094,5,4,0:0:0:0:
208,264,264268,1,0,0:0:0:0:
40,152,264442,2,0,P|33:95|40:24,1,107.999996704102,8|0,0:0|0:0,0:0:0:0:
312,16,264791,2,0,P|319:73|312:144,1,107.999996704102
200,48,265140,1,8,0:0:0:0:
376,176,265314,6,0,P|336:256|200:248,1,215.999993408203,4|0,0:0|0:0,0:0:0:0:
219,263,265750,1,0,0:0:0:0:
219,263,265837,1,8,0:0:0:0:
384,56,266011,1,0,0:0:0:0:
480,248,266186,1,0,0:0:0:0:
480,248,266273,1,0,0:0:0:0:
480,248,266360,2,0,P|432:296|408:336,1,107.999996704102,0|8,0:0|0:0,0:0:0:0:
304,360,266709,1,0,0:0:0:0:
232,168,266884,6,0,P|192:120|128:104,1,107.999996704102,4|0,0:0|0:0,0:0:0:0:
48,160,267232,1,8,0:0:0:0:
24,264,267407,1,0,0:0:0:0:
240,160,267582,2,0,P|265:116|256:48,1,107.999996704102
64,152,267931,1,8,0:0:0:0:
216,256,268104,6,0,P|211:308|200:376,1,107.999996704102,6|0,0:0|0:0,0:0:0:0:
352,152,268454,2,0,P|357:100|368:32,1,107.999996704102,6|0,0:0|0:0,0:0:0:0:
472,272,268803,2,0,P|467:324|456:392,1,107.999996704102,6|0,0:0|0:0,0:0:0:0:
184,296,269152,1,0,0:0:0:0:
232,200,269326,1,0,0:0:0:0:
192,96,269501,1,0,0:0:0:0:
232,8,269675,6,0,P|288:8|344:24,1,107.999996704102,4|0,0:0|0:0,0:0:0:0:
160,264,270024,2,0,P|104:264|48:248,1,107.999996704102,4|0,0:0|0:0,0:0:0:0:
328,216,270373,2,0,P|328:272|312:328,1,107.999996704102,4|0,0:0|0:0,0:0:0:0:
16,360,270721,2,0,P|16:304|32:248,1,107.999996704102,4|0,0:0|0:0,0:0:0:0:
344,200,271070,6,0,P|358:148|358:95,1,107.999996704102,4|0,0:0|0:0,0:0:0:0:
16,40,271419,2,0,P|3:93|3:146,1,107.999996704102,4|0,0:0|0:0,0:0:0:0:
192,88,271768,1,4,0:0:0:0:
192,88,271855,1,0,0:0:0:0:
192,88,271942,2,0,L|344:96,1,107.999996704102,0|4,0:0|0:0,0:0:0:0:
504,104,272291,1,0,0:0:0:0:
224,184,272466,6,0,L|72:176,1,107.999996704102,4|0,0:0|0:0,0:0:0:0:
496,296,272814,1,4,0:0:0:0:
408,232,272989,1,0,0:0:0:0:
400,336,273163,1,0,0:0:0:0:
504,208,273338,1,0,0:0:0:0:
384,72,273512,1,0,0:0:0:0:
200,120,273687,6,0,P|112:200|16:240,1,215.999993408203,4|0,0:0|0:0,0:0:0:0:
24,239,274123,1,0,0:0:0:0:
24,239,274210,1,0,0:0:0:0:
272,296,274559,1,0,0:0:0:0:
312,200,274733,1,0,0:0:0:0:
312,200,274820,1,0,0:0:0:0:
312,200,274908,2,0,P|296:144|288:64,1,107.999996704102
402,234,275256,6,0,L|431:375,1,135.000005149842
410,215,275779,2,0,L|439:356,1,135.000005149842
214,199,276303,2,0,P|189:174|142:151,1,67.5000025749208,8|0,0:0|0:0,0:0:0:0:
232,203,276652,2,0,P|184:157|146:146,1,90,0|8,0:0|0:0,0:0:0:0:
59,313,277000,6,0,P|114:343|190:335,1,135.000005149842
422,169,277524,2,0,P|367:139|291:147,1,135.000005149842
401,253,278047,2,0,L|407:331,1,67.5000025749208
477,349,278309,1,0,0:0:0:0:
490,354,278396,2,0,L|485:291,2,33.7500012874604,8|0|0,0:0|0:0|0:0,0:0:0:0:
316,200,278745,1,0,0:0:0:0:
316,200,278832,1,0,0:0:0:0:
316,200,278919,1,0,0:0:0:0:
138,237,279093,5,8,0:0:0:0:
218,278,279268,1,0,0:0:0:0:
224,189,279442,1,0,0:0:0:0:
127,245,279617,2,0,P|101:275|47:361,1,135.000005149842,8|0,0:0|0:0,0:0:0:0:
73,178,280140,2,0,P|57:138|46:110,1,67.5000025749208,8|0,0:0|0:0,0:0:0:0:
233,186,280489,2,0,P|249:226|260:254,1,67.5000025749208,8|0,0:0|0:0,0:0:0:0:
372,96,280838,6,0,P|359:64|347:33,2,67.5000025749208
336,176,281361,2,0,P|368:240|400:312,1,135.000005149842
400,304,281884,2,0,P|444:293|488:288,1,67.5000025749208,4|0,1:2|0:0,0:0:0:0:
240,248,282233,2,0,P|195:237|152:232,1,67.5000025749208,8|0,0:0|0:0,0:0:0:0:
157,233,282495,1,0,0:0:0:0:
140,233,282582,1,0,0:0:0:0:
33,267,282756,1,0,0:0:0:0:
236,168,282931,6,0,P|251:103|256:33,1,135.000005149842,8|0,0:0|0:0,0:0:0:0:
479,89,283454,2,0,P|414:108|328:156,1,135.000005149842,8|0,0:0|0:0,0:0:0:0:
230,175,283977,2,0,P|261:198|282:225,1,67.5000025749208
328,308,284326,1,0,0:0:0:0:
312,314,284413,2,0,L|300:366,2,33.7500012874604
328,308,284675,6,0,P|387:283|471:280,1,135.000005149842,8|0,0:0|0:0,0:0:0:0:
467,281,285198,2,0,L|478:353,1,67.5000025749208,8|0,0:0|0:0,0:0:0:0:
240,289,285547,1,0,0:0:0:0:
363,196,285721,2,0,L|373:129,1,67.5000025749208,8|0,0:0|0:0,0:0:0:0:
277,67,286070,1,0,0:0:0:0:
293,61,286157,2,0,L|305:9,2,33.7500012874604
277,67,286419,2,0,L|190:85,1,67.5000025749208
106,96,286768,6,0,L|77:237,1,135.000005149842
98,77,287291,2,0,L|69:218,1,135.000005149842,8|0,0:0|0:0,0:0:0:0:
270,184,287814,2,0,P|233:154|211:144,1,67.5000025749208
172,319,288163,1,0,0:0:0:0:
156,325,288250,2,0,L|144:377,2,33.7500012874604
172,319,288512,6,0,P|229:293|306:286,1,135.000005149842
478,189,289035,2,0,P|391:198|340:150,1,135.000005149842,8|0,0:0|0:0,0:0:0:0:
419,65,289559,1,0,0:0:0:0:
489,187,289733,1,0,0:0:0:0:
430,312,289907,1,0,0:0:0:0:
446,318,289994,2,0,L|458:370,2,33.7500012874604
430,312,290256,2,0,L|343:294,1,67.5000025749208
184,182,290605,6,0,L|271:200,1,67.5000025749208,8|0,0:0|0:0,0:0:0:0:
329,73,290954,1,0,0:0:0:0:
175,178,291128,2,0,P|129:233|95:297,1,135.000005149842
118,118,291652,2,0,P|108:66|102:41,1,67.5000025749208
269,168,292000,2,0,P|279:220|285:245,1,67.5000025749208,8|0,0:0|0:0,0:0:0:0:
431,162,292349,6,0,P|421:110|415:85,1,67.5000025749208,4|0,0:2|0:0,0:0:0:0:
291,246,292698,1,0,0:0:0:0:
487,361,292873,2,0,P|517:303|505:230,1,135.000005149842
284,245,293396,2,0,P|268:290|273:317,1,67.5000025749208
345,148,293745,2,0,L|327:79,1,67.5000025749208,8|0,0:0|0:0,0:0:0:0:
217,29,294093,2,0,L|235:98,1,67.5000025749208
82,246,294442,5,0,0:0:0:0:
73,231,294529,1,0,0:0:0:0:
72,213,294617,1,0,0:0:0:0:
75,196,294704,1,0,0:0:0:0:
85,183,294791,2,0,L|136:162,3,33.7500012874604
185,213,295140,1,0,0:0:0:0:
202,226,295227,2,0,L|216:318,1,67.5000025749208
215,310,295489,1,0,0:0:0:0:
260,164,295663,2,0,L|249:80,1,67.5000025749208
249,83,295925,2,0,P|286:63|329:56,1,67.5000025749208
325,57,296186,6,0,L|381:65,4,33.7500012874604
408,128,296652,2,0,L|435:133,3,22.5000008583069
409,147,296884,1,0,0:0:0:0:
412,163,296971,1,0,0:0:0:0:
414,179,297059,1,0,0:0:0:0:
416,195,297146,1,0,0:0:0:0:
416,211,297233,5,0,0:0:0:0:
348,328,297407,1,0,0:0:0:0:
216,364,297582,1,0,0:0:0:0:
140,252,297756,1,0,0:0:0:0:
184,124,297931,1,8,0:0:0:0:
256,240,298105,1,8,0:0:0:0:
192,356,298279,1,4,2:0:0:0:
160,80,313279,5,0,0:0:0:0:
168,88,313627,6,0,P|208:160|224:200,1,90,0|0,0:0|2:0,0:0:0:0:
328,192,313976,2,0,P|288:120|272:80,1,90,0|0,0:0|2:0,0:0:0:0:
424,120,314325,1,0,0:0:0:0:
400,248,314499,5,0,3:0:0:0:
400,248,314587,1,0,3:0:0:0:
400,248,314674,2,0,P|371:292|352:336,1,90,0|0,0:0|2:0,0:0:0:0:
224,288,315023,2,0,P|195:332|176:376,1,90,0|0,0:0|2:0,0:0:0:0:
80,208,315372,2,0,P|51:252|32:296,1,90,0|0,0:0|2:0,0:0:0:0:
192,192,315720,5,0,0:0:0:0:
64,80,315895,1,0,0:0:0:0:
224,112,316069,2,0,P|263:123|328:128,1,90,0|0,0:0|2:0,0:0:0:0:
480,72,316418,2,0,P|440:60|376:56,1,90,0|0,2:0|2:0,2:0:0:0:
312,144,316767,1,0,0:0:0:0:
384,288,316941,2,0,P|423:299|488:304,1,90,0|0,2:0|0:0,0:0:0:0:
416,136,317290,1,0,2:0:0:0:
240,192,317465,6,0,P|176:208|64:248,1,180
104,144,317988,1,0,2:0:0:0:
192,304,318162,2,0,P|221:348|240:392,1,90,0|0,0:0|2:0,0:0:0:0:
352,248,318511,6,0,P|381:292|400:336,1,90,0|0,0:0|2:0,0:0:0:0:
448,112,318860,2,0,P|477:156|496:200,1,90,0|0,0:0|2:0,0:0:0:0:
344,232,319209,1,0,0:0:0:0:
360,40,319383,5,0,0:0:0:0:
360,40,319470,1,0,0:0:0:0:
360,40,319558,2,0,L|376:104,1,45,0|0,0:0|2:0,0:0:0:0:
288,88,319732,2,0,L|280:144,1,45,0|0,2:0|2:0,0:0:0:0:
200,112,319906,2,0,L|176:160,1,45,0|0,2:0|2:0,0:0:0:0:
104,104,320081,2,0,L|72:136,1,45,0|0,2:0|2:0,0:0:0:0:
24,56,320255,2,0,L|-24:80,3,45
4,154,320604,5,0,0:0:0:0:
38,182,320691,1,0,0:0:0:0:
65,218,320779,1,0,0:0:0:0:
83,258,320866,1,0,0:0:0:0:
96,300,320953,2,0,P|98:322|91:358,3,45
96,300,321302,5,0,0:0:0:0:
342,222,321651,2,0,P|302:150|286:110,1,90,0|0,0:0|2:0,0:0:0:0:
238,275,322000,2,0,P|278:347|294:387,1,90,0|0,0:0|2:0,0:0:0:0:
170,344,322349,1,0,0:0:0:0:
334,228,322523,1,0,2:0:0:0:
209,159,322697,6,0,P|161:141|114:132,1,90,0|0,0:0|2:0,0:0:0:0:
0,33,323046,2,0,P|47:50|95:60,1,90,0|0,0:0|2:0,0:0:0:0:
132,214,323395,1,0,0:0:0:0:
259,81,323569,2,0,P|313:55|349:48,1,90,0|0,2:0|0:0,0:0:0:0:
438,73,323918,1,0,0:0:0:0:
284,232,324092,1,0,2:0:0:0:
177,210,324267,5,0,0:0:0:0:
415,243,324441,1,0,0:0:0:0:
164,312,324616,1,0,0:0:0:0:
364,173,324790,2,0,P|376:123|379:81,1,90,0|0,0:0|2:0,0:0:0:0:
494,184,325139,2,0,P|513:243|519:290,1,90,0|0,0:0|2:0,0:0:0:0:
486,355,325488,1,0,0:0:0:0:
320,319,325662,1,0,0:0:0:0:
478,342,325837,1,0,0:0:0:0:
167,157,326185,5,0,0:0:0:0:
145,45,326534,1,0,0:0:0:0:
51,123,326883,1,4,0:0:0:0:
256,192,326970,12,4,328976,2:0:0:0:
448,236,329325,5,0,0:0:0:0:
372,292,329499,2,0,B|340:300|304:288|304:288|264:276|228:284,1,144
156,344,330023,2,0,P|228:296|168:208,1,216
76,228,330720,2,0,P|60:272|52:308,1,72
104,140,331069,2,0,P|96:80|88:48,1,72
208,224,331418,2,0,P|200:268|200:304,1,72
396,192,331767,6,0,P|412:136|400:44,1,144,2|0,0:0|0:0,0:0:0:0:
328,284,332290,2,0,P|296:220|292:140,1,144
470,287,332813,2,0,P|399:275|328:284,1,144
112,332,333337,2,0,P|180:328|256:348,1,144
196,220,333860,2,0,P|184:176|180:140,1,72
212,80,334122,1,0,0:0:0:0:
212,80,334209,2,0,L|240:56,1,36,2|0,0:0|0:0,0:0:0:0:
324,36,334383,2,0,L|380:48,1,36
429,103,334558,6,0,P|360:86|296:116,1,144,2|0,0:0|0:0,0:0:0:0:
280,212,335081,1,0,0:0:0:0:
204,80,335255,2,0,P|196:48|196:-8,1,72
136,148,335604,1,0,0:0:0:0:
184,232,335779,2,0,P|180:320|164:376,1,144,2|0,0:0|0:0,0:0:0:0:
284,316,336302,2,0,P|332:312|368:312,1,72
504,256,336651,2,0,P|460:256|420:252,1,72
300,172,336999,2,0,P|336:172|376:180,1,72
228,236,337348,6,0,P|208:176|216:120,1,108,2|0,0:0|0:0,0:0:0:0:
224,112,337697,1,0,0:0:0:0:
132,136,337872,1,0,0:0:0:0:
48,92,338046,1,2,0:0:0:0:
48,92,338395,2,0,L|56:176,1,72
56,352,338744,6,0,P|100:292|164:264,1,144,0|2,0:0|0:0,0:0:0:0:
256,264,339267,1,0,0:0:0:0:
316,336,339441,1,0,3:0:0:0:
260,240,339616,1,0,3:0:0:0:
384,296,339790,1,0,3:0:0:0:
264,212,339965,1,0,3:0:0:0:
432,232,340139,6,0,L|512:224,1,80.9999975280763,2|0,0:0|0:0,0:0:0:0:
352,176,340488,2,0,P|344:132|344:88,1,80.9999975280763,2|0,0:0|0:0,0:0:0:0:
264,212,340837,1,0,0:0:0:0:
188,152,341011,2,0,P|176:108|176:64,1,80.9999975280763,2|0,0:0|0:0,0:0:0:0:
360,196,341360,1,0,0:0:0:0:
324,288,341534,2,0,L|332:372,1,80.9999975280763,2|0,0:0|0:0,0:0:0:0:
172,248,341883,1,0,0:0:0:0:
264,212,342058,1,2,0:0:0:0:
184,344,342232,2,0,L|96:352,1,80.9999975280763
32,168,342581,2,0,L|120:176,1,80.9999975280763,2|0,0:0|3:0,0:0:0:0:
300,124,342930,5,0,3:0:0:0:
204,104,343104,1,0,0:0:0:0:
108,80,343279,2,0,L|196:72,1,80.9999975280763,2|0,0:0|0:0,0:0:0:0:
8,60,343627,2,0,L|96:52,1,80.9999975280763,2|0,0:0|0:0,0:0:0:0:
232,196,343976,1,0,0:0:0:0:
295,269,344151,2,0,P|328:197|299:123,1,161.999995056153,2|0,0:0|0:0,0:0:0:0:
152,140,344674,2,0,P|136:200|140:232,1,80.9999975280763
220,328,345023,1,0,0:0:0:0:
336,272,345197,2,0,B|352:260|352:260|352:236|352:236|363:218|363:218|376:164|356:112,1,161.999995056153,2|0,0:0|0:0,0:0:0:0:
212,40,345720,6,0,P|272:56|304:60,1,80.9999975280763,2|0,0:0|0:0,0:0:0:0:
440,24,346069,2,0,P|404:60|384:88,1,80.9999975280763,2|0,0:0|0:0,0:0:0:0:
368,180,346418,1,0,0:0:0:0:
452,324,346592,2,0,P|456:260|448:228,1,80.9999975280763,2|0,0:0|0:0,0:0:0:0:
376,184,346941,1,0,0:0:0:0:
320,364,347116,2,0,P|308:316|308:260,1,80.9999975280763,2|0,0:0|0:0,0:0:0:0:
268,116,347465,2,0,P|260:180|252:212,1,80.9999975280763,0|2,0:0|0:0,0:0:0:0:
136,288,347813,1,0,0:0:0:0:
240,212,347988,1,0,0:0:0:0:
116,140,348162,2,0,L|16:132,1,80.9999975280763,2|0,0:0|0:0,0:0:0:0:
184,72,348511,6,0,P|248:100|356:64,1,180,4|0,0:0|0:0,0:0:0:0:
414,140,349034,1,0,0:0:0:0:
366,244,349209,1,0,0:0:0:0:
256,180,349383,1,0,0:0:0:0:
392,124,349558,1,0,0:0:0:0:
384,288,349732,1,0,0:0:0:0:
236,180,349906,6,0,B|224:136|224:136|228:84,1,90,12|0,0:0|0:0,0:0:0:0:
320,232,350255,1,0,0:0:0:0:
116,168,350430,2,0,B|72:168|72:168|4:184,1,90,12|0,0:0|0:0,0:0:0:0:
196,268,350779,1,0,0:0:0:0:
320,116,350953,2,0,B|368:116|368:116|408:132,1,90,12|2,0:0|0:2,0:0:0:0:
428,140,351215,1,2,0:2:0:0:
444,148,351302,5,2,0:2:0:0:
276,304,351534,1,8,0:3:0:0:
224,80,351767,1,2,0:2:0:0:
396,264,351999,5,8,0:0:0:0:
232,212,352174,1,2,0:2:0:0:
232,212,352261,1,0,0:0:0:0:
232,212,352348,1,12,0:0:0:0:
360,96,352523,1,2,0:2:0:0:
264,312,352697,6,0,P|200:328|116:252,1,180,4|0,0:0|0:0,0:0:0:0:
88,176,353220,1,0,0:0:0:0:
192,52,353395,1,0,0:0:0:0:
216,204,353569,1,0,0:0:0:0:
116,80,353744,1,0,0:0:0:0:
312,44,353918,1,2,0:0:0:0:
312,44,354616,6,0,P|336:120|344:180,1,135.000005149842,2|0,2:0|0:0,0:0:0:0:
344,190,355052,1,0,0:0:0:0:
344,204,355139,2,0,P|408:224|464:212,1,107.999996704102
220,96,355488,6,0,P|156:178|176:281,1,215.999993408203,4|8,1:0|0:0,0:0:0:0:
260,352,356011,1,0,0:0:0:0:
352,296,356185,1,0,0:0:0:0:
304,144,356360,1,0,0:0:0:0:
168,264,356534,1,8,0:0:0:0:
20,144,356709,6,0,P|16:80|20:28,1,107.999996704102,6|0,0:0|2:0,0:0:0:0:
284,148,357058,2,0,P|288:212|284:264,1,107.999996704102,2|8,0:0|1:0,0:0:0:0:
384,160,357406,2,0,P|388:96|384:44,1,107.999996704102,2|0,0:0|2:0,0:0:0:0:
80,192,357755,2,0,P|76:256|80:308,1,107.999996704102,2|8,0:0|0:0,0:0:0:0:
232,360,358104,5,2,0:0:0:0:
232,360,358191,1,0,0:0:0:0:
232,360,358279,2,0,P|272:312|344:272,1,107.999996704102,4|0,0:0|0:0,0:0:0:0:
480,216,358627,1,8,0:0:0:0:
392,360,358802,1,0,0:0:0:0:
264,208,358976,2,0,P|224:160|152:120,1,107.999996704102
112,100,359325,1,8,0:0:0:0:
320,136,359499,6,0,P|400:152|480:44,1,215.999993408203,4|0,0:0|0:0,0:0:0:0:
480,58,359935,1,0,0:0:0:0:
480,58,360023,1,8,0:0:0:0:
376,12,360197,1,0,0:0:0:0:
260,196,360372,1,0,0:0:0:0:
464,280,360546,1,0,0:0:0:0:
412,112,360720,1,8,0:0:0:0:
192,232,360895,5,0,0:0:0:0:
192,232,360982,1,0,0:0:0:0:
192,232,361069,2,0,P|168:304|156:344,1,107.999996704102,6|0,0:0|0:0,0:0:0:0:
32,252,361418,1,8,0:0:0:0:
280,264,361592,1,2,0:0:0:0:
280,264,361680,1,0,0:0:0:0:
280,264,361767,2,0,P|295:212|313:161,1,107.999996704102
356,60,362116,1,10,0:0:0:0:
512,256,362290,6,0,P|480:336|344:340,1,215.999993408203,4|0,0:0|0:0,0:0:0:0:
349,346,362726,1,0,0:0:0:0:
336,340,362813,1,10,0:0:0:0:
308,84,362988,1,0,0:0:0:0:
432,204,363162,1,2,0:0:0:0:
383,227,363249,1,0,0:0:0:0:
330,229,363336,1,0,0:0:0:0:
279,211,363423,1,0,0:0:0:0:
232,185,363510,1,10,0:0:0:0:
181,167,363598,1,0,0:0:0:0:
128,171,363685,1,0,0:0:0:0:
80,197,363772,1,0,0:0:0:0:
56,244,363860,6,0,P|48:300|72:360,1,107.999996704102,4|0,0:0|0:0,0:0:0:0:
216,360,364209,1,8,0:0:0:0:
304,256,364383,1,0,0:0:0:0:
240,120,364558,2,0,P|232:60|232:8,1,107.999996704102
336,44,364906,1,8,0:0:0:0:
136,100,365081,6,0,P|100:164|188:276,1,215.999993408203,4|0,0:0|0:0,0:0:0:0:
188,276,365517,1,0,0:0:0:0:
205,273,365604,1,8,0:0:0:0:
304,152,365779,1,0,0:0:0:0:
124,96,365953,2,0,P|44:168|16:208,1,107.999996704102
304,256,366302,2,0,P|384:328|412:368,1,107.999996704102,8|0,0:0|0:0,0:0:0:0:
432,128,366651,6,0,P|512:56|540:16,1,107.999996704102,4|0,0:0|0:0,0:0:0:0:
240,60,366999,1,8,0:0:0:0:
200,160,367174,1,0,0:0:0:0:
232,264,367348,1,0,0:0:0:0:
172,356,367523,2,0,P|120:332|84:288,1,107.999996704102,0|8,0:0|0:0,0:0:0:0:
232,252,367872,6,0,L|344:220,1,107.999996704102,6|0,0:0|0:0,0:0:0:0:
512,248,368220,2,0,L|400:280,1,107.999996704102,2|8,0:0|0:0,0:0:0:0:
224,240,368569,1,2,0:0:0:0:
248,48,368744,1,0,0:0:0:0:
384,168,368918,1,0,0:0:0:0:
184,152,369092,1,10,0:0:0:0:
352,16,369267,1,0,0:0:0:0:
372,176,369441,6,0,L|364:292,1,107.999996704102,12|0,1:0|0:0,0:0:0:0:
140,176,369790,2,0,L|148:292,1,107.999996704102,12|0,0:0|0:0,0:0:0:0:
388,164,370139,2,0,L|380:280,1,107.999996704102,12|0,0:0|0:0,0:0:0:0:
124,164,370488,2,0,L|132:280,1,107.999996704102,12|0,0:0|0:0,0:0:0:0:
212,372,370837,5,12,0:0:0:0:
472,180,371011,2,0,P|471:232|460:288,1,107.999996704102,0|8,0:0|0:0,0:0:0:0:
256,272,371360,1,0,0:0:0:0:
40,180,371534,2,0,P|40:232|52:288,1,107.999996704102,12|0,0:0|0:0,0:0:0:0:
392,204,371883,1,12,0:0:0:0:
112,116,372058,1,0,0:0:0:0:
240,276,372232,5,12,1:0:0:0:
272,320,372319,1,0,0:0:0:0:
320,340,372406,1,0,0:0:0:0:
376,344,372494,1,0,0:0:0:0:
424,324,372581,1,8,0:0:0:0:
456,281,372668,1,0,0:0:0:0:
464,227,372755,1,0,0:0:0:0:
450,174,372842,1,0,0:0:0:0:
411,135,372930,1,8,0:0:0:0:
358,124,373017,1,0,0:0:0:0:
311,150,373104,1,0,0:0:0:0:
304,203,373191,1,0,0:0:0:0:
335,247,373279,1,8,0:0:0:0:
424,44,373453,6,0,L|208:32,1,202.500007724762,4|2,0:0|2:0,0:0:0:0:
56,244,374325,5,0,0:0:0:0:
104,224,374412,1,0,0:0:0:0:
156,224,374499,1,0,0:0:0:0:
208,240,374587,1,0,0:0:0:0:
252,272,374674,2,0,L|264:328,3,53.9999983520508
268,364,375023,1,4,0:0:0:0:
256,192,375110,12,4,376244,0:2:0:0:
