osu file format v14

[General]
AudioFilename: Clean.mp3
AudioLeadIn: 0
PreviewTime: 46162
Countdown: 0
SampleSet: Soft
StackLeniency: 0.7
Mode: 0
LetterboxInBreaks: 0
WidescreenStoryboard: 0

[Editor]
Bookmarks: 6340,12055,17769,23305,34733,63305,69019,70626
DistanceSpacing: 1.3
BeatDivisor: 4
GridSize: 4
TimelineZoom: 1

[Metadata]
Title:Clean
TitleUnicode:Clean
Artist:FELT
ArtistUnicode:FELT
Creator:Kinshara
Version:Hard
Source:
Tags:sevens head original NAGI☆ hakurei shrine reitaisai 例大祭 12 rts12
BeatmapID:712783
BeatmapSetID:320155

[Difficulty]
HPDrainRate:5
CircleSize:4
OverallDifficulty:7
ApproachRate:7.5
SliderMultiplier:1.30000000596046
SliderTickRate:1

[Events]
//Background and Video events
0,0,"clean bg.jpg",0,0
//Break Periods
2,23505,34087
//Storyboard Layer 0 (Background)
//Storyboard Layer 1 (Fail)
//Storyboard Layer 2 (Pass)
//Storyboard Layer 3 (Foreground)
//Storyboard Sound Samples

[TimingPoints]
448,357.142857142857,4,2,1,10,1,0
448,-500,4,2,1,10,0,0
537,-500,4,2,1,5,0,0
6340,-500,4,2,1,10,0,0
6430,-500,4,2,1,5,0,0
12055,-500,4,2,1,10,0,0
12144,-500,4,2,1,5,0,0
17769,-500,4,2,1,10,0,0
17858,-500,4,2,1,5,0,0
23305,-125,4,2,1,30,0,0
46162,-125,4,2,2,40,0,0
47590,-125,4,2,2,20,0,0
47947,-125,4,2,2,70,0,0
48126,-125,4,2,2,40,0,0
48662,-125,4,2,2,70,0,0
48840,-125,4,2,2,40,0,0
49019,-125,4,2,2,70,0,0
49733,-125,4,2,2,40,0,0
50090,-125,4,2,2,70,0,0
50447,-125,4,2,2,40,0,0
50805,-125,4,2,2,70,0,0
51162,-125,4,2,2,30,0,0
51519,-125,4,2,2,70,0,0
51876,-125,4,2,2,20,0,0
52233,-125,4,2,2,70,0,0
52590,-125,4,2,2,40,0,0
52947,-125,4,2,2,70,0,0
53215,-125,4,2,2,40,0,0
53305,-125,4,2,2,70,0,0
53840,-125,4,2,2,40,0,0
54376,-125,4,2,2,70,0,0
54555,-125,4,2,2,40,0,0
54733,-125,4,2,2,70,0,0
54912,-125,4,2,2,40,0,0
55090,-125,4,2,2,70,0,0
55626,-125,4,2,2,40,0,0
55805,-125,4,2,2,70,0,0
56162,-125,4,2,69,20,0,0
56697,-125,4,2,2,40,0,0
57947,-125,4,2,2,70,0,0
58483,-125,4,2,2,40,0,0
58662,-125,4,2,2,70,0,0
58930,-125,4,2,2,40,0,0
59019,-125,4,2,2,20,0,0
59376,-125,4,2,2,70,0,0
59555,-125,4,2,2,50,0,0
60090,-125,4,2,2,70,0,0
60269,-125,4,2,2,50,0,0
60447,-125,4,2,2,70,0,0
60626,-125,4,2,2,50,0,0
60805,-125,4,2,2,70,0,0
61340,-125,4,2,2,50,0,0
61519,-125,4,2,2,70,0,0
61876,-125,4,2,2,50,0,0
62590,-125,4,2,2,30,0,0
62769,-125,4,2,2,50,0,0
63305,-111.111111111111,4,2,2,60,0,0
66162,-111.111111111111,4,2,2,70,0,0
69019,-100,4,3,99,90,0,1
69108,-100,4,2,4,90,0,1
69733,-100,4,2,4,90,0,0
70447,-100,4,2,5,90,0,0
70626,-100,4,2,4,90,0,0
73305,-100,4,2,5,90,0,0
73483,-100,4,2,4,90,0,0
74019,-100,4,2,5,90,0,0
74197,-100,4,2,4,90,0,0
74376,-100,4,2,5,90,0,0
74555,-100,4,2,4,90,0,0
74733,-100,4,3,99,90,0,0
74912,-100,4,2,4,90,0,0
79822,-100,4,2,4,50,0,0
80090,-100,4,2,4,90,0,0
80447,-100,4,3,99,90,0,1
80626,-100,4,2,4,90,0,1
81162,-100,4,2,4,90,0,0
81876,-100,4,2,5,90,0,0
82055,-100,4,2,4,90,0,0
84733,-100,4,2,5,90,0,0
84912,-100,4,2,4,90,0,0
85447,-100,4,2,5,90,0,0
85537,-100,4,2,4,90,0,0
85805,-100,4,2,5,90,0,0
85894,-100,4,2,4,90,0,0
85983,-100,4,2,5,90,0,0
86162,-100,4,3,99,90,0,0
86251,-100,4,2,4,90,0,0
91876,-100,4,2,4,60,0,1
91965,-100,4,2,4,50,0,0
94733,-100,4,2,4,40,0,0
96162,-100,4,2,4,30,0,0
97590,-100,4,2,4,20,0,0
99019,-100,4,2,4,10,0,0
100269,-100,4,2,4,5,0,0

[Colours]
Combo1 : 244,160,85
Combo2 : 235,101,135
Combo3 : 70,227,137
Combo4 : 102,184,227

[HitObjects]
108,16,448,6,0,B|124:44|132:76|132:76|124:104|112:132|112:132|148:156|172:216|128:268|52:276|12:240|4:180|36:148,1,416.000001907347,4|0,0:0|0:0,0:0:0:0:
34,149,6340,6,0,B|55:120|91:117|127:139|127:139|187:171|239:131|239:131|269:141|315:159|315:159|292:110|318:60,1,403.000001847743,4|0,0:0|0:0,0:0:0:0:
316,65,12055,6,0,B|350:28|415:32|436:100|411:189|319:163|319:163|355:199|351:235|351:235|327:255|315:291,1,403.000001847743,4|0,0:0|0:0,0:0:0:0:
316,286,17769,6,0,P|344:348|351:227,1,390.000001788138,4|0,0:0|0:0,0:0:0:0:
353,225,23305,5,4,0:0:0:0:
104,64,34912,5,4,0:0:0:0:
167,108,35090,2,0,P|193:105|219:100,1,52.0000002384184,0|0,0:0|0:0,0:0:0:0:
284,56,35447,2,0,P|309:58|335:63,1,52.0000002384184,0|0,0:0|0:0,0:0:0:0:
396,116,35805,1,0,0:0:0:0:
323,144,35983,6,0,P|320:195|333:245,1,104.000000476837,0|0,0:0|0:0,0:0:0:0:
324,324,36519,2,0,P|320:349|312:374,1,52.0000002384184,0|0,0:0|0:0,0:0:0:0:
263,275,36876,2,0,P|254:251|249:226,1,52.0000002384184,0|0,0:0|0:0,0:0:0:0:
240,148,37233,1,0,0:0:0:0:
180,196,37412,6,0,P|128:192|83:167,1,104.000000476837,0|4,0:0|0:0,0:0:0:0:
48,100,37947,2,0,P|44:64|44:36,2,52.0000002384184,0|0|0,0:0|0:0|0:0,0:0:0:0:
83,167,38483,1,0,0:0:0:0:
48,236,38662,1,0,0:0:0:0:
48,236,38840,6,0,P|59:286|60:338,1,104.000000476837,0|0,0:0|0:0,0:0:0:0:
135,324,39376,2,0,P|161:317|186:314,1,52.0000002384184,0|0,0:0|0:0,0:0:0:0:
260,340,39733,2,0,P|285:346|310:349,2,52.0000002384184,0|0|0,0:0|0:0|0:0,0:0:0:0:
244,263,40269,6,0,P|289:239|340:235,1,104.000000476837,0|4,0:0|0:0,0:0:0:0:
411,271,40805,2,0,P|418:297|420:323,1,52.0000002384184,0|0,0:0|0:0,0:0:0:0:
408,196,41162,2,0,P|410:170|416:144,1,52.0000002384184,0|0,0:0|0:0,0:0:0:0:
440,72,41519,1,0,0:0:0:0:
364,84,41697,6,0,P|316:66|281:29,1,104.000000476837,0|0,0:0|0:0,0:0:0:0:
204,52,42233,2,0,P|209:26|211:0,2,52.0000002384184,0|0|0,0:0|0:0|0:0,0:0:0:0:
156,112,42769,1,0,0:0:0:0:
156,112,42947,1,0,0:0:0:0:
84,144,43126,6,0,P|134:156|174:188,1,104.000000476837,0|4,0:0|0:0,0:0:0:0:
200,260,43662,2,0,P|200:285|197:311,1,52.0000002384184,0|0,0:0|0:0,0:0:0:0:
252,200,44019,2,0,P|248:174|248:148,2,52.0000002384184,0|0|0,0:0|0:0|0:0,0:0:0:0:
280,272,44555,6,0,P|328:252|392:252,1,104.000000476837,0|0,0:0|0:0,0:0:0:0:
440,176,45090,2,0,P|414:172|389:165,1,52.0000002384184,0|0,0:0|0:0,0:0:0:0:
324,124,45447,1,0,0:0:0:0:
324,124,45626,1,0,0:0:0:0:
284,56,45805,2,0,P|283:30|285:4,1,52.0000002384184,0|0,0:0|0:0,0:0:0:0:
240,120,46162,6,0,P|188:113|143:88,1,104.000000476837,2|0,0:0|0:0,0:0:0:0:
104,24,46697,1,0,0:0:0:0:
68,92,46876,2,0,L|72:156,1,52.0000002384184,0|0,0:0|0:0,0:0:0:0:
128,196,47233,2,0,L|132:260,1,52.0000002384184,0|0,0:0|0:0,0:0:0:0:
92,316,47590,6,0,P|138:293|189:293,1,104.000000476837,6|4,0:0|0:0,0:0:0:0:
260,328,48126,1,0,0:0:0:0:
336,303,48305,2,0,P|359:293|380:277,1,52.0000002384184,8|0,0:0|0:0,0:0:0:0:
360,204,48662,2,0,P|369:179|372:154,1,52.0000002384184,4|0,0:0|0:0,0:0:0:0:
295,156,49019,6,0,P|249:177|197:177,1,104.000000476837,4|4,0:0|0:0,0:0:0:0:
140,124,49555,1,4,0:0:0:0:
100,56,49733,2,0,P|96:20|96:0,2,52.0000002384184,8|0|4,0:0|0:0|0:0,0:0:0:0:
140,124,50269,1,4,0:0:0:0:
176,56,50447,6,0,P|222:34|274:34,1,104.000000476837,6|4,0:0|0:0,0:0:0:0:
340,80,50983,1,0,0:0:0:0:
416,71,51162,2,0,P|436:56|452:35,1,52.0000002384184,2|0,0:0|0:0,0:0:0:0:
388,140,51519,2,0,P|391:165|401:189,1,52.0000002384184,4|0,0:0|0:0,0:0:0:0:
448,252,51876,6,0,P|437:302|407:345,1,104.000000476837,2|4,0:0|0:0,0:0:0:0:
332,364,52412,1,4,0:0:0:0:
272,316,52590,2,0,P|246:309|220:307,1,52.0000002384184,0|0,0:0|0:0,0:0:0:0:
144,316,52947,1,4,0:0:0:0:
68,336,53126,1,4,0:0:0:0:
68,336,53215,1,0,0:0:0:0:
68,336,53305,6,0,P|48:292|44:232,1,104.000000476837,4|4,0:0|0:0,0:0:0:0:
64,160,53840,1,0,0:0:0:0:
100,92,54019,2,0,P|94:66|84:42,1,52.0000002384184,0|0,0:0|0:0,0:0:0:0:
144,156,54376,2,0,P|168:164|194:167,1,52.0000002384184,4|0,0:0|0:0,0:0:0:0:
268,148,54733,5,4,0:0:0:0:
272,144,54912,1,0,0:0:0:0:
276,140,55090,2,0,L|344:136,1,52.0000002384184,4|4,0:0|0:0,0:0:0:0:
352,212,55447,2,0,L|420:208,1,52.0000002384184,4|0,0:0|0:0,0:0:0:0:
476,244,55805,1,4,0:0:0:0:
472,320,55983,1,4,0:0:0:0:
400,352,56162,5,4,0:0:0:0:
392,356,56340,1,4,0:0:0:0:
384,360,56519,2,0,L|332:356,1,52.0000002384184,4|0,0:0|0:0,0:0:0:0:
280,296,56876,2,0,P|254:297|228:302,1,52.0000002384184,0|0,0:0|0:0,0:0:0:0:
216,224,57233,2,0,P|241:222|267:217,1,52.0000002384184,4|0,0:0|0:0,0:0:0:0:
156,168,57590,6,0,P|140:120|143:68,1,104.000000476837,6|4,0:0|0:0,0:0:0:0:
200,16,58126,1,4,0:0:0:0:
272,52,58305,2,0,L|328:48,1,52.0000002384184,4|0,0:0|0:0,0:0:0:0:
400,40,58662,1,4,0:0:0:0:
464,80,58840,1,4,0:0:0:0:
468,84,58930,1,0,0:0:0:0:
472,88,59019,6,0,P|471:139|458:190,1,104.000000476837,2|4,0:0|0:0,0:0:0:0:
392,232,59555,1,0,0:0:0:0:
320,196,59733,2,0,P|294:190|268:189,1,52.0000002384184,0|0,0:0|0:0,0:0:0:0:
212,244,60090,2,0,P|186:250|160:251,1,52.0000002384184,4|0,0:0|0:0,0:0:0:0:
84,236,60447,5,4,0:0:0:0:
24,184,60626,1,0,0:0:0:0:
24,184,60805,2,0,P|20:158|19:132,1,52.0000002384184,4|4,0:0|0:0,0:0:0:0:
84,236,61162,2,0,P|82:261|79:287,1,52.0000002384184,4|0,0:0|0:0,0:0:0:0:
60,364,61519,1,4,0:0:0:0:
60,364,61697,1,4,0:0:0:0:
136,340,61876,6,0,L|204:336,1,52.0000002384184,2|4,0:0|0:0,0:0:0:0:
224,352,62144,1,4,0:0:0:0:
224,352,62233,2,0,L|292:348,1,52.0000002384184,4|0,0:0|0:0,0:0:0:0:
336,300,62590,2,0,P|313:254|311:203,1,104.000000476837,2|4,0:0|0:0,0:0:0:0:
376,156,63126,1,0,0:0:0:0:
372,76,63305,5,2,0:0:0:0:
300,116,63483,1,4,0:0:0:0:
300,116,63572,1,4,0:0:0:0:
300,116,63662,2,0,L|241:119,1,58.4999984829424,4|0,0:0|0:0,0:0:0:0:
160,124,64019,1,0,0:0:0:0:
160,124,64197,1,0,0:0:0:0:
208,192,64376,2,0,L|204:250,1,58.4999984829424,0|0,0:0|0:0,0:0:0:0:
128,284,64733,6,0,P|129:313|135:341,1,58.4999984829424,4|0,0:0|0:0,0:0:0:0:
212,372,65090,1,4,0:0:0:0:
212,372,65269,1,0,0:0:0:0:
264,308,65447,2,0,P|318:286|376:287,1,116.999996965885,0|0,0:0|0:0,0:0:0:0:
452,320,65983,1,0,0:0:0:0:
504,256,66162,5,0,0:0:0:0:
464,184,66340,1,0,0:0:0:0:
464,184,66430,1,0,0:0:0:0:
464,184,66519,2,0,P|453:155|449:126,1,58.4999984829424,0|0,0:0|0:0,0:0:0:0:
492,55,66876,2,0,P|441:84|383:87,1,116.999996965885,0|0,0:0|0:0,0:0:0:0:
332,24,67412,1,0,0:0:0:0:
264,72,67590,5,4,0:0:0:0:
316,136,67769,1,4,0:0:0:0:
320,140,67858,1,4,0:0:0:0:
324,144,67947,2,0,P|320:172|309:200,1,58.4999984829424,4|0,0:0|0:0,0:0:0:0:
228,188,68305,2,0,P|179:156|121:151,1,116.999996965885,0|0,0:0|0:0,0:0:0:0:
48,188,68840,1,0,0:0:0:0:
56,272,69019,5,12,0:0:0:0:
136,296,69197,1,0,0:0:0:0:
140,300,69287,1,0,0:0:0:0:
144,304,69376,2,0,L|224:300,1,65.000000298023
292,296,69733,2,0,L|324:298,3,32.5000001490115
364,284,70090,2,0,P|371:252|373:220,1,65.000000298023
336,144,70447,5,10,0:0:0:0:
296,72,70626,1,0,0:0:0:0:
296,72,70715,1,0,0:0:0:0:
296,72,70805,2,0,P|288:40|286:8,1,65.000000298023,0|2,0:0|0:0,0:0:0:0:
256,148,71162,2,0,P|191:142|139:105,1,130.000000596046,8|8,0:0|0:0,0:0:0:0:
56,104,71697,1,8,0:0:0:0:
92,180,71876,6,0,L|88:260,1,65.000000298023,2|0,0:0|0:0,0:0:0:0:
172,244,72233,2,0,P|202:233|235:230,1,65.000000298023,0|2,0:0|0:0,0:0:0:0:
312,264,72590,2,0,L|344:268,3,32.5000001490115,8|0|0|0,0:0|0:0|0:0|0:0,0:0:0:0:
388,268,72947,2,0,P|420:264|451:254,1,65.000000298023,8|8,0:0|0:0,0:0:0:0:
492,180,73305,5,10,0:0:0:0:
424,132,73483,1,0,0:0:0:0:
424,132,73572,1,0,0:0:0:0:
424,132,73662,2,0,P|392:136|361:146,1,65.000000298023,0|2,0:0|0:0,0:0:0:0:
279,168,74019,2,0,P|216:156|169:113,1,130.000000596046,12|12,0:0|0:0,0:0:0:0:
112,52,74555,1,8,0:0:0:0:
48,108,74733,5,10,0:0:0:0:
104,172,74912,1,0,0:0:0:0:
108,176,75001,1,0,0:0:0:0:
112,180,75090,2,0,P|112:212|105:244,1,65.000000298023,0|0,0:0|0:0,0:0:0:0:
28,280,75447,2,0,L|32:312,3,32.5000001490115,0|0|0|0,0:0|0:0|0:0|0:0,0:0:0:0:
40,356,75805,2,0,P|71:362|104:362,1,65.000000298023,0|0,0:0|0:0,0:0:0:0:
188,356,76162,5,2,0:0:0:0:
260,308,76340,1,0,0:0:0:0:
260,308,76430,1,0,0:0:0:0:
260,308,76519,2,0,P|292:308|324:314,1,65.000000298023,0|2,0:0|0:0,0:0:0:0:
372,244,76876,2,0,P|310:229|269:180,1,130.000000596046,8|4,0:0|0:3,0:0:0:0:
276,96,77412,1,4,0:3:0:0:
276,96,77590,5,2,0:0:0:0:
200,136,77769,1,0,0:0:0:0:
200,136,77858,1,0,0:0:0:0:
200,136,77947,2,0,P|168:136|136:130,1,65.000000298023,0|2,0:0|0:0,0:0:0:0:
52,108,78305,2,0,P|45:76|43:43,1,65.000000298023,8|0,0:0|0:0,0:0:0:0:
76,192,78662,1,8,0:0:0:0:
76,192,78840,6,0,P|68:257|27:308,1,130.000000596046,8|0,0:0|0:0,0:0:0:0:
0,336,79287,1,0,0:0:0:0:
0,336,79376,1,0,0:0:0:0:
76,376,79555,1,2,0:0:0:0:
144,328,79733,2,0,L|148:280,2,48.7500002235172,8|2|2,0:0|0:3|0:3,0:0:0:0:
180,352,80090,2,0,P|216:360|252:360,1,65.000000298023,4|8,0:3|0:3,0:0:0:0:
300,296,80447,5,12,0:0:0:0:
244,232,80626,1,0,0:0:0:0:
244,232,80715,1,0,0:0:0:0:
244,232,80805,2,0,P|237:200|235:167,1,65.000000298023,0|0,0:0|0:0,0:0:0:0:
300,112,81162,2,0,P|300:95|299:79,3,32.5000001490115,0|0|0|0,0:0|0:0|0:0|0:0,0:0:0:0:
272,48,81519,2,0,L|204:52,1,65.000000298023,0|0,0:0|0:0,0:0:0:0:
128,80,81876,5,10,0:0:0:0:
88,156,82055,1,0,0:0:0:0:
88,156,82144,1,0,0:0:0:0:
88,156,82233,2,0,P|93:188|93:220,1,65.000000298023,0|2,0:0|0:0,0:0:0:0:
31,280,82590,2,0,P|91:255|155:262,1,130.000000596046,8|8,0:0|0:0,0:0:0:0:
232,300,83126,1,8,0:0:0:0:
232,300,83305,5,2,0:0:0:0:
312,320,83483,1,0,0:0:0:0:
312,320,83572,1,0,0:0:0:0:
312,320,83662,2,0,P|344:318|375:310,1,65.000000298023,0|2,0:0|0:0,0:0:0:0:
436,248,84019,2,0,L|432:204,3,32.5000001490115,8|0|0|0,0:0|0:0|0:0|0:0,0:0:0:0:
400,188,84376,2,0,P|399:155|403:123,1,65.000000298023,8|8,0:0|0:0,0:0:0:0:
416,40,84733,5,10,0:0:0:0:
336,68,84912,1,0,0:0:0:0:
336,68,85001,1,0,0:0:0:0:
336,68,85090,2,0,P|303:66|272:58,1,65.000000298023,0|2,0:0|0:0,0:0:0:0:
188,44,85447,2,0,P|155:45|124:53,1,65.000000298023,12|0,0:0|0:0,0:0:0:0:
96,84,85715,1,0,0:0:0:0:
96,84,85805,2,0,L|99:148,1,65.000000298023,12|12,0:0|0:0,0:0:0:0:
180,176,86162,6,0,L|175:243,1,65.000000298023,10|0,0:0|0:0,0:0:0:0:
92,260,86519,2,0,L|96:327,1,65.000000298023,0|0,0:0|0:0,0:0:0:0:
168,368,86876,2,0,P|200:365|232:358,1,65.000000298023,0|0,0:0|0:0,0:0:0:0:
288,304,87233,1,0,0:0:0:0:
288,304,87412,6,0,P|352:296|413:315,1,130.000000596046,0|0,0:0|0:0,0:0:0:0:
452,332,87858,1,0,0:0:0:0:
452,332,87947,2,0,P|447:299|449:267,1,65.000000298023,0|2,0:0|0:0,0:0:0:0:
512,207,88305,2,0,P|518:144|494:84,1,130.000000596046,8|4,0:0|0:3,0:0:0:0:
424,40,88840,1,4,0:3:0:0:
424,40,89019,5,2,0:0:0:0:
352,80,89197,1,0,0:0:0:0:
352,80,89287,1,0,0:0:0:0:
352,80,89376,2,0,P|320:79|288:73,1,65.000000298023,0|2,0:0|0:0,0:0:0:0:
204,56,89733,2,0,P|142:75|99:123,1,130.000000596046,8|8,0:0|0:0,0:0:0:0:
100,208,90269,1,8,0:0:0:0:
100,208,90447,5,2,0:0:0:0:
168,260,90626,1,0,0:0:0:0:
168,260,90715,1,0,0:0:0:0:
168,260,90805,2,0,P|165:292|157:323,1,65.000000298023,0|2,0:0|0:0,0:0:0:0:
220,380,91162,1,8,0:0:0:0:
264,308,91340,1,0,0:0:0:0:
264,308,91430,1,0,0:0:0:0:
264,308,91519,2,0,P|296:311|327:319,1,65.000000298023,8|8,0:0|0:0,0:0:0:0:
408,344,91876,5,4,0:0:0:0:
256,192,91965,12,0,100269,0:0:0:0:
