osu file format v13

[General]
AudioFilename: plastic_pop.mp3
AudioLeadIn: 3000
PreviewTime: 15392
Countdown: 0
SampleSet: Soft
StackLeniency: 0.6
Mode: 3
LetterboxInBreaks: 1
SpecialStyle: 0
WidescreenStoryboard: 0

[Editor]
DistanceSpacing: 0.5
BeatDivisor: 4
GridSize: 4
TimelineZoom: 1

[Metadata]
Title:Moleskinsoft Clone Removercrk
TitleUnicode:Moleskinsoft Clone Removercrk
Artist:F4CG
ArtistUnicode:F4CG
Creator:What
Version:Hard mix
Source:
Tags:
BeatmapID:260589
BeatmapSetID:73714

[Difficulty]
HPDrainRate:7
CircleSize:4
OverallDifficulty:6
ApproachRate:8
SliderMultiplier:2.5
SliderTickRate:1

[Events]
//Background and Video events
0,0,"BG.jpg",0,0
//Break Periods
//Storyboard Layer 0 (Background)
//Storyboard Layer 1 (Fail)
//Storyboard Layer 2 (Pass)
//Storyboard Layer 3 (Foreground)
//Storyboard Sound Samples
//Background Colour Transformations
3,100,163,162,255

[TimingPoints]
32,480,4,2,0,60,1,0
132,-80,4,2,0,60,0,0
15392,-80,4,2,0,60,0,1
30752,-80,4,2,0,60,0,0
48032,-80,4,2,0,60,0,0
61472,-80,4,2,0,60,0,0
84512,-80,4,2,0,60,0,1
115232,-80,4,2,0,60,0,0

[Colours]
Combo1 : 164,231,152
Combo2 : 0,255,210

[HitObjects]
64,192,15392,5,0,0:0:0:0:
448,192,15392,1,0,0:0:0:0:
320,192,15632,1,0,0:0:0:0:
192,192,15872,1,8,0:0:0:0:
64,192,15872,1,0,0:0:0:0:
448,192,16112,1,2,0:0:0:0:
192,192,16232,1,0,0:0:0:0:
64,192,16352,1,0,0:0:0:0:
320,192,16472,1,0,0:0:0:0:
192,192,16592,1,0,0:0:0:0:
320,192,16832,1,8,0:0:0:0:
64,192,16832,1,0,0:0:0:0:
448,192,17072,1,2,0:0:0:0:
320,192,17312,1,0,0:0:0:0:
64,192,17312,1,0,0:0:0:0:
192,192,17552,1,0,0:0:0:0:
320,192,17792,1,8,0:0:0:0:
448,192,17792,1,0,0:0:0:0:
64,192,18032,1,2,0:0:0:0:
64,192,18152,1,0,0:0:0:0:
192,192,18272,1,0,0:0:0:0:
320,192,18392,1,0,0:0:0:0:
448,192,18512,1,0,0:0:0:0:
64,192,18752,1,0,0:0:0:0:
192,192,18752,1,8,0:0:0:0:
320,192,18992,1,2,0:0:0:0:
192,192,19232,1,0,0:0:0:0:
448,192,19232,1,0,0:0:0:0:
64,192,19472,1,0,0:0:0:0:
64,192,19712,1,0,0:0:0:0:
192,192,19712,1,8,0:0:0:0:
192,192,19952,1,2,0:0:0:0:
448,192,20072,1,0,0:0:0:0:
320,192,20192,1,0,0:0:0:0:
192,192,20312,1,0,0:0:0:0:
448,192,20432,1,0,0:0:0:0:
64,192,20672,1,8,0:0:0:0:
448,192,20672,1,0,0:0:0:0:
320,192,20912,1,2,0:0:0:0:
64,192,21152,1,0,0:0:0:0:
192,192,21392,1,0,0:0:0:0:
320,192,21392,1,0,0:0:0:0:
448,192,21632,1,8,0:0:0:0:
192,192,21632,1,0,0:0:0:0:
320,192,21872,1,2,0:0:0:0:
192,192,21872,1,0,0:0:0:0:
448,192,21992,1,0,0:0:0:0:
320,192,22112,1,0,0:0:0:0:
192,192,22232,1,0,0:0:0:0:
320,192,22352,1,0,0:0:0:0:
320,192,22592,1,8,0:0:0:0:
192,192,22592,1,0,0:0:0:0:
448,192,22832,1,4,0:0:0:0:
192,192,23072,1,0,0:0:0:0:
320,192,23312,1,0,0:0:0:0:
192,192,23552,1,8,0:0:0:0:
448,192,23552,1,0,0:0:0:0:
320,192,23792,1,2,0:0:0:0:
192,192,23912,1,0,0:0:0:0:
320,192,24032,1,0,0:0:0:0:
192,192,24152,1,0,0:0:0:0:
320,192,24272,1,0,0:0:0:0:
448,192,24512,1,0,0:0:0:0:
64,192,24512,1,8,0:0:0:0:
320,192,24752,1,2,0:0:0:0:
320,192,24992,1,0,0:0:0:0:
192,192,25232,1,0,0:0:0:0:
64,192,25472,1,0,0:0:0:0:
192,192,25472,1,8,0:0:0:0:
192,192,25712,1,2,0:0:0:0:
64,192,25832,1,0,0:0:0:0:
320,192,25952,1,0,0:0:0:0:
448,192,26072,1,0,0:0:0:0:
320,192,26192,1,0,0:0:0:0:
192,192,26432,1,8,0:0:0:0:
448,192,26432,1,0,0:0:0:0:
64,192,26672,1,2,0:0:0:0:
64,192,26912,1,0,0:0:0:0:
192,192,27152,1,0,0:0:0:0:
320,192,27392,1,8,0:0:0:0:
448,192,27392,1,0,0:0:0:0:
320,192,27632,1,2,0:0:0:0:
448,192,27752,1,0,0:0:0:0:
320,192,27872,1,0,0:0:0:0:
192,192,27992,1,0,0:0:0:0:
320,192,28112,1,0,0:0:0:0:
64,192,28352,1,0,0:0:0:0:
320,192,28352,1,8,0:0:0:0:
448,192,28592,1,2,0:0:0:0:
448,192,28832,1,0,0:0:0:0:
320,192,29072,1,0,0:0:0:0:
192,192,29072,1,0,0:0:0:0:
320,192,29312,1,0,0:0:0:0:
64,192,29312,1,8,0:0:0:0:
320,192,29552,1,0,0:0:0:0:
192,192,29552,1,2,0:0:0:0:
448,192,29672,1,0,0:0:0:0:
320,192,29792,1,0,0:0:0:0:
192,192,29912,1,0,0:0:0:0:
64,192,30032,1,0,0:0:0:0:
192,192,30272,1,8,0:0:0:0:
448,192,30512,1,0,0:0:0:0:
320,192,30512,1,4,0:0:0:0:
320,192,30752,1,0,0:0:0:0:
64,192,30992,1,0,0:0:0:0:
320,192,31232,1,8,0:0:0:0:
448,192,31232,1,0,0:0:0:0:
64,192,31472,128,0,32672:0:0:0:0:
192,192,31472,1,2,0:0:0:0:
448,192,31712,128,0,32672:0:0:0:0:
320,192,31952,1,0,0:0:0:0:
320,192,32192,1,0,0:0:0:0:
192,192,32192,1,8,0:0:0:0:
320,192,32432,1,2,0:0:0:0:
192,192,32672,128,0,33872:0:0:0:0:
320,192,32912,1,0,0:0:0:0:
320,192,33152,1,8,0:0:0:0:
64,192,33152,1,0,0:0:0:0:
448,192,33392,1,2,0:0:0:0:
64,192,33632,1,0,0:0:0:0:
64,192,33872,128,0,35072:0:0:0:0:
448,192,34112,1,0,0:0:0:0:
192,192,34112,1,8,0:0:0:0:
320,192,34352,128,0,35072:0:0:0:0:
448,192,34352,1,2,0:0:0:0:
448,192,34592,1,0,0:0:0:0:
192,192,34832,1,0,0:0:0:0:
448,192,35072,1,8,0:0:0:0:
192,192,35312,1,0,0:0:0:0:
64,192,35552,128,0,36032:0:0:0:0:
192,192,35552,1,0,0:0:0:0:
320,192,35792,1,0,0:0:0:0:
192,192,36032,128,0,36512:0:0:0:0:
320,192,36032,1,8,0:0:0:0:
320,192,36272,1,2,0:0:0:0:
320,192,36512,128,0,36992:0:0:0:0:
448,192,36512,1,0,0:0:0:0:
448,192,36752,1,0,0:0:0:0:
192,192,36992,1,8,0:0:0:0:
448,192,36992,128,0,37472:0:0:0:0:
64,192,37232,1,2,0:0:0:0:
64,192,37472,128,0,38912:0:0:0:0:
192,192,37592,1,0,0:0:0:0:
320,192,37712,1,0,0:0:0:0:
448,192,37952,128,8,38912:0:0:0:0:
192,192,38192,128,0,38912:0:0:0:0:
320,192,38432,1,4,0:0:0:0:
320,192,38672,1,0,0:0:0:0:
320,192,38912,1,0,0:0:0:0:
192,192,39152,128,0,40352:0:0:0:0:
64,192,39392,128,0,40352:0:0:0:0:
448,192,39632,1,0,0:0:0:0:
320,192,39872,1,8,0:0:0:0:
448,192,39872,1,0,0:0:0:0:
448,192,40112,1,2,0:0:0:0:
320,192,40352,128,0,41312:0:0:0:0:
448,192,40592,1,0,0:0:0:0:
64,192,40832,1,8,0:0:0:0:
192,192,41072,1,2,0:0:0:0:
64,192,41312,1,0,0:0:0:0:
64,192,41552,128,0,42992:0:0:0:0:
192,192,41792,1,0,0:0:0:0:
320,192,41792,1,8,0:0:0:0:
320,192,42032,128,2,42992:0:0:0:0:
448,192,42272,1,0,0:0:0:0:
448,192,42512,1,0,0:0:0:0:
192,192,42752,1,0,0:0:0:0:
448,192,42752,1,8,0:0:0:0:
448,192,42992,1,0,0:0:0:0:
192,192,43232,128,0,44192:0:0:0:0:
64,192,43472,1,0,0:0:0:0:
320,192,43712,128,0,44192:0:0:0:0:
448,192,43712,1,8,0:0:0:0:
448,192,43952,1,2,0:0:0:0:
64,192,44192,128,0,44672:0:0:0:0:
192,192,44432,1,0,0:0:0:0:
192,192,44672,128,0,45152:0:0:0:0:
320,192,44912,1,2,0:0:0:0:
320,192,45152,128,0,45632:0:0:0:0:
448,192,45392,1,0,0:0:0:0:
192,192,45632,128,0,46112:0:0:0:0:
320,192,45872,1,2,0:0:0:0:
64,192,46112,128,0,47552:0:0:0:0:
448,192,46112,1,4,0:0:0:0:
320,192,46352,1,0,0:0:0:0:
448,192,46592,1,0,0:0:0:0:
320,192,46592,1,8,0:0:0:0:
192,192,46832,1,2,0:0:0:0:
320,192,46952,1,0,0:0:0:0:
448,192,47072,1,0,0:0:0:0:
320,192,47192,1,0,0:0:0:0:
192,192,47312,1,0,0:0:0:0:
448,192,47552,1,8,0:0:0:0:
448,192,47792,1,2,0:0:0:0:
320,192,48032,1,0,0:0:0:0:
64,192,48032,1,0,0:0:0:0:
192,192,48272,1,0,0:0:0:0:
320,192,48512,1,8,0:0:0:0:
448,192,48512,1,0,0:0:0:0:
320,192,48752,1,2,0:0:0:0:
448,192,48872,1,0,0:0:0:0:
192,192,48992,1,0,0:0:0:0:
448,192,49112,1,0,0:0:0:0:
64,192,49232,1,0,0:0:0:0:
320,192,49472,1,0,0:0:0:0:
192,192,49472,1,8,0:0:0:0:
320,192,49712,1,2,0:0:0:0:
448,192,49952,1,0,0:0:0:0:
64,192,49952,1,0,0:0:0:0:
64,192,50192,1,0,0:0:0:0:
192,192,50432,1,8,0:0:0:0:
320,192,50432,1,0,0:0:0:0:
320,192,50672,1,2,0:0:0:0:
192,192,50792,1,0,0:0:0:0:
64,192,50912,1,0,0:0:0:0:
192,192,51032,1,0,0:0:0:0:
320,192,51152,1,0,0:0:0:0:
192,192,51392,1,8,0:0:0:0:
320,192,51392,1,0,0:0:0:0:
320,192,51632,1,2,0:0:0:0:
64,192,51872,1,0,0:0:0:0:
192,192,51872,1,0,0:0:0:0:
64,192,52112,1,0,0:0:0:0:
320,192,52112,1,0,0:0:0:0:
64,192,52352,1,0,0:0:0:0:
448,192,52352,1,8,0:0:0:0:
320,192,52592,1,0,0:0:0:0:
192,192,52592,1,2,0:0:0:0:
64,192,52712,1,0,0:0:0:0:
192,192,52832,1,0,0:0:0:0:
320,192,52952,1,0,0:0:0:0:
448,192,53072,1,0,0:0:0:0:
320,192,53312,1,0,0:0:0:0:
192,192,53312,1,8,0:0:0:0:
192,192,53552,1,4,0:0:0:0:
448,192,53792,1,0,0:0:0:0:
320,192,53792,1,0,0:0:0:0:
320,192,54032,1,0,0:0:0:0:
192,192,54272,1,0,0:0:0:0:
64,192,54272,1,8,0:0:0:0:
192,192,54512,1,2,0:0:0:0:
320,192,54632,1,0,0:0:0:0:
448,192,54752,1,0,0:0:0:0:
64,192,54872,1,0,0:0:0:0:
448,192,54992,1,0,0:0:0:0:
192,192,55232,1,8,0:0:0:0:
448,192,55232,1,0,0:0:0:0:
320,192,55472,1,2,0:0:0:0:
192,192,55712,1,0,0:0:0:0:
448,192,55712,1,0,0:0:0:0:
192,192,55952,1,0,0:0:0:0:
192,192,56192,1,0,0:0:0:0:
64,192,56192,1,8,0:0:0:0:
448,192,56432,1,2,0:0:0:0:
320,192,56552,1,0,0:0:0:0:
192,192,56672,1,0,0:0:0:0:
64,192,56792,1,0,0:0:0:0:
192,192,56912,1,0,0:0:0:0:
64,192,57152,1,0,0:0:0:0:
320,192,57152,1,8,0:0:0:0:
448,192,57392,1,2,0:0:0:0:
320,192,57632,1,0,0:0:0:0:
64,192,57632,1,0,0:0:0:0:
448,192,57872,1,0,0:0:0:0:
448,192,58112,1,0,0:0:0:0:
320,192,58112,1,8,0:0:0:0:
192,192,58352,1,2,0:0:0:0:
64,192,58472,1,0,0:0:0:0:
192,192,58592,1,0,0:0:0:0:
320,192,58712,1,0,0:0:0:0:
448,192,58832,1,0,0:0:0:0:
320,192,59072,1,0,0:0:0:0:
192,192,59072,1,8,0:0:0:0:
320,192,59312,1,2,0:0:0:0:
64,192,59552,1,0,0:0:0:0:
448,192,59552,1,0,0:0:0:0:
448,192,59792,1,0,0:0:0:0:
320,192,59792,1,0,0:0:0:0:
64,192,60032,1,0,0:0:0:0:
448,192,60032,1,8,0:0:0:0:
320,192,60272,1,0,0:0:0:0:
64,192,60272,1,2,0:0:0:0:
320,192,60392,1,0,0:0:0:0:
192,192,60512,1,0,0:0:0:0:
64,192,60632,1,0,0:0:0:0:
448,192,60752,1,0,0:0:0:0:
320,192,60992,1,8,0:0:0:0:
448,192,61232,1,4,0:0:0:0:
64,192,61472,1,0,0:0:0:0:
320,192,61712,1,0,0:0:0:0:
320,192,61952,1,0,0:0:0:0:
192,192,61952,1,8,0:0:0:0:
448,192,62192,1,2,0:0:0:0:
64,192,62432,1,0,0:0:0:0:
448,192,62672,1,0,0:0:0:0:
192,192,62912,1,8,0:0:0:0:
320,192,62912,1,0,0:0:0:0:
64,192,63152,1,2,0:0:0:0:
192,192,63392,1,0,0:0:0:0:
320,192,63632,1,0,0:0:0:0:
192,192,63872,1,8,0:0:0:0:
64,192,63872,1,0,0:0:0:0:
448,192,64112,1,2,0:0:0:0:
64,192,64352,1,0,0:0:0:0:
448,192,64592,1,0,0:0:0:0:
64,192,64832,1,0,0:0:0:0:
192,192,64832,1,8,0:0:0:0:
448,192,65072,1,2,0:0:0:0:
320,192,65312,1,0,0:0:0:0:
64,192,65552,1,0,0:0:0:0:
192,192,65792,1,0,0:0:0:0:
320,192,65792,1,8,0:0:0:0:
64,192,66032,1,2,0:0:0:0:
320,192,66272,1,0,0:0:0:0:
448,192,66512,1,0,0:0:0:0:
320,192,66752,1,8,0:0:0:0:
192,192,66752,1,0,0:0:0:0:
448,192,66992,1,2,0:0:0:0:
320,192,67232,1,0,0:0:0:0:
192,192,67472,1,0,0:0:0:0:
320,192,67712,1,8,0:0:0:0:
192,192,67712,1,0,0:0:0:0:
320,192,67952,1,2,0:0:0:0:
64,192,68192,1,0,0:0:0:0:
448,192,68432,1,0,0:0:0:0:
64,192,68672,1,0,0:0:0:0:
448,192,68672,1,8,0:0:0:0:
448,192,68912,1,2,0:0:0:0:
64,192,69152,128,0,71072:0:0:0:0:
192,192,69392,1,0,0:0:0:0:
320,192,69632,1,8,0:0:0:0:
448,192,69632,1,0,0:0:0:0:
448,192,69872,1,2,0:0:0:0:
448,192,70112,1,0,0:0:0:0:
320,192,70352,1,0,0:0:0:0:
320,192,70592,1,8,0:0:0:0:
320,192,70832,1,0,0:0:0:0:
192,192,70832,1,2,0:0:0:0:
192,192,71072,128,0,72992:0:0:0:0:
448,192,71312,1,0,0:0:0:0:
320,192,71552,1,0,0:0:0:0:
64,192,71552,1,8,0:0:0:0:
64,192,71792,1,2,0:0:0:0:
320,192,72032,1,0,0:0:0:0:
448,192,72272,1,0,0:0:0:0:
320,192,72512,1,8,0:0:0:0:
448,192,72512,1,0,0:0:0:0:
448,192,72752,1,0,0:0:0:0:
64,192,72992,128,0,76832:0:0:0:0:
320,192,73232,1,0,0:0:0:0:
448,192,73472,1,0,0:0:0:0:
192,192,73472,1,8,0:0:0:0:
320,192,73712,1,2,0:0:0:0:
192,192,73952,1,0,0:0:0:0:
320,192,74192,1,0,0:0:0:0:
320,192,74432,128,0,75152:0:0:0:0:
192,192,74432,1,8,0:0:0:0:
192,192,74672,1,2,0:0:0:0:
192,192,74912,1,0,0:0:0:0:
448,192,75152,128,0,76832:0:0:0:0:
320,192,75392,1,0,0:0:0:0:
192,192,75392,1,8,0:0:0:0:
192,192,75632,1,2,0:0:0:0:
192,192,75872,1,0,0:0:0:0:
320,192,76112,1,0,0:0:0:0:
320,192,76352,1,8,0:0:0:0:
192,192,76352,1,0,0:0:0:0:
320,192,76592,1,2,0:0:0:0:
192,192,76832,128,0,78752:0:0:0:0:
320,192,77072,1,0,0:0:0:0:
320,192,77312,1,8,0:0:0:0:
448,192,77312,1,0,0:0:0:0:
320,192,77552,1,2,0:0:0:0:
64,192,77792,1,0,0:0:0:0:
320,192,78032,1,0,0:0:0:0:
320,192,78272,1,8,0:0:0:0:
448,192,78272,1,0,0:0:0:0:
448,192,78512,1,2,0:0:0:0:
64,192,78752,128,0,80672:0:0:0:0:
192,192,78992,1,0,0:0:0:0:
192,192,79232,1,8,0:0:0:0:
448,192,79232,1,0,0:0:0:0:
320,192,79472,1,2,0:0:0:0:
448,192,79712,1,0,0:0:0:0:
320,192,79952,1,0,0:0:0:0:
192,192,80192,1,0,0:0:0:0:
320,192,80192,1,8,0:0:0:0:
448,192,80432,1,2,0:0:0:0:
448,192,80672,128,0,84512:0:0:0:0:
192,192,80912,1,0,0:0:0:0:
320,192,81152,1,0,0:0:0:0:
192,192,81152,1,8,0:0:0:0:
192,192,81392,1,2,0:0:0:0:
64,192,81632,1,0,0:0:0:0:
192,192,81872,1,0,0:0:0:0:
192,192,82112,128,0,82832:0:0:0:0:
64,192,82112,1,8,0:0:0:0:
320,192,82352,1,2,0:0:0:0:
320,192,82592,1,0,0:0:0:0:
64,192,82832,128,0,84512:0:0:0:0:
192,192,83072,1,8,0:0:0:0:
320,192,83072,1,0,0:0:0:0:
192,192,83312,1,2,0:0:0:0:
320,192,83552,1,0,0:0:0:0:
192,192,83792,1,0,0:0:0:0:
320,192,84032,1,0,0:0:0:0:
192,192,84032,1,8,0:0:0:0:
320,192,84272,1,4,0:0:0:0:
320,192,84512,128,0,86432:0:0:0:0:
192,192,84752,1,0,0:0:0:0:
64,192,84992,1,0,0:0:0:0:
448,192,84992,1,8,0:0:0:0:
448,192,85232,1,2,0:0:0:0:
192,192,85352,1,0,0:0:0:0:
64,192,85472,1,0,0:0:0:0:
192,192,85592,1,0,0:0:0:0:
448,192,85712,1,0,0:0:0:0:
192,192,85952,1,8,0:0:0:0:
64,192,85952,1,0,0:0:0:0:
192,192,86192,1,2,0:0:0:0:
192,192,86432,128,0,88352:0:0:0:0:
448,192,86672,1,0,0:0:0:0:
320,192,86672,1,0,0:0:0:0:
320,192,86912,1,8,0:0:0:0:
64,192,87152,1,2,0:0:0:0:
320,192,87272,1,0,0:0:0:0:
448,192,87392,1,0,0:0:0:0:
320,192,87512,1,0,0:0:0:0:
448,192,87632,1,0,0:0:0:0:
320,192,87872,1,8,0:0:0:0:
64,192,87872,1,0,0:0:0:0:
64,192,88112,1,2,0:0:0:0:
64,192,88352,128,0,90272:0:0:0:0:
192,192,88592,1,0,0:0:0:0:
448,192,88592,1,0,0:0:0:0:
192,192,88832,1,8,0:0:0:0:
320,192,89072,1,2,0:0:0:0:
448,192,89192,1,0,0:0:0:0:
320,192,89312,1,0,0:0:0:0:
192,192,89432,1,0,0:0:0:0:
320,192,89552,1,0,0:0:0:0:
192,192,89792,1,8,0:0:0:0:
448,192,89792,1,0,0:0:0:0:
192,192,90032,1,2,0:0:0:0:
192,192,90272,128,0,92192:0:0:0:0:
448,192,90512,1,0,0:0:0:0:
320,192,90752,1,8,0:0:0:0:
64,192,90752,1,0,0:0:0:0:
320,192,90992,1,2,0:0:0:0:
448,192,90992,1,0,0:0:0:0:
64,192,91112,1,0,0:0:0:0:
320,192,91232,1,0,0:0:0:0:
64,192,91352,1,0,0:0:0:0:
320,192,91472,1,0,0:0:0:0:
320,192,91712,1,8,0:0:0:0:
448,192,91712,1,0,0:0:0:0:
320,192,91952,1,4,0:0:0:0:
320,192,92192,128,0,94112:0:0:0:0:
192,192,92432,1,0,0:0:0:0:
192,192,92672,1,8,0:0:0:0:
64,192,92672,1,0,0:0:0:0:
192,192,92912,1,2,0:0:0:0:
64,192,93032,1,0,0:0:0:0:
192,192,93152,1,0,0:0:0:0:
64,192,93272,1,0,0:0:0:0:
192,192,93392,1,0,0:0:0:0:
448,192,93632,1,8,0:0:0:0:
192,192,93632,1,0,0:0:0:0:
448,192,93872,1,2,0:0:0:0:
448,192,94112,128,0,96032:0:0:0:0:
320,192,94352,1,0,0:0:0:0:
192,192,94592,1,10,0:0:0:0:
64,192,94592,1,0,0:0:0:0:
320,192,94832,1,2,0:0:0:0:
192,192,94952,1,0,0:0:0:0:
320,192,95072,1,0,0:0:0:0:
192,192,95192,1,0,0:0:0:0:
64,192,95312,1,0,0:0:0:0:
192,192,95552,1,0,0:0:0:0:
320,192,95552,1,8,0:0:0:0:
320,192,95792,1,2,0:0:0:0:
320,192,96032,128,0,97952:0:0:0:0:
448,192,96272,1,0,0:0:0:0:
192,192,96512,1,8,0:0:0:0:
64,192,96512,1,0,0:0:0:0:
448,192,96752,1,2,0:0:0:0:
192,192,96872,1,0,0:0:0:0:
448,192,96992,1,0,0:0:0:0:
192,192,97112,1,0,0:0:0:0:
448,192,97232,1,0,0:0:0:0:
192,192,97472,1,8,0:0:0:0:
64,192,97472,1,0,0:0:0:0:
192,192,97712,1,2,0:0:0:0:
192,192,97952,128,0,99872:0:0:0:0:
448,192,98192,1,0,0:0:0:0:
448,192,98432,1,8,0:0:0:0:
64,192,98432,1,0,0:0:0:0:
320,192,98672,1,2,0:0:0:0:
448,192,98672,1,0,0:0:0:0:
64,192,98792,1,0,0:0:0:0:
320,192,98912,1,0,0:0:0:0:
448,192,99032,1,0,0:0:0:0:
320,192,99152,1,0,0:0:0:0:
64,192,99392,1,0,0:0:0:0:
448,192,99392,1,8,0:0:0:0:
320,192,99632,1,4,0:0:0:0:
320,192,99872,128,0,101792:0:0:0:0:
64,192,99872,128,0,101792:0:0:0:0:
192,192,100112,1,0,0:0:0:0:
448,192,100352,1,8,0:0:0:0:
192,192,100352,1,0,0:0:0:0:
448,192,100592,1,2,0:0:0:0:
192,192,100712,1,0,0:0:0:0:
448,192,100832,1,0,0:0:0:0:
192,192,100952,1,0,0:0:0:0:
448,192,101072,1,0,0:0:0:0:
448,192,101312,1,0,0:0:0:0:
192,192,101312,1,8,0:0:0:0:
192,192,101552,1,2,0:0:0:0:
192,192,101792,128,0,103712:0:0:0:0:
448,192,101792,128,0,103712:0:0:0:0:
320,192,102032,1,0,0:0:0:0:
320,192,102272,1,0,0:0:0:0:
64,192,102272,1,8,0:0:0:0:
64,192,102512,1,2,0:0:0:0:
320,192,102632,1,0,0:0:0:0:
64,192,102752,1,0,0:0:0:0:
320,192,102872,1,0,0:0:0:0:
64,192,102992,1,0,0:0:0:0:
320,192,103232,1,0,0:0:0:0:
64,192,103232,1,8,0:0:0:0:
64,192,103472,1,2,0:0:0:0:
320,192,103712,128,0,105632:0:0:0:0:
64,192,103712,128,0,105632:0:0:0:0:
448,192,103952,1,0,0:0:0:0:
192,192,104192,1,10,0:0:0:0:
448,192,104192,1,0,0:0:0:0:
192,192,104432,1,2,0:0:0:0:
448,192,104552,1,0,0:0:0:0:
192,192,104672,1,0,0:0:0:0:
448,192,104792,1,0,0:0:0:0:
192,192,104912,1,0,0:0:0:0:
448,192,105152,1,0,0:0:0:0:
192,192,105152,1,8,0:0:0:0:
192,192,105392,1,2,0:0:0:0:
192,192,105632,128,0,107552:0:0:0:0:
448,192,105872,1,0,0:0:0:0:
320,192,106112,1,8,0:0:0:0:
64,192,106112,1,0,0:0:0:0:
448,192,106352,1,2,0:0:0:0:
320,192,106472,1,0,0:0:0:0:
64,192,106592,1,0,0:0:0:0:
448,192,106712,1,0,0:0:0:0:
320,192,106832,1,0,0:0:0:0:
320,192,107072,1,8,0:0:0:0:
448,192,107072,1,0,0:0:0:0:
64,192,107312,1,4,0:0:0:0:
320,192,107552,128,0,109472:0:0:0:0:
448,192,107552,128,0,109472:0:0:0:0:
192,192,107792,1,0,0:0:0:0:
64,192,108032,1,0,0:0:0:0:
192,192,108032,1,8,0:0:0:0:
64,192,108272,1,2,0:0:0:0:
192,192,108392,1,0,0:0:0:0:
192,192,108512,1,0,0:0:0:0:
64,192,108632,1,0,0:0:0:0:
192,192,108752,1,0,0:0:0:0:
192,192,108992,1,8,0:0:0:0:
64,192,108992,1,0,0:0:0:0:
64,192,109232,1,2,0:0:0:0:
192,192,109472,128,0,111392:0:0:0:0:
64,192,109472,128,0,111392:0:0:0:0:
320,192,109712,1,0,0:0:0:0:
320,192,109952,1,8,0:0:0:0:
448,192,109952,1,0,0:0:0:0:
448,192,110192,1,2,0:0:0:0:
320,192,110312,1,0,0:0:0:0:
320,192,110432,1,0,0:0:0:0:
448,192,110552,1,0,0:0:0:0:
320,192,110672,1,0,0:0:0:0:
320,192,110912,1,8,0:0:0:0:
448,192,110912,1,0,0:0:0:0:
448,192,111152,1,2,0:0:0:0:
448,192,111392,128,0,113312:0:0:0:0:
320,192,111392,128,0,113312:0:0:0:0:
192,192,111632,1,0,0:0:0:0:
64,192,111872,1,0,0:0:0:0:
192,192,111872,1,8,0:0:0:0:
64,192,112112,1,2,0:0:0:0:
192,192,112232,1,0,0:0:0:0:
64,192,112352,1,0,0:0:0:0:
192,192,112472,1,0,0:0:0:0:
64,192,112592,1,0,0:0:0:0:
192,192,112832,1,8,0:0:0:0:
64,192,112832,1,0,0:0:0:0:
192,192,113072,1,2,0:0:0:0:
192,192,113312,128,0,114992:0:0:0:0:
64,192,113312,128,0,114992:0:0:0:0:
448,192,113552,1,0,0:0:0:0:
320,192,113792,1,8,0:0:0:0:
448,192,113792,1,0,0:0:0:0:
320,192,114032,1,2,0:0:0:0:
448,192,114152,1,0,0:0:0:0:
320,192,114272,1,0,0:0:0:0:
448,192,114392,1,0,0:0:0:0:
320,192,114512,1,0,0:0:0:0:
320,192,114752,1,0,0:0:0:0:
448,192,114752,1,8,0:0:0:0:
448,192,114992,1,2,0:0:0:0:
192,192,115232,1,0,0:0:0:0:
320,192,115232,1,0,0:0:0:0:
