osu file format v9

[General]
AudioFilename: F.I.R.-.mp3
AudioLeadIn: 0
PreviewTime: 69904
Countdown: 1
SampleSet: Normal
StackLeniency: 0.7
Mode: 0
LetterboxInBreaks: 1

[Editor]
DistanceSpacing: 1
BeatDivisor: 4
GridSize: 8

[Metadata]
Title:Your Smile
Artist:F.I.R.
Creator:Aunxfb
Version:Hard
Source:
Tags:

[Difficulty]
HPDrainRate:5
CircleSize:4
OverallDifficulty:4
ApproachRate:6
SliderMultiplier:1.6
SliderTickRate:2

[Events]
//Background and Video events
0,0,"feldbz_001.jpg"
//Break Periods
2,101072,107564
2,180427,194661
//Storyboard Layer 0 (Background)
//Storyboard Layer 1 (Fail)
//Storyboard Layer 2 (Pass)
//Storyboard Layer 3 (Foreground)
//Storyboard Sound Samples
//Background Colour Transformations
3,100,163,162,255

[TimingPoints]
23453,483.870967741935,4,1,0,80,1,0
54420,-83.3333333333333,4,1,0,80,0,0
69902,-83.3333333333333,4,1,0,80,0,1
84178,-83.3333333333333,4,1,0,80,0,0
85388,-83.3333333333333,4,1,0,80,0,1
100870,-100,4,1,0,80,0,0
148533,-100,4,2,0,80,0,0
149259,-83.3333333333333,4,1,0,90,0,1
163533,-83.3333333333333,4,1,0,90,0,0
164743,-83.3333333333333,4,1,0,90,0,1
180227,-100,4,1,0,90,0,0
195711,-133.333333333333,4,1,0,70,0,0
209259,-83.3333333333333,4,1,0,100,0,1
226678,-83.3333333333333,4,1,0,100,0,0

[HitObjects]
64,32,23452,2,0,B|40:72|72:120,1,80
144,112,23936,2,0,B|168:160|136:200,1,80,8|0
64,192,24420,1,0
64,272,24662,1,0
144,272,24904,1,8
144,352,25146,1,0
224,352,25388,2,0,B|328:352,1,80
360,296,25872,5,8
400,232,26114,2,0,B|328:192,1,80
368,128,26598,2,0,B|464:184,1,80,0|8
472,96,27082,1,0
392,96,27323,2,0,B|320:96|320:96|312:24|240:24,1,160,0|8
240,104,28049,1,0
240,104,28170,1,0
208,32,28291,2,0,B|168:32|160:96|160:96|80:96,1,160,0|8
88,176,29017,1,0
8,176,29259,1,0
8,256,29501,6,0,B|48:280|48:280|88:280,1,80
160,280,29985,1,0
240,280,30227,2,0,B|273:280|273:280|313:256,1,80
272,184,30711,2,0,B|312:160|312:160|352:160,1,80
400,216,31194,5,0
456,152,31436,1,0
392,104,31678,1,8
440,40,31920,1,0
360,40,32162,6,0,B|280:40,1,80
280,120,32646,2,0,B|176:120,1,80,8|0
200,40,33130,1,0
120,40,33372,6,0,B|48:40|48:72,1,80
104,128,33856,2,0,B|104:153|32:153,1,80
32,232,34340,2,0,B|104:232|104:256,1,80
104,336,34823,1,0
184,336,35065,2,0,B|248:336|248:240|248:240|328:240,1,160,0|8
344,192,35791,1,0
344,192,35912,1,0
280,136,36033,2,0,B|249:136|249:136|248:40|185:40,1,160,0|8
104,40,36759,1,0
256,192,37001,12,4,37969
48,40,38936,6,0,B|88:88|88:88|152:88,1,120
144,208,39662,2,0,B|240:208,1,80
384,208,40388,5,0
384,208,40630,1,0
304,208,40872,2,0,B|280:256|280:256|192:256,1,120
208,376,41598,2,0,B|112:376,1,80
128,216,42323,6,0,B|128:120,2,80,0|0|4
368,216,43533,2,0,B|440:216,2,40
288,216,44017,1,0
208,216,44259,2,0,B|208:312,2,80
208,136,44985,1,0
208,56,45227,2,0,B|296:56,1,80
448,56,45952,5,0
448,56,46194,1,0
448,56,46436,1,0
448,136,46678,2,0,B|448:256,1,120,0|0
328,256,47404,2,0,B|328:152,1,80
168,176,48130,5,0
168,176,48372,1,0
168,256,48614,2,0,B|144:296|144:296|64:296,1,120
72,176,49340,2,0,B|72:96,1,80
232,96,50065,5,0
232,176,50307,1,0
232,256,50549,1,4
472,256,51275,2,0,B|472:312,2,40
472,176,51759,1,0
472,96,52001,2,0,B|360:96,1,80
232,96,52727,1,0
232,96,52969,1,0
232,96,53211,1,4
48,48,54420,6,0,B|48:104|112:104,1,96.0000022888184
160,104,54783,1,0
208,104,54904,2,0,B|304:104,2,96.0000022888184,0|0|0
224,296,55872,5,0
224,296,56114,1,0
224,200,56356,2,0,B|320:200,1,96.0000022888184
368,200,56719,1,0
416,200,56840,2,0,B|416:256|416:256|416:296,2,96.0000022888184
416,8,57807,6,0,B|416:112,2,96.0000022888184,0|0|4
128,16,59017,2,0,B|56:16,2,48.0000011444092
224,16,59501,1,0
320,16,59743,2,0,B|320:120,2,96.0000022888184
224,16,60469,2,0,B|160:104|296:104|208:200,1,192.000004577637
408,192,61436,5,0
312,192,61678,1,0
216,192,61920,1,0
120,192,62162,2,0,B|120:256|120:288,1,96.0000022888184
120,336,62525,1,0
168,336,62646,2,0,B|288:336,2,96.0000022888184
360,336,63614,5,0
360,240,63856,1,0
360,144,64098,2,0,B|240:144,1,96.0000022888184
216,144,64461,1,0
168,144,64582,2,0,B|168:32,2,96.0000022888184
456,144,65791,6,0,B|520:144,2,48.0000011444092,0|0|0
168,144,66759,2,0,B|104:144,2,48.0000011444092
264,144,67243,1,0
456,144,67485,2,0,B|448:223|365:254|241:300|129:229|55:181|63:103,1,480.000011444092,0|4
248,184,69178,5,0
248,184,69420,1,0
248,184,69662,1,0
248,184,69904,6,0,B|248:296,2,96.0000022888184
248,88,70630,1,0
248,88,70751,2,0,B|400:88,1,144.000003433228,0|0
400,280,71598,5,0
320,224,71840,1,0
224,224,72082,2,0,B|112:224|104:88,1,192.000004577637
200,96,72807,2,0,B|352:96,1,144.000003433228
488,104,73533,5,0
488,104,73775,1,0
344,104,74138,2,0,B|344:288,1,144.000003433228
344,344,74743,1,0
152,344,75227,2,0,B|56:344,1,96.0000022888184
56,248,75711,1,0
104,112,76073,1,0
152,248,76436,2,0,B|280:248|280:104,2,192.000004577637,0|8|8
56,248,77646,5,0
56,56,78130,1,0
248,56,78614,2,0,B|400:56,1,144.000003433228
400,200,79340,2,0,B|360:232|288:232,1,96.0000022888184
168,232,79944,2,0,B|16:232,1,144.000003433228
24,232,80549,1,0
25,136,80791,1,8
121,136,81033,1,8
121,232,81275,1,0
120,328,81517,6,0,B|224:328,2,96.0000022888184
24,328,82243,1,0
24,136,82727,1,0
120,136,82969,1,0
64,56,83211,1,0
160,56,83452,1,4
240,208,83815,1,4
320,56,84178,1,6
240,120,84662,5,0
240,120,84904,1,0
240,120,85146,1,0
240,216,85388,6,0,B|240:320,2,96.0000022888184
240,120,86114,1,0
240,120,86235,2,0,B|376:120|376:208,1,144.000003433228
432,224,87082,6,0,B|432:328,1,96.0000022888184
336,320,87565,1,0
336,320,87686,2,0,B|208:320|208:248,1,144.000003433228
208,176,88291,2,0,B|208:16,1,144.000003433228
352,32,89017,5,0
352,32,89259,1,0
352,176,89622,1,0
424,336,89985,1,0
296,336,90227,1,0
104,336,90711,5,0
104,336,90952,1,0
104,240,91194,1,0
104,96,91557,1,0
200,240,91920,1,0
200,240,92041,1,0
200,240,92162,2,0,B|312:240,2,96.0000022888184,0|8|8
200,144,92888,1,0
296,144,93130,6,0,B|376:144|384:224|472:224,2,192.000004577637
200,144,94340,1,0
8,144,94823,1,0
8,240,95065,2,0,B|240:240,2,192.000004577637
8,336,96275,1,0
8,336,96517,1,8
104,336,96759,6,0,B|224:336,1,96.0000022888184
296,336,97243,1,0
488,336,97727,1,0
480,144,98211,2,0,B|480:72|480:72|448:64,2,96.0000022888184
384,144,98936,1,4
288,288,99299,1,4
208,144,99662,1,6
256,192,100146,12,4,100872
88,56,108614,6,0,B|176:56|176:184|320:184,1,240
368,184,109582,1,0
368,184,110065,1,4
360,24,110549,6,0,B|272:24|272:152|128:152,1,240
80,152,111517,1,0
80,152,112000,1,4
80,312,112485,6,0,B|168:312|168:184|312:184,1,240
360,184,113453,1,0
360,184,113936,1,4
360,344,114420,6,0,B|272:344|272:216|128:216,1,240
80,216,115388,1,8
80,216,115871,1,4
80,56,116356,5,0
80,136,116598,1,0
160,136,116840,1,8
160,216,117082,1,0
240,216,117323,2,0,B|216:248|248:304,1,80
320,288,117807,2,0,B|345:244|321:212,1,80,8|0
320,136,118291,1,0
320,56,118533,6,0,B|224:56,1,80
240,136,119017,2,0,B|152:136,1,80
160,56,119501,2,0,B|80:56,2,80
240,56,120227,2,0,B|304:56|304:152|304:152|384:152,1,160,0|8
400,200,120953,1,0
400,200,121073,1,0
336,248,121195,2,0,B|305:248|305:248|304:344|241:344,1,160,0|8
160,344,121920,1,0
80,344,122162,1,0
80,264,122404,6,0,B|56:240|56:240|56:160,1,80
136,192,122888,2,0,B|160:168|160:168|160:88,1,80
80,120,123372,2,0,B|56:96|56:96|56:16,2,80
160,120,124098,6,0,B|256:120,1,80
240,40,124582,2,0,B|328:40,1,80,8|0
320,120,125065,1,0
400,120,125307,1,0
400,200,125549,1,8
480,200,125791,1,0
400,200,126033,1,0
320,200,126275,6,0,B|320:248|320:248|288:272,1,80
216,272,126759,2,0,B|216:320|216:320|248:344,2,80
136,272,127485,2,0,B|136:192,1,80
136,112,127969,2,0,B|200:112|200:112|200:40|280:40,1,160,0|8
296,112,128694,1,0
296,112,128815,1,0
339,42,128936,2,0,B|391:55|391:111|391:111|455:111,1,160,0|8
456,192,129662,1,0
256,192,129904,12,4,130872
64,336,131840,6,0,B|128:336|128:256,1,80
128,256,132202,1,0
128,216,132323,2,0,B|128:136,2,80
128,56,133291,5,0
128,56,133533,1,0
208,56,133775,2,0,B|296:56,1,80
328,56,134138,1,0
368,56,134259,2,0,B|464:56,2,80
376,216,135227,6,0,B|376:296,2,80,0|0|4
136,216,136436,2,0,B|88:216,2,40
216,216,136920,1,0
296,216,137162,2,0,B|400:216,2,80
216,216,137888,2,0,B|168:144|288:144|208:56,1,160
56,72,138856,5,0
56,72,139098,1,0
56,72,139340,1,0
136,72,139582,1,0
216,72,139823,1,0
256,72,139944,1,0
296,72,140065,2,0,B|392:72,2,80
296,232,141033,5,0
296,232,141275,1,0
216,232,141517,1,0
136,232,141759,1,0
96,232,141880,1,0
56,232,142001,2,0,B|-48:232,2,80
296,232,143211,6,0,B|296:280,2,40,0|0|4
56,232,144178,5,0
56,232,144299,1,0
56,232,144420,1,0
136,232,144662,1,0
216,232,144904,1,0
296,232,145146,2,0,B|376:208|416:144|336:48|184:31,1,320,0|4
256,192,147323,12,4,148291
256,192,148533,5,0
256,192,148775,1,0
256,192,149017,1,0
416,192,149259,6,0,B|416:256|328:256,2,96.0000022888184
416,96,149985,1,0
416,96,150106,2,0,B|416:8|312:8,1,144.000003433228
136,32,150952,5,0
64,96,151194,1,0
64,192,151436,2,0,B|64:312|200:312,1,192.000004577637
280,312,152162,2,0,B|288:232|168:232,1,144.000003433228
184,88,152888,5,0
280,88,153130,1,0
424,88,153493,2,0,B|424:232,1,144.000003433228
424,328,154098,1,0
280,328,154582,1,0
280,328,154823,2,0,B|144:328,1,96.0000022888184
40,328,155428,1,0
40,184,155791,2,0,B|40:88|184:88,2,192.000004577637,0|8|8
136,184,157001,5,0
136,376,157485,1,0
296,272,157969,2,0,B|464:272,2,144.000003433228
200,128,158936,2,0,B|192:40|96:40,2,144.000003433228
200,128,159904,1,0
200,224,160146,1,8
296,224,160388,1,8
296,320,160630,1,0
392,320,160872,6,0,B|472:320|472:256,2,96.0000022888184
296,320,161598,1,0
240,136,162082,1,0
296,216,162323,1,0
352,136,162565,1,0
296,32,162807,1,4
240,232,163170,1,4
352,232,163533,1,6
176,312,164017,5,0
32,312,164259,1,0
104,184,164501,1,0
104,88,164743,2,0,B|8:88,2,96.0000022888184
200,88,165469,1,0
200,88,165590,2,0,B|200:248,1,144.000003433228
392,232,166436,5,0
488,232,166678,1,0
440,152,166920,1,0
440,152,167041,2,0,B|440:-8,1,144.000003433228
344,8,167646,2,0,B|344:160,1,144.000003433228
344,296,168372,5,0
344,296,168614,1,0
416,176,168977,1,0
272,176,169340,1,0
344,72,169582,1,0
344,264,170065,6,0,B|424:264|424:176,1,96.0000022888184
416,120,170549,1,0
272,120,170912,1,0
128,120,171275,1,8
128,120,171396,1,8
128,120,171517,2,0,B|128:224,2,96.0000022888184,0|8|8
128,120,172243,1,0
128,24,172485,6,0,B|208:24|216:104|304:104,2,192.000004577637
128,120,173694,1,0
128,312,174178,1,0
224,312,174420,2,0,B|272:280|368:328|448:312,2,192.000004577637
128,312,175630,1,0
128,312,175872,1,8
32,312,176114,6,0,B|32:208,1,96.0000022888184
32,120,176598,1,0
224,120,177082,1,0
416,120,177565,2,0,B|440:104|440:104|440:24,2,96.0000022888184
320,120,178291,2,0,B|320:280,2,144.000003433228,0|4|2
256,192,179501,12,4,180227
64,48,195711,5,4
288,224,197646,1,4
56,336,199582,1,4
288,160,201517,2,0,B|368:80,2,89.9999973177911,4|0|4
112,160,203211,5,0
112,160,203452,1,4
304,240,205146,1,0
304,240,205388,1,4
256,40,207082,5,0
256,96,207323,2,0,B|256:168,1,59.9999982118607
256,280,208049,1,0
256,160,208533,2,0,B|256:232,2,59.9999982118607
352,192,209259,1,4
160,192,209622,1,4
256,56,209985,1,6
208,240,210469,6,0,B|256:280|320:224,2,96.0000022888184
248,152,211194,2,0,B|248:40,2,96.0000022888184
344,152,211920,1,0
344,152,212041,2,0,B|432:152|432:256,1,144.000003433228
240,248,212888,6,0,B|128:248,1,96.0000022888184
48,248,213372,1,0
48,248,213493,2,0,B|48:96,1,144.000003433228
144,104,214098,2,0,B|240:96|240:192,1,144.000003433228
176,320,214823,5,0
256,144,215065,1,0
352,320,215428,1,0
176,200,215791,1,0
344,200,216033,1,0
264,368,216517,2,0,B|264:232,1,96.0000022888184
264,176,217001,1,0
264,32,217364,1,0
360,104,217727,5,4
168,104,217969,1,4
264,32,218211,1,8
264,176,218452,1,8
264,104,218694,1,4
360,104,218936,6,0,B|488:104,3,96.0000022888184
456,200,219904,2,0,B|472:248|344:248|376:328,2,144.000003433228
336,96,220872,1,4
200,232,221235,1,4
64,96,221598,1,4
64,328,222565,6,0,B|184:328,1,96.0000022888184
160,232,223049,1,0
352,232,223533,1,0
352,40,224017,2,0,B|352:64|352:64|352:144,2,96.0000022888184
168,40,224742,1,4
352,352,225105,1,4
256,192,225469,12,6,226678
