osu file format v13

[General]
AudioFilename: hi exgod.mp3
AudioLeadIn: 0
PreviewTime: 109803
Countdown: 1
SampleSet: Normal
StackLeniency: 0.7
Mode: 2
LetterboxInBreaks: 1
WidescreenStoryboard: 1

[Editor]
Bookmarks: 1802,8660,13374,15088,15517,22374,29231,36088,42946,49803,56660,65232,72089,78946,80660,87517,94375,101232,107660,108089,110660,111518,118375,125232,132089,138946,145804,150518,150946,152232,152661,159518,166375,173232,180089,186947,193804,202375,209233,216090,222518,222947,224233,224661,231518,238376,245233,252090,258947,265804
DistanceSpacing: 1
BeatDivisor: 4
GridSize: 8
TimelineZoom: 1.096

[Metadata]
Title:Sound of Infinity
TitleUnicode:Sound of Infinity
Artist:F-777
ArtistUnicode:F-777
Creator:Kitokofox
Version:Unfinished Salad
Source:F-777
Tags:electronica trance sound of infinity computer music
BeatmapID:422003
BeatmapSetID:171916

[Difficulty]
HPDrainRate:3
CircleSize:3
OverallDifficulty:6
ApproachRate:6
SliderMultiplier:0.999999999999999
SliderTickRate:1

[Events]
//Background and Video events
0,0,"golden_flowers_in_blue_infinity_by_eresaw-d55xg3o.jpg",0,0
//Break Periods
2,22574,28181
2,42717,93967
//Storyboard Layer 0 (Background)
//Storyboard Layer 1 (Fail)
//Storyboard Layer 2 (Pass)
//Storyboard Layer 3 (Foreground)
//Storyboard Sound Samples
//Background Colour Transformations
3,100,163,162,255

[TimingPoints]
1803,428.574489817784,4,1,0,60,1,0
8660,-66.6666666666667,4,1,0,75,0,0
12088,-66.6666666666667,4,1,0,85,0,0
13803,-66.6666666666667,4,1,0,90,0,0
14017,-66.6666666666667,4,1,0,81,0,0
14231,-66.6666666666667,4,1,0,73,0,0
14445,-66.6666666666667,4,1,0,70,0,0
15303,-66.6666666666667,4,1,0,85,0,0
15517,-50,4,1,0,100,0,0
42946,-50,4,1,0,95,0,1
53231,-50,4,1,0,75,0,0
54108,-50,4,1,0,65,0,0
54946,-50,4,1,0,55,0,0
55374,-50,4,1,0,45,0,0
55803,-50,4,1,0,55,0,0
56017,-50,4,1,0,65,0,0
56231,-50,4,1,0,75,0,0
56446,-50,4,1,0,85,0,0
56660,-50,4,1,0,100,0,0
65232,-50,4,1,0,50,0,0
77232,-50,4,1,0,60,0,0
77446,-50,4,1,0,65,0,0
77660,-50,4,1,0,70,0,0
77874,-50,4,1,0,75,0,0
78089,-50,4,1,0,80,0,0
78303,-50,4,1,0,85,0,0
78517,-50,4,1,0,90,0,0
78732,-50,4,1,0,95,0,0
78946,-50,4,1,0,100,0,0
80660,-50,4,1,0,100,0,0
92670,-50,4,1,0,90,0,0
92875,-50,4,1,0,75,0,0
93089,-50,4,1,0,50,0,0
93303,-50,4,1,0,75,0,0
93517,-50,4,1,0,90,0,0
94375,-50,4,1,0,100,0,0
108089,-50,4,1,0,90,0,0
108303,-50,4,1,0,80,0,0
108518,-50,4,1,0,70,0,0
108732,-50,4,1,0,60,0,0
108946,-50,4,1,0,50,0,0
109160,-50,4,1,0,40,0,0
109375,-50,4,1,0,30,0,0
109589,-50,4,1,0,25,0,0
109803,-50,4,1,0,20,0,0
110018,-50,4,1,0,15,0,0
110232,-50,4,1,0,10,0,0
110660,-50,4,1,0,100,0,0
125232,-50,4,1,0,100,0,1
137232,-50,4,1,0,100,0,0
138946,-50,4,1,0,100,0,0
150946,-50,4,1,0,90,0,0
151375,-50,4,1,0,75,0,0
151589,-50,4,1,0,50,0,0
151804,-50,4,1,0,20,0,0
152232,-50,4,1,0,50,0,0
152446,-50,4,1,0,75,0,0
152661,-50,4,1,0,100,0,0
159518,-50,4,1,0,90,0,0
162947,-50,4,1,0,80,0,0
166375,-50,4,1,0,65,0,0
176661,-50,4,1,0,50,0,0
177518,-50,4,1,0,59,0,0
178375,-50,4,1,0,68,0,0
178482,-50,4,1,0,70,0,0
178589,-50,4,1,0,72,0,0
178697,-50,4,1,0,74,0,0
178804,-50,4,1,0,76,0,0
178911,-50,4,1,0,78,0,0
179018,-50,4,1,0,80,0,0
179125,-50,4,1,0,82,0,0
179232,-50,4,1,0,84,0,0
179339,-50,4,1,0,86,0,0
179447,-50,4,1,0,88,0,0
179554,-50,4,1,0,90,0,0
179661,-50,4,1,0,92,0,0
179768,-50,4,1,0,94,0,0
179875,-50,4,1,0,96,0,0
179982,-50,4,1,0,98,0,0
180089,-50,4,1,0,100,0,1
193804,-50,4,1,0,100,0,0
202375,-50,4,1,0,90,0,0
202804,-50,4,1,0,75,0,0
204090,-50,4,1,0,90,0,0
204518,-50,4,1,0,75,0,0
205804,-50,4,1,0,90,0,0
206661,-50,4,1,0,75,0,0
207518,-50,4,1,0,90,0,0
208804,-50,4,1,0,75,0,0
209233,-50,4,1,0,100,0,0
222947,-50,4,1,0,10,0,0
223054,-50,4,1,0,15,0,0
223161,-50,4,1,0,20,0,0
223268,-50,4,1,0,25,0,0
223376,-50,4,1,0,30,0,0
223483,-50,4,1,0,35,0,0
223590,-50,4,1,0,40,0,0
223697,-50,4,1,0,45,0,0
223804,-50,4,1,0,50,0,0
223911,-50,4,1,0,55,0,0
224018,-50,4,1,0,60,0,0
224126,-50,4,1,0,65,0,0
224226,-50,4,1,0,70,0,0
224661,-50,4,1,0,100,0,1
252090,-66.6666666666667,4,1,0,70,0,0
252519,-66.6666666666667,4,1,0,50,0,0
252947,-66.6666666666667,4,1,0,70,0,0
253376,-66.6666666666667,4,1,0,50,0,0
253804,-66.6666666666667,4,1,0,80,0,0
253911,-66.6666666666667,4,1,0,60,0,0
254019,-66.6666666666667,4,1,0,80,0,0
254126,-66.6666666666667,4,1,0,60,0,0
254233,-66.6666666666667,4,1,0,80,0,0
254340,-66.6666666666667,4,1,0,60,0,0
254447,-66.6666666666667,4,1,0,80,0,0
254554,-66.6666666666667,4,1,0,60,0,0
254661,-66.6666666666667,4,1,0,80,0,0
254769,-66.6666666666667,4,1,0,60,0,0
254876,-66.6666666666667,4,1,0,80,0,0
254983,-66.6666666666667,4,1,0,60,0,0
255090,-66.6666666666667,4,1,0,80,0,0
255197,-66.6666666666667,4,1,0,60,0,0
255304,-66.6666666666667,4,1,0,80,0,0
255411,-66.6666666666667,4,1,0,60,0,0
255519,-66.6666666666667,4,1,0,70,0,0
255947,-66.6666666666667,4,1,0,50,0,0
256376,-66.6666666666667,4,1,0,70,0,0
256804,-66.6666666666667,4,1,0,50,0,0
257233,-66.6666666666667,4,1,0,85,0,0
257661,-66.6666666666667,4,1,0,40,0,0
258090,-66.6666666666667,4,1,0,10,0,0
258519,-66.6666666666667,4,1,0,60,0,0
258947,-50,4,1,0,100,0,1
265804,-50,4,1,0,100,0,0

[HitObjects]
256,192,1802,5,0,0:0:0:0:
120,96,2231,1,0,0:0:0:0:
232,56,2445,1,0,0:0:0:0:
336,24,2660,1,0,0:0:0:0:
456,128,3088,1,0,0:0:0:0:
320,240,3517,6,0,P|240:288|128:304,1,200
48,192,4588,1,0,0:0:0:0:
96,136,4803,1,0,0:0:0:0:
24,120,5017,1,0,0:0:0:0:
80,64,5231,5,0,0:0:0:0:
200,32,5660,1,0,0:0:0:0:
248,96,5874,1,0,0:0:0:0:
192,144,6088,2,0,P|240:240|336:272,1,200
336,192,7374,5,0,0:0:0:0:
256,192,7588,1,0,0:0:0:0:
176,192,7803,1,0,0:0:0:0:
256,192,8231,1,0,0:0:0:0:
56,64,8660,5,0,0:0:0:0:
128,104,8874,1,0,0:0:0:0:
144,176,9088,1,0,0:0:0:0:
216,216,9302,1,0,0:0:0:0:
360,136,9517,6,0,L|320:200,1,75.000002861023
152,136,9945,2,0,L|192:200,1,75.000002861023
304,72,10374,6,0,L|440:136,1,150.000005722046
168,152,11231,2,0,L|304:216,1,150.000005722046
96,200,12088,5,0,0:0:0:0:
240,208,12517,2,0,L|272:176,2,37.5000014305115,0|0|0,0:0|0:0|0:0,0:0:0:0:
368,192,12945,5,0,0:0:0:0:
256,192,13160,1,0,0:0:0:0:
144,192,13374,1,0,0:0:0:0:
256,192,13803,12,0,15088,0:0:0:0:
88,208,15517,6,0,L|168:144,1,99.9999999999999
232,208,15945,2,0,L|312:144,1,99.9999999999999
424,208,16374,6,0,L|344:144,1,99.9999999999999
280,208,16802,2,0,L|200:144,1,99.9999999999999
392,192,17231,6,0,P|256:72|112:192,1,400
256,192,18303,1,0,0:0:0:0:
192,192,18517,1,0,0:0:0:0:
320,192,18731,1,0,0:0:0:0:
352,120,18945,6,0,L|152:120,2,200,0|0|0,0:0|0:0|0:0,0:0:0:0:
152,192,20231,2,0,L|120:152,1,50
328,192,20660,5,0,0:0:0:0:
152,120,21088,1,0,0:0:0:0:
256,120,21303,1,0,0:0:0:0:
360,120,21517,1,0,0:0:0:0:
208,264,21946,2,0,L|312:264,1,99.9999999999999
440,192,22374,5,0,0:0:0:0:
256,192,29231,5,0,0:0:0:0:
368,192,29446,2,0,L|480:192,2,99.9999999999999,0|0|0,0:0|0:0|0:0,0:0:0:0:
256,192,30088,1,0,0:0:0:0:
104,192,30517,2,0,L|0:192,2,99.9999999999999,0|0|0,0:0|0:0|0:0,0:0:0:0:
296,192,31160,2,0,L|400:104,1,99.9999999999999
488,32,31803,1,0,0:0:0:0:
256,192,32231,6,0,L|128:192,2,99.9999999999999,0|0|0,0:0|0:0|0:0,0:0:0:0:
156,192,32874,2,0,L|64:192,1,50
208,192,33196,2,0,L|264:192,1,50
336,192,33517,1,0,0:0:0:0:
416,192,33946,6,0,L|528:192,2,99.9999999999999,0|0|0,0:0|0:0|0:0,0:0:0:0:
80,192,34803,1,0,0:0:0:0:
8,192,35017,1,0,0:0:0:0:
80,192,35231,1,0,0:0:0:0:
152,192,35446,2,0,L|352:192,1,200
256,192,36088,1,0,0:0:0:0:
176,192,36303,6,0,L|128:96,2,99.9999999999999,0|0|0,0:0|0:0|0:0,0:0:0:0:
336,192,36945,2,0,L|384:96,2,99.9999999999999,0|0|0,0:0|0:0|0:0,0:0:0:0:
176,192,37588,2,0,L|72:192,1,99.9999999999999
336,192,38231,2,0,L|448:192,2,99.9999999999999,0|0|0,0:0|0:0|0:0,0:0:0:0:
96,192,39088,1,0,0:0:0:0:
176,192,39303,2,0,L|296:192,1,99.9999999999999
176,192,39946,1,0,0:0:0:0:
32,192,40374,2,0,L|176:192,2,99.9999999999999,0|0|0,0:0|0:0|0:0,0:0:0:0:
256,192,41231,12,0,42517,0:0:0:0:
360,144,95017,5,0,0:0:0:0:
480,140,95232,2,0,L|296:228,1,200,8|8,0:0|0:0,0:0:0:0:
372,320,95875,1,0,0:0:0:0:
256,352,96089,5,4,0:0:0:0:
144,304,96303,1,0,0:0:0:0:
40,248,96517,1,2,0:0:0:0:
148,196,96732,1,0,0:0:0:0:
260,148,96946,2,0,L|60:116,1,200,8|8,0:0|0:0,0:0:0:0:
176,76,97589,1,0,0:0:0:0:
292,44,97803,5,4,0:0:0:0:
392,108,98017,1,0,0:0:0:0:
260,148,98232,1,2,0:0:0:0:
352,224,98446,1,0,0:0:0:0:
232,256,98660,2,0,L|24:256,1,200,8|8,0:0|0:0,0:0:0:0:
136,192,99303,1,0,0:0:0:0:
260,148,99517,6,0,L|368:132,1,99.9999999999999,4|0,0:0|0:0,0:0:0:0:
232,256,99946,2,0,L|136:288,1,99.9999999999999,2|2,0:0|0:0,0:0:0:0:
260,148,100375,2,0,L|368:132,1,99.9999999999999,4|0,0:0|0:0,0:0:0:0:
232,256,100804,2,0,L|136:288,1,99.9999999999999,2|0,0:0|0:0,0:0:0:0:
