osu file format v13

[General]
AudioFilename: hi exgod.mp3
AudioLeadIn: 0
PreviewTime: 109803
Countdown: 1
SampleSet: Normal
StackLeniency: 0.7
Mode: 2
LetterboxInBreaks: 1
WidescreenStoryboard: 1

[Editor]
Bookmarks: 1802,8660,13374,15088,15517,22374,29231,36088,42946,49803,56660,65232,72089,78946,80660,87517,94375,101232,107660,108089,110660,111518,118375,125232,132089,138946,145804,150518,150946,152232,152661,159518,166375,173232,180089,186947,193804,202375,209233,216090,222518,222947,224233,224661,231518,238376,245233,252090,258947,265804
DistanceSpacing: 1
BeatDivisor: 4
GridSize: 4
TimelineZoom: 1.096

[Metadata]
Title:Sound of Infinity
TitleUnicode:Sound of Infinity
Artist:F-777
ArtistUnicode:F-777
Creator:Kitokofox
Version:Unfinished Platter
Source:F-777
Tags:electronica trance sound of infinity computer music
BeatmapID:422001
BeatmapSetID:171916

[Difficulty]
HPDrainRate:4
CircleSize:4
OverallDifficulty:7
ApproachRate:7
SliderMultiplier:1.5
SliderTickRate:1

[Events]
//Background and Video events
0,0,"golden_flowers_in_blue_infinity_by_eresaw-d55xg3o.jpg",0,0
//Break Periods
2,29431,35188
2,50003,117475
2,125432,208333
//Storyboard Layer 0 (Background)
//Storyboard Layer 1 (Fail)
//Storyboard Layer 2 (Pass)
//Storyboard Layer 3 (Foreground)
//Storyboard Sound Samples
//Background Colour Transformations
3,100,163,162,255

[TimingPoints]
1803,428.574489817784,4,1,0,60,1,0
8660,-66.6666666666667,4,1,0,75,0,0
12088,-66.6666666666667,4,1,0,85,0,0
13803,-66.6666666666667,4,1,0,90,0,0
14017,-66.6666666666667,4,1,0,81,0,0
14231,-66.6666666666667,4,1,0,73,0,0
14445,-66.6666666666667,4,1,0,70,0,0
15303,-66.6666666666667,4,1,0,85,0,0
15517,-50,4,1,0,100,0,0
42946,-50,4,1,0,95,0,1
53231,-50,4,1,0,75,0,0
54108,-50,4,1,0,65,0,0
54946,-50,4,1,0,55,0,0
55374,-50,4,1,0,45,0,0
55803,-50,4,1,0,55,0,0
56017,-50,4,1,0,65,0,0
56231,-50,4,1,0,75,0,0
56446,-50,4,1,0,85,0,0
56660,-50,4,1,0,100,0,0
65232,-50,4,1,0,50,0,0
77232,-50,4,1,0,60,0,0
77446,-50,4,1,0,65,0,0
77660,-50,4,1,0,70,0,0
77874,-50,4,1,0,75,0,0
78089,-50,4,1,0,80,0,0
78303,-50,4,1,0,85,0,0
78517,-50,4,1,0,90,0,0
78732,-50,4,1,0,95,0,0
78946,-50,4,1,0,100,0,0
80660,-50,4,1,0,100,0,0
92670,-50,4,1,0,90,0,0
92875,-50,4,1,0,75,0,0
93089,-50,4,1,0,50,0,0
93303,-50,4,1,0,75,0,0
93517,-50,4,1,0,90,0,0
94375,-50,4,1,0,100,0,0
108089,-50,4,1,0,90,0,0
108303,-50,4,1,0,80,0,0
108518,-50,4,1,0,70,0,0
108732,-50,4,1,0,60,0,0
108946,-50,4,1,0,50,0,0
109160,-50,4,1,0,40,0,0
109375,-50,4,1,0,30,0,0
109589,-50,4,1,0,25,0,0
109803,-50,4,1,0,20,0,0
110018,-50,4,1,0,15,0,0
110232,-50,4,1,0,10,0,0
110660,-50,4,1,0,100,0,0
125232,-50,4,1,0,100,0,1
137232,-50,4,1,0,100,0,0
138946,-50,4,1,0,100,0,0
150946,-50,4,1,0,90,0,0
151375,-50,4,1,0,75,0,0
151589,-50,4,1,0,50,0,0
151804,-50,4,1,0,20,0,0
152232,-50,4,1,0,50,0,0
152446,-50,4,1,0,75,0,0
152661,-50,4,1,0,100,0,0
159518,-50,4,1,0,90,0,0
162947,-50,4,1,0,80,0,0
166375,-50,4,1,0,65,0,0
176661,-50,4,1,0,50,0,0
177518,-50,4,1,0,59,0,0
178375,-50,4,1,0,68,0,0
178482,-50,4,1,0,70,0,0
178589,-50,4,1,0,72,0,0
178697,-50,4,1,0,74,0,0
178804,-50,4,1,0,76,0,0
178911,-50,4,1,0,78,0,0
179018,-50,4,1,0,80,0,0
179125,-50,4,1,0,82,0,0
179232,-50,4,1,0,84,0,0
179339,-50,4,1,0,86,0,0
179447,-50,4,1,0,88,0,0
179554,-50,4,1,0,90,0,0
179661,-50,4,1,0,92,0,0
179768,-50,4,1,0,94,0,0
179875,-50,4,1,0,96,0,0
179982,-50,4,1,0,98,0,0
180089,-50,4,1,0,100,0,1
193804,-50,4,1,0,100,0,0
202375,-50,4,1,0,90,0,0
202804,-50,4,1,0,75,0,0
204090,-50,4,1,0,90,0,0
204518,-50,4,1,0,75,0,0
205804,-50,4,1,0,90,0,0
206661,-50,4,1,0,75,0,0
207518,-50,4,1,0,90,0,0
208804,-50,4,1,0,75,0,0
209233,-50,4,1,0,100,0,0
222947,-50,4,1,0,10,0,0
223054,-50,4,1,0,15,0,0
223161,-50,4,1,0,20,0,0
223268,-50,4,1,0,25,0,0
223376,-50,4,1,0,30,0,0
223483,-50,4,1,0,35,0,0
223590,-50,4,1,0,40,0,0
223697,-50,4,1,0,45,0,0
223804,-50,4,1,0,50,0,0
223911,-50,4,1,0,55,0,0
224018,-50,4,1,0,60,0,0
224126,-50,4,1,0,65,0,0
224226,-50,4,1,0,70,0,0
224661,-50,4,1,0,100,0,1
252090,-66.6666666666667,4,1,0,70,0,0
252519,-66.6666666666667,4,1,0,50,0,0
252947,-66.6666666666667,4,1,0,70,0,0
253376,-66.6666666666667,4,1,0,50,0,0
253804,-66.6666666666667,4,1,0,80,0,0
253911,-66.6666666666667,4,1,0,60,0,0
254019,-66.6666666666667,4,1,0,80,0,0
254126,-66.6666666666667,4,1,0,60,0,0
254233,-66.6666666666667,4,1,0,80,0,0
254340,-66.6666666666667,4,1,0,60,0,0
254447,-66.6666666666667,4,1,0,80,0,0
254554,-66.6666666666667,4,1,0,60,0,0
254661,-66.6666666666667,4,1,0,80,0,0
254769,-66.6666666666667,4,1,0,60,0,0
254876,-66.6666666666667,4,1,0,80,0,0
254983,-66.6666666666667,4,1,0,60,0,0
255090,-66.6666666666667,4,1,0,80,0,0
255197,-66.6666666666667,4,1,0,60,0,0
255304,-66.6666666666667,4,1,0,80,0,0
255411,-66.6666666666667,4,1,0,60,0,0
255519,-66.6666666666667,4,1,0,70,0,0
255947,-66.6666666666667,4,1,0,50,0,0
256376,-66.6666666666667,4,1,0,70,0,0
256804,-66.6666666666667,4,1,0,50,0,0
257233,-66.6666666666667,4,1,0,85,0,0
257661,-66.6666666666667,4,1,0,40,0,0
258090,-66.6666666666667,4,1,0,10,0,0
258519,-66.6666666666667,4,1,0,60,0,0
258947,-50,4,1,0,100,0,1
265804,-50,4,1,0,100,0,0

[HitObjects]
256,192,1802,5,0,0:0:0:0:
144,152,2231,1,0,0:0:0:0:
256,80,2445,1,0,0:0:0:0:
144,40,2660,1,0,0:0:0:0:
376,32,3088,1,0,0:0:0:0:
288,160,3517,2,0,P|176:232|152:240,1,150
312,320,4374,5,0,0:0:0:0:
440,240,4588,1,0,0:0:0:0:
312,184,4803,1,0,0:0:0:0:
440,112,5017,1,0,0:0:0:0:
312,48,5231,1,0,0:0:0:0:
200,80,5445,2,0,B|104:80|104:80|224:184,1,225
48,264,6517,5,0,0:0:0:0:
128,336,6731,1,0,0:0:0:0:
232,256,6945,2,0,L|376:200,1,150
288,128,7803,2,0,L|152:64,1,150
88,192,8660,6,0,L|32:192,2,56.2500021457673,0|0|0,0:0|0:0|0:0,0:0:0:0:
224,192,9088,1,0,0:0:0:0:
256,192,9195,1,0,0:0:0:0:
288,192,9303,1,0,0:0:0:0:
424,192,9517,6,0,L|480:192,2,56.2500021457673,0|0|0,0:0|0:0|0:0,0:0:0:0:
288,192,9945,1,0,0:0:0:0:
256,192,10052,1,0,0:0:0:0:
224,192,10160,1,0,0:0:0:0:
88,192,10374,5,0,0:0:0:0:
288,192,10588,5,0,0:0:0:0:
224,192,10803,1,0,0:0:0:0:
424,192,11017,2,0,P|256:64|88:192,1,450.000017166138
136,232,12088,5,0,0:0:0:0:
296,312,12303,1,0,0:0:0:0:
376,152,12517,1,0,0:0:0:0:
296,112,12624,1,0,0:0:0:0:
216,72,12731,1,0,0:0:0:0:
160,240,12945,6,0,L|256:176,1,112.500004291535
352,240,13374,1,0,0:0:0:0:
256,192,13803,12,0,15088,0:0:0:0:
148,148,15517,6,0,L|72:16,1,150,0|0,0:0|0:0,0:0:0:0:
296,260,15945,2,0,L|220:128,1,150,0|0,0:0|0:0,0:0:0:0:
438,365,16374,6,0,L|364:236,1,150,0|0,0:0|0:0,0:0:0:0:
256,192,16803,1,0,0:0:0:0:
80,192,17124,1,0,0:0:0:0:
80,192,17231,6,0,B|196:136|256:64|256:64|316:136|448:192,1,450
224,68,18088,5,0,0:0:0:0:
380,160,18303,1,0,0:0:0:0:
288,316,18517,1,0,0:0:0:0:
132,224,18731,1,0,0:0:0:0:
256,192,18945,5,0,0:0:0:0:
104,192,19160,2,0,L|44:148,4,75,0|0|0|0|0,0:0|0:0|0:0|0:0|0:0,0:0:0:0:
256,192,19803,5,0,0:0:0:0:
464,192,20231,1,0,0:0:0:0:
164,192,20660,6,0,L|44:96,1,150
184,296,21088,2,0,L|232:152,1,150
400,208,21517,6,0,L|268:284,1,150
200,88,21946,2,0,L|52:48,1,150
184,192,22374,6,0,L|352:192,1,150
336,104,22803,2,0,L|432:240,1,150
120,200,23232,2,0,L|224:336,1,150
336,104,23660,2,0,L|428:232,1,150
304,240,24088,2,0,P|147:150|120:0,1,300
304,240,24731,1,0,0:0:0:0:
120,200,24946,1,0,0:0:0:0:
480,196,25374,6,0,L|316:196,1,150
120,200,25803,1,0,0:0:0:0:
332,196,26231,2,0,L|496:196,2,150,0|0|0,0:0|0:0|0:0,0:0:0:0:
252,200,26874,1,0,0:0:0:0:
168,200,27088,1,0,0:0:0:0:
72,200,27303,1,0,0:0:0:0:
168,200,27517,2,0,L|504:200,1,300
72,200,28374,1,0,0:0:0:0:
168,200,28588,1,0,0:0:0:0:
316,200,28803,2,0,L|468:200,2,150,0|0|0,0:0|0:0|0:0,0:0:0:0:
484,184,36088,6,0,L|384:184,1,75
224,184,36410,2,0,L|336:184,1,75,0|0,0:0|0:0,0:0:0:0:
360,184,36731,1,0,0:0:0:0:
300,184,36946,2,0,L|208:184,1,75
40,184,37267,2,0,L|136:184,1,75
172,184,37588,1,0,0:0:0:0:
224,184,37803,1,0,0:0:0:0:
300,184,38017,2,0,P|380:144|344:72,1,150,0|0,0:0|0:0,0:0:0:0:
300,184,38446,2,0,L|-12:184,1,300
408,184,39517,5,0,0:0:0:0:
104,184,39946,1,0,0:0:0:0:
484,184,40374,2,0,L|332:184,2,150,0|0|0,0:0|0:0|0:0,0:0:0:0:
332,256,41017,1,0,0:0:0:0:
256,192,41231,12,0,42517,0:0:0:0:
344,120,42946,6,0,L|420:280,1,150
464,320,43374,2,0,L|308:320,1,150
168,120,43803,6,0,L|92:280,1,150
140,312,44231,2,0,L|-16:312,1,150
180,312,44660,1,0,0:0:0:0:
396,192,44874,2,0,L|244:192,1,150,0|0,0:0|0:0,0:0:0:0:
64,188,45517,5,0,0:0:0:0:
396,192,45946,2,0,L|212:192,2,150,0|0|0,0:0|0:0|0:0,0:0:0:0:
476,188,46589,2,0,L|304:188,1,150
172,188,47017,1,0,0:0:0:0:
64,188,47231,2,0,L|236:188,2,150,0|0|0,0:0|0:0|0:0,0:0:0:0:
214,188,47874,2,0,L|376:188,1,150,0|0,0:0|0:0,0:0:0:0:
480,188,48303,2,0,L|316:188,1,150
64,188,48946,1,0,0:0:0:0:
200,192,49374,2,0,L|364:192,1,150
480,188,49803,1,0,0:0:0:0:
256,192,118375,5,2,0:0:0:0:
304,176,118482,1,2,0:0:0:0:
176,128,118696,1,0,0:0:0:0:
128,152,118803,1,2,0:0:0:0:
264,272,119018,1,8,0:0:0:0:
400,192,119232,1,2,0:0:0:0:
441,219,119339,1,2,0:0:0:0:
328,272,119553,1,0,0:0:0:0:
286,299,119660,1,2,0:0:0:0:
176,128,119875,1,10,0:0:0:0:
56,192,120089,6,0,P|56:264|112:336,1,150,0|0,0:0|0:0,0:0:0:0:
248,304,120518,2,0,L|96:248,1,150,2|0,0:0|0:0,0:0:0:0:
136,344,120946,1,2,0:0:0:0:
328,344,121160,1,2,0:0:0:0:
208,192,121375,1,8,0:0:0:0:
392,192,121589,1,0,0:0:0:0:
272,48,121803,5,2,0:0:0:0:
104,160,122018,1,0,0:0:0:0:
352,192,122232,1,2,0:0:0:0:
352,192,122339,1,0,0:0:0:0:
352,192,122446,1,0,0:0:0:0:
192,224,122661,2,0,L|112:360,1,150,8|0,0:0|0:0,0:0:0:0:
304,176,123089,2,0,L|264:320,1,150,2|2,0:0|0:0,0:0:0:0:
408,120,123518,2,0,L|400:280,1,150,4|0,0:0|0:0,0:0:0:0:
112,176,123946,6,0,L|184:40,1,150,2|0,0:0|0:0,0:0:0:0:
304,176,124375,2,0,L|336:248,2,75
408,264,124803,1,2,0:0:0:0:
256,312,125018,1,2,0:0:0:0:
112,256,125232,5,4,0:0:0:0:
128,296,209233,5,4,0:0:0:0:
272,264,209447,2,0,L|200:236,1,75,0|0,0:0|0:0,0:0:0:0:
288,152,209661,1,8,0:0:0:0:
140,172,209875,2,0,L|212:144,1,75,0|0,0:0|0:0,0:0:0:0:
124,60,210089,1,2,0:0:0:0:
280,68,210304,1,2,0:0:0:0:
436,88,210518,1,6,0:0:0:0:
344,324,210947,5,4,0:0:0:0:
164,280,211161,2,0,L|96:312,1,75
168,192,211375,1,8,0:0:0:0:
344,324,211590,1,0,0:0:0:0:
168,192,211804,1,2,0:0:0:0:
376,192,212018,1,2,0:0:0:0:
204,80,212233,1,2,0:0:0:0:
452,284,212661,5,2,0:0:0:0:
60,284,213090,1,2,0:0:0:0:
256,192,213411,1,0,0:0:0:0:
200,192,213518,2,2,P|140:140|68:128,1,150
312,192,213947,2,0,P|372:244|444:256,1,150,2|0,0:0|0:0,0:0:0:0:
296,344,214375,5,2,0:0:0:0:
72,144,214804,1,2,0:0:0:0:
312,192,215125,1,0,0:0:0:0:
256,192,215233,1,2,0:0:0:0:
404,264,215447,1,2,0:0:0:0:
256,192,215661,2,0,P|188:232|116:244,1,150,2|0,0:0|0:0,0:0:0:0:
