osu file format v14

[General]
AudioFilename: F-777 - Dance of The Violins [FREE DOWNLOAD].mp3
AudioLeadIn: 0
PreviewTime: 103533
Countdown: 0
SampleSet: Soft
StackLeniency: 0.7
Mode: 2
LetterboxInBreaks: 0
EpilepsyWarning: 1
WidescreenStoryboard: 1

[Editor]
Bookmarks: 14918,29687,59225,88764,103533,133072,140456,147841,177379,193995,208764,223533,238302,267841,282610,312149
DistanceSpacing: 1.2
BeatDivisor: 4
GridSize: 8
TimelineZoom: 1.4

[Metadata]
Title:Dance of The Violins
TitleUnicode:Dance of The Violins
Artist:F-777
ArtistUnicode:F-777
Creator:Absolute Zero
Version:Celtic Dance
Source:
Tags:JBHyperion JesseValentineMusic ambient breakbeat dance electronic orchestral trance Edmonton Newgrounds
BeatmapID:903351
BeatmapSetID:417149

[Difficulty]
HPDrainRate:6
CircleSize:4
OverallDifficulty:8.8
ApproachRate:8.8
SliderMultiplier:1.8
SliderTickRate:1

[Events]
//Background and Video events
0,0,"DanceoftheViolins.jpg",0,0
//Break Periods
//Storyboard Layer 0 (Background)
//Storyboard Layer 1 (Fail)
//Storyboard Layer 2 (Pass)
//Storyboard Layer 3 (Foreground)
//Storyboard Sound Samples

[TimingPoints]
149,461.538461538462,4,2,7,30,1,0
149,-125,4,2,7,30,0,0
610,-125,4,2,1,30,0,0
7533,-125,4,2,1,35,0,0
14918,-100,4,2,7,40,0,0
15379,-100,4,2,1,40,0,0
29225,-100,4,2,7,40,0,0
29687,-100,4,2,7,50,0,0
29918,-100,4,2,2,45,0,0
43764,-66.6666666666667,4,2,2,45,0,0
44456,-100,4,2,7,40,0,0
44918,-100,4,2,2,30,0,0
49995,-100,4,2,2,40,0,0
51841,-100,4,2,7,45,0,0
52302,-100,4,2,2,45,0,0
55533,-133.333333333333,4,2,1,30,0,0
55995,-133.333333333333,4,2,1,35,0,0
56456,-133.333333333333,4,2,1,40,0,0
56918,-133.333333333333,4,2,1,45,0,0
57379,-100,4,2,1,50,0,0
59225,-100,4,2,7,60,0,1
59456,-100,4,2,3,60,0,1
73995,-100,4,2,7,60,0,1
74225,-100,4,2,3,60,0,1
76533,-66.6666666666667,4,2,3,60,0,1
76995,-100,4,2,3,60,0,1
80687,-55.5555555555556,4,2,3,60,0,1
81379,-100,4,2,3,60,0,1
88764,-100,4,2,7,50,0,0
89225,-100,4,2,1,50,0,0
96149,-100,4,2,1,55,0,0
97995,-100,4,2,1,60,0,0
99841,-100,4,2,1,65,0,0
101687,-100,4,2,1,30,0,0
102149,-100,4,2,1,40,0,0
102610,-100,4,2,1,50,0,0
103072,-100,4,2,1,60,0,0
103302,-100,4,2,1,5,0,0
103533,-100,4,2,7,60,0,1
103764,-100,4,2,3,60,0,1
109764,-66.6666666666667,4,2,3,60,0,1
110687,-100,4,2,3,60,0,1
117610,-66.6666666666667,4,2,3,60,0,1
118072,-100,4,2,3,60,0,1
118302,-100,4,2,7,60,0,1
118533,-100,4,2,3,60,0,1
124995,-66.6666666666667,4,2,3,60,0,1
125456,-100,4,2,3,60,0,1
128225,-66.6666666666667,4,2,3,60,0,1
128687,-100,4,2,3,60,0,1
132379,-66.6666666666667,4,2,3,60,0,1
132841,-100,4,2,3,60,0,1
133072,-100,4,2,7,45,0,0
133302,-100,4,2,1,45,0,0
140456,-100,4,2,7,45,0,0
140918,-100,4,2,2,45,0,0
147841,-100,4,2,7,40,0,0
177379,-133.333333333333,4,2,7,35,0,0
177841,-133.333333333333,4,2,2,35,0,0
191687,-133.333333333333,4,2,2,30,0,0
192149,-133.333333333333,4,2,2,25,0,0
192610,-133.333333333333,4,2,2,20,0,0
193072,-133.333333333333,4,2,2,15,0,0
193533,-50,4,2,3,45,0,0
193995,-100,4,2,7,45,0,0
194456,-100,4,2,1,45,0,0
208764,-100,4,2,7,45,0,0
208995,-100,4,2,2,45,0,0
215456,-66.6666666666667,4,2,2,45,0,0
215918,-100,4,2,2,45,0,0
222841,-66.6666666666667,4,2,2,45,0,0
223302,-100,4,2,2,45,0,0
223533,-100,4,2,7,45,0,0
223995,-100,4,2,2,45,0,0
230918,-100,4,2,7,45,0,0
231379,-100,4,2,2,45,0,0
234610,-133.333333333333,4,2,1,30,0,0
235072,-133.333333333333,4,2,1,35,0,0
235533,-133.333333333333,4,2,1,40,0,0
235995,-133.333333333333,4,2,1,45,0,0
236456,-100,4,2,1,50,0,0
238302,-100,4,2,7,60,0,1
238533,-100,4,2,3,60,0,1
253072,-100,4,2,7,60,0,1
253302,-100,4,2,3,60,0,1
267149,-58.8235294117647,4,2,3,60,0,1
267841,-100,4,2,7,50,0,0
268302,-100,4,2,1,50,0,0
275225,-100,4,2,1,55,0,0
277072,-100,4,2,1,60,0,0
278918,-100,4,2,1,65,0,0
280764,-100,4,2,1,30,0,0
281226,-100,4,2,1,40,0,0
281687,-100,4,2,1,50,0,0
282149,-100,4,2,1,60,0,0
282379,-100,4,2,1,5,0,0
282610,-100,4,2,7,60,0,1
282841,-100,4,2,3,60,0,1
289302,-66.6666666666667,4,2,3,60,0,1
289764,-100,4,2,3,60,0,1
296687,-57.1428571428571,4,2,3,60,0,1
297149,-100,4,2,3,60,0,1
297379,-100,4,2,7,60,0,1
297610,-100,4,2,3,60,0,1
299918,-80,4,2,3,60,0,1
300379,-100,4,2,3,60,0,1
304072,-66.6666666666667,4,2,3,60,0,1
304533,-100,4,2,3,60,0,1
311456,-66.6666666666667,4,2,3,60,0,1
311918,-100,4,2,3,60,0,1
312149,-100,4,2,7,50,0,0
312379,-100,4,2,1,50,0,0
319533,-100,4,2,7,40,0,0
319764,-100,4,2,2,40,0,0
325764,-66.6666666666667,4,2,2,50,0,0
326918,-66.6666666666667,4,2,7,45,0,0
327149,-66.6666666666667,4,2,1,40,0,0
327380,-100,4,2,1,35,0,0
327610,-100,4,2,1,30,0,0
327841,-100,4,2,1,25,0,0
328072,-100,4,2,1,20,0,0
328303,-100,4,2,1,15,0,0
328533,-100,4,2,1,10,0,0
328764,-100,4,2,1,5,0,0

[Colours]
Combo1 : 0,128,255
Combo2 : 55,55,255
Combo3 : 0,200,175
Combo4 : 0,0,100

[HitObjects]
132,192,149,5,4,0:0:0:0:
292,192,610,1,8,0:0:0:0:
172,112,956,2,0,L|44:112,1,108,2|0,0:0|0:0,0:0:0:0:
196,112,1533,1,8,0:0:0:0:
340,192,1995,5,2,0:0:0:0:
52,192,2456,1,8,0:0:0:0:
200,96,2802,2,0,L|320:96,1,108,2|2,0:0|0:0,0:0:0:0:
400,96,3379,2,0,L|496:96,1,72,8|2,0:0|0:0,0:0:0:0:
256,192,3841,5,2,0:0:0:0:
396,192,4302,1,8,0:0:0:0:
200,64,4649,2,0,L|312:64,1,108,2|0,0:0|0:0,0:0:0:0:
408,64,5225,1,8,0:0:0:0:
160,192,5687,5,2,0:0:0:0:
480,192,6149,1,8,0:0:0:0:
320,64,6495,2,0,L|200:64,1,108,2|2,0:0|0:0,0:0:0:0:
56,64,7072,2,0,L|128:64,1,72,8|2,0:0|0:0,0:0:0:0:
448,192,7533,5,2,0:0:0:0:
280,192,7995,1,8,0:0:0:0:
120,192,8341,1,2,0:0:0:0:
296,192,8687,1,0,0:0:0:0:
408,192,8918,1,8,0:0:0:0:
24,192,9379,5,2,0:0:0:0:
168,192,9841,1,8,0:0:0:0:
304,192,10187,1,2,0:0:0:0:
168,192,10533,1,2,0:0:0:0:
32,104,10764,2,0,L|120:104,1,72,8|2,0:0|0:0,0:0:0:0:
464,192,11225,6,0,L|304:192,1,144,10|8,0:0|0:0,0:0:0:0:
80,192,12033,2,0,L|188:192,1,108,2|0,0:0|0:0,0:0:0:0:
16,192,12610,1,8,0:0:0:0:
248,192,13072,6,0,L|392:192,1,144,2|8,0:0|0:0,0:0:0:0:
224,192,13879,2,0,L|112:192,1,108,2|2,0:0|0:0,0:0:0:0:
16,192,14456,2,0,L|104:192,1,72,8|2,0:0|0:0,0:0:0:0:
432,192,14918,5,4,0:0:0:0:
96,192,15379,2,0,L|208:192,1,90,8|0,0:0|0:0,0:0:0:0:
304,112,15725,2,0,L|360:112,1,45,0|2,0:0|0:0,0:0:0:0:
480,248,16072,2,0,L|376:248,1,90,2|8,0:0|0:0,0:0:0:0:
224,168,16764,6,0,L|120:168,1,90,2|0,0:0|0:0,0:0:0:0:
352,104,17225,2,0,L|456:104,1,90,8|0,0:0|0:0,0:0:0:0:
240,232,17572,2,0,L|136:232,1,90,2|0,0:0|0:0,0:0:0:0:
240,96,17918,2,0,L|368:96,2,90,2|8|0,0:0|0:0|0:0,0:0:0:0:
32,224,18610,5,2,0:0:0:0:
256,224,19072,2,0,L|376:224,1,90,8|0,0:0|0:0,0:0:0:0:
448,104,19418,2,0,L|384:104,1,45,0|2,0:0|0:0,0:0:0:0:
256,104,19764,1,2,0:0:0:0:
464,104,19995,1,8,0:0:0:0:
56,96,20456,6,0,L|144:184,1,90,2|0,0:0|0:0,0:0:0:0:
336,96,20918,2,0,L|264:168,1,90,8|0,0:0|0:0,0:0:0:0:
54,264,21264,2,0,L|192:264,1,135,2|2,0:0|0:0,0:0:0:0:
64,336,21841,2,0,L|154:336,1,90,8|0,0:0|0:0,0:0:0:0:
472,272,22302,5,2,0:0:0:0:
328,272,22764,2,0,L|200:272,1,90,8|0,0:0|0:0,0:0:0:0:
151,192,23110,2,0,L|16:192,1,135,2|2,0:0|0:0,0:0:0:0:
312,192,23687,2,0,L|216:192,1,90,8|0,0:0|0:0,0:0:0:0:
112,192,24149,6,0,L|88:104,1,90,2|0,0:0|0:0,0:0:0:0:
264,200,24610,2,0,L|296:112,1,90,8|0,0:0|0:0,0:0:0:0:
456,240,24956,2,0,P|448:312|368:288,1,135
128,336,25533,2,0,L|32:336,1,90,8|0,0:0|0:0,0:0:0:0:
408,112,25995,6,0,L|312:112,1,90,2|0,0:0|0:0,0:0:0:0:
472,112,26456,2,0,L|368:112,1,90,8|0,0:0|0:0,0:0:0:0:
277,192,26802,2,0,L|232:192,1,45,0|2,0:0|0:0,0:0:0:0:
56,280,27149,2,0,L|152:280,1,90,2|8,0:0|0:0,0:0:0:0:
248,128,27841,6,0,L|320:200,1,90,2|2,0:0|0:0,0:0:0:0:
440,192,28302,1,8,0:0:0:0:
312,64,28533,2,0,P|192:64|80:176,1,270,2|2,0:0|0:0,0:0:0:0:
72,208,29284,1,2,0:0:0:0:
80,252,29341,1,2,0:0:0:0:
100,296,29399,1,2,0:0:0:0:
136,320,29457,1,2,0:0:0:0:
176,328,29514,1,2,0:0:0:0:
216,328,29572,1,2,0:0:0:0:
416,296,29687,6,0,L|520:296,1,90,4|0,0:0|0:0,0:0:0:0:
324,200,30149,2,0,L|228:200,1,90
148,96,30495,2,0,L|212:96,1,45,0|8,0:0|0:0,0:0:0:0:
344,96,30841,1,0,0:0:0:0:
200,96,31072,1,0,0:0:0:0:
400,96,31302,1,0,0:0:0:0:
160,96,31533,6,0,L|56:96,2,90,2|0|0,0:0|0:0|0:0,0:0:0:0:
264,192,32225,2,0,L|312:192,2,45,0|0|8,0:0|0:0|0:0,0:0:0:0:
416,248,32687,2,0,L|520:248,2,90,0|8|0,0:0|0:0|0:0,0:0:0:0:
80,256,33379,6,0,P|40:232|72:176,1,90,2|0,0:0|0:0,0:0:0:0:
224,260,33841,2,0,L|328:260,1,90
416,88,34187,2,0,L|371:88,1,45,0|8,0:0|0:0,0:0:0:0:
168,88,34533,1,0,0:0:0:0:
328,88,34764,1,0,0:0:0:0:
128,88,34995,1,0,0:0:0:0:
360,88,35225,6,0,L|464:88,2,90,2|0|0,0:0|0:0|0:0,0:0:0:0:
264,180,35918,2,0,L|216:220,2,45,0|0|8,0:0|0:0|0:0,0:0:0:0:
80,248,36379,2,0,L|-24:248,2,90,0|8|0,0:0|0:0|0:0,0:0:0:0:
472,248,37072,6,0,L|400:192,1,90,2|0,0:0|0:0,0:0:0:0:
276,240,37533,2,0,L|368:240,1,90
480,64,37879,2,0,L|416:64,1,45,0|8,0:0|0:0,0:0:0:0:
240,64,38225,1,0,0:0:0:0:
112,144,38456,1,0,0:0:0:0:
240,64,38687,1,0,0:0:0:0:
480,64,38918,6,0,L|400:144,1,90,2|0,0:0|0:0,0:0:0:0:
320,208,39379,1,0,0:0:0:0:
184,312,39610,2,0,L|-16:296,1,180,8|0,0:0|0:0,0:0:0:0:
64,224,40302,2,0,L|160:224,1,90,8|0,0:0|0:0,0:0:0:0:
304,224,40764,5,2,0:0:0:0:
440,224,40995,1,0,0:0:0:0:
48,152,41225,1,0,0:0:0:0:
176,152,41456,1,0,0:0:0:0:
216,152,41572,2,0,L|288:152,1,45,0|8,0:0|0:0,0:0:0:0:
408,144,41918,2,0,L|496:96,2,90
96,152,42610,6,0,P|48:152|16:192,2,90,2|0|0,0:0|0:0|0:0,0:0:0:0:
328,152,43302,1,8,0:0:0:0:
432,232,43764,2,0,L|297:232,2,135.000005149842
104,160,44456,5,4,0:0:0:0:
408,160,44918,1,0,0:0:0:0:
200,48,45264,1,2,0:0:0:0:
360,48,45610,1,0,0:0:0:0:
224,48,45841,1,2,0:0:0:0:
424,160,46302,5,8,0:0:0:0:
192,160,46764,1,0,0:0:0:0:
376,72,47110,1,2,0:0:0:0:
216,72,47456,1,0,0:0:0:0:
88,72,47687,1,2,0:0:0:0:
216,72,47918,1,0,0:0:0:0:
0,192,48149,5,8,0:0:0:0:
256,192,48610,1,0,0:0:0:0:
456,192,48956,1,2,0:0:0:0:
136,72,49302,1,0,0:0:0:0:
256,72,49533,1,2,0:0:0:0:
448,192,49995,5,8,0:0:0:0:
232,192,50456,1,0,0:0:0:0:
416,192,50802,1,2,0:0:0:0:
304,88,51149,1,0,0:0:0:0:
400,88,51380,1,2,0:0:0:0:
328,88,51610,1,2,0:0:0:0:
40,88,51841,5,4,0:0:0:0:
272,96,52302,2,0,L|416:96,1,135,0|2,0:0|0:0,0:0:0:0:
240,192,52995,2,0,L|136:192,2,90,0|2|0,0:0|0:0|0:0,0:0:0:0:
464,192,53687,1,8,0:0:0:0:
144,192,54149,1,0,0:0:0:0:
400,192,54495,2,0,L|296:96,1,135,2|0,0:0|0:0,0:0:0:0:
160,104,55072,2,0,L|70:104,1,90,2|0,0:0|0:0,0:0:0:0:
272,184,55533,6,2,L|336:184,3,33.7500012874604
104,184,55995,2,0,L|64:184,3,33.7500012874604,2|2|2|2,0:0|0:0|0:0|0:0,0:0:0:0:
296,224,56456,2,0,L|352:224,3,33.7500012874604,2|2|2|2,0:0|0:0|0:0|0:0,0:0:0:0:
88,224,56918,2,0,L|40:224,3,33.7500012874604,2|2|2|2,0:0|0:0|0:0|0:0,0:0:0:0:
320,292,57379,5,10,0:0:0:0:
356,272,57436,1,2,0:0:0:0:
380,236,57494,1,2,0:0:0:0:
388,192,57552,1,2,0:0:0:0:
376,144,57609,1,2,0:0:0:0:
344,104,57667,1,2,0:0:0:0:
304,80,57725,1,2,0:0:0:0:
260,76,57782,1,2,0:0:0:0:
100,76,57841,5,10,0:0:0:0:
64,104,57899,1,2,0:0:0:0:
44,144,57956,1,2,0:0:0:0:
40,200,58014,1,2,0:0:0:0:
56,248,58072,1,2,0:0:0:0:
92,284,58129,1,2,0:0:0:0:
128,300,58187,1,2,0:0:0:0:
176,304,58245,1,2,0:0:0:0:
232,304,58302,1,10,0:0:0:0:
256,192,58533,12,0,58995,0:0:0:0:
144,312,59225,6,0,L|54:312,1,90,4|0,0:0|0:0,0:0:0:0:
216,304,59687,2,0,L|136:224,1,90,8|0,0:0|0:0,0:0:0:0:
88,192,60033,2,0,L|43:192,1,45,0|2,0:0|0:0,0:0:0:0:
408,96,60379,2,0,L|512:96,2,90,0|8|0,0:0|0:0|0:0,0:0:0:0:
144,96,61072,6,0,L|40:96,1,90,2|0,0:0|0:0,0:0:0:0:
280,176,61533,2,0,L|190:176,1,90,8|0,0:0|0:0,0:0:0:0:
256,288,61879,2,0,L|391:288,1,135,2|2,0:0|0:0,0:0:0:0:
88,288,62456,1,8,0:0:0:0:
0,288,62687,1,0,0:0:0:0:
312,288,62918,6,8,L|416:288,1,90,2|0,0:0|0:0,0:0:0:0:
200,88,63379,2,0,L|104:88,1,90,8|0,0:0|0:0,0:0:0:0:
184,224,63725,2,0,L|229:224,1,45,0|2,0:0|0:0,0:0:0:0:
120,224,64072,2,0,L|16:224,2,90,0|8|0,0:0|0:0|0:0,0:0:0:0:
348,288,64764,6,0,L|236:288,1,90,2|0,0:0|0:0,0:0:0:0:
474,288,65225,2,0,L|384:288,1,90,8|0,0:0|0:0,0:0:0:0:
424,176,65572,2,0,L|360:176,1,45,0|2,0:0|0:0,0:0:0:0:
80,176,65918,2,0,L|-8:120,2,90,2|8|0,0:0|0:0|0:0,0:0:0:0:
424,168,66610,5,2,0:0:0:0:
256,168,66841,2,0,L|152:168,1,90,0|8,0:0|0:0,0:0:0:0:
312,80,67302,2,0,L|357:80,2,45,0|0|2,0:0|0:0|0:0,0:0:0:0:
152,80,67764,1,0,0:0:0:0:
384,80,67995,1,8,0:0:0:0:
256,80,68225,1,0,0:0:0:0:
112,80,68456,6,0,L|0:80,2,90,2|0|8,0:0|0:0|0:0,0:0:0:0:
464,80,69149,2,0,L|328:80,1,135,2|0,0:0|0:0,0:0:0:0:
112,240,69610,2,0,L|0:240,2,90,2|8|0,0:0|0:0|0:0,0:0:0:0:
464,240,70302,6,0,L|352:240,1,90,2|0,0:0|0:0,0:0:0:0:
160,240,70764,2,0,L|272:240,1,90,8|0,0:0|0:0,0:0:0:0:
336,104,71110,2,0,L|392:104,1,45,0|2,0:0|0:0,0:0:0:0:
224,104,71456,1,0,0:0:0:0:
56,104,71687,1,8,0:0:0:0:
176,104,71918,1,0,0:0:0:0:
480,104,72149,6,0,L|416:168,1,90,2|0,0:0|0:0,0:0:0:0:
192,104,72610,2,0,L|264:176,1,90,8|0,0:0|0:0,0:0:0:0:
192,168,72956,1,2,0:0:0:0:
448,168,73302,2,0,L|358:168,2,90,2|8|0,0:0|0:0|0:0,0:0:0:0:
104,72,73995,6,0,L|0:72,1,90,4|0,0:0|0:0,0:0:0:0:
176,240,74456,2,0,L|304:240,1,90,8|0,0:0|0:0,0:0:0:0:
192,192,74802,2,0,L|128:192,1,45,0|2,0:0|0:0,0:0:0:0:
456,192,75149,1,0,0:0:0:0:
280,192,75379,1,8,0:0:0:0:
432,192,75610,1,0,0:0:0:0:
30,192,75841,6,0,L|120:192,1,90,2|0,0:0|0:0,0:0:0:0:
30,192,76302,1,8,0:0:0:0:
359,55,76533,2,0,P|407:135|279:191,1,270.000010299683,2|2,0:0|0:0,0:0:0:0:
408,256,77225,2,0,L|488:176,1,90,8|0,0:0|0:0,0:0:0:0:
170,256,77687,6,0,L|80:256,1,90,2|0,0:0|0:0,0:0:0:0:
376,264,78149,2,0,L|272:264,1,90,8|0,0:0|0:0,0:0:0:0:
96,176,78495,2,0,L|141:176,1,45,0|2,0:0|0:0,0:0:0:0:
48,176,78841,1,0,0:0:0:0:
256,176,79072,1,8,0:0:0:0:
80,176,79302,1,0,0:0:0:0:
432,80,79533,5,2,0:0:0:0:
280,80,79764,1,0,0:0:0:0:
64,80,79995,1,8,0:0:0:0:
256,80,80225,2,0,L|166:80,1,90,2|0,0:0|0:0,0:0:0:0:
456,88,80687,2,0,L|128:128,1,323.999990112305,2|0,0:0|0:0,0:0:0:0:
352,152,81379,6,0,L|456:152,1,90,2|0,0:0|0:0,0:0:0:0:
280,72,81841,2,0,L|152:72,1,90,8|0,0:0|0:0,0:0:0:0:
100,176,82187,2,0,L|55:176,1,45,0|2,0:0|0:0,0:0:0:0:
400,192,82533,2,0,L|308:192,2,90,0|8|0,0:0|0:0|0:0,0:0:0:0:
256,192,83225,6,0,L|144:192,1,90,2|0,0:0|0:0,0:0:0:0:
328,120,83687,2,0,L|448:120,2,90,8|2|0,0:0|0:0|0:0,0:0:0:0:
96,120,84379,2,0,L|0:120,2,90,2|8|0,0:0|0:0|0:0,0:0:0:0:
468,112,85072,6,12,L|378:112,1,90,2|0,0:0|0:0,0:0:0:0:
280,208,85533,2,0,L|184:208,1,90,8|0,0:0|0:0,0:0:0:0:
368,128,85879,2,0,L|456:128,1,45,0|2,0:0|0:0,0:0:0:0:
304,128,86225,1,0,0:0:0:0:
480,128,86456,1,8,0:0:0:0:
304,128,86687,1,0,0:0:0:0:
112,232,86918,6,0,L|-16:232,2,90,2|0|8,0:0|0:0|0:0,0:0:0:0:
248,232,87610,1,2,0:0:0:0:
432,152,88072,1,8,0:0:0:0:
272,152,88302,1,0,0:0:0:0:
432,152,88533,1,0,0:0:0:0:
88,120,88764,5,4,0:0:0:0:
340,120,89225,1,8,0:0:0:0:
176,120,89572,1,0,0:0:0:0:
240,120,89687,2,0,L|336:120,2,90,2|0|8,0:0|0:0|0:0,0:0:0:0:
418,120,90610,5,2,0:0:0:0:
200,120,91071,1,8,0:0:0:0:
364,120,91418,1,0,0:0:0:0:
296,120,91533,2,0,L|200:120,1,90,2|0,0:0|0:0,0:0:0:0:
416,120,91995,2,0,L|512:120,1,90,8|0,0:0|0:0,0:0:0:0:
192,120,92456,5,2,0:0:0:0:
404,120,92917,1,8,0:0:0:0:
240,120,93264,2,0,L|192:120,1,45,0|2,0:0|0:0,0:0:0:0:
376,120,93610,2,0,L|472:120,1,90,0|8,0:0|0:0,0:0:0:0:
216,120,94302,5,2,0:0:0:0:
466,120,94763,1,8,0:0:0:0:
302,120,95110,1,0,0:0:0:0:
234,120,95225,2,0,L|138:120,1,90,2|0,0:0|0:0,0:0:0:0:
324,120,95687,1,8,0:0:0:0:
126,120,95918,1,8,0:0:0:0:
426,120,96149,6,0,P|484:168|420:224,1,180,2|0,0:0|0:0,0:0:0:0:
260,120,96957,1,0,0:0:0:0:
324,120,97072,2,0,L|420:120,2,90,2|0|8,0:0|0:0|0:0,0:0:0:0:
108,120,97995,5,2,0:0:0:0:
360,120,98456,1,8,0:0:0:0:
196,120,98802,2,0,L|140:120,1,45,0|2,0:0|0:0,0:0:0:0:
352,120,99149,2,0,L|448:120,2,90,0|8|0,0:0|0:0|0:0,0:0:0:0:
52,120,99841,5,2,0:0:0:0:
304,120,100302,1,8,0:0:0:0:
140,120,100649,2,0,L|92:120,1,45,0|2,0:0|0:0,0:0:0:0:
276,120,100995,2,0,L|188:72,1,90,0|8,0:0|0:0,0:0:0:0:
256,192,101687,12,0,103302,0:0:0:0:
328,192,103533,6,0,L|424:192,1,90,4|0,0:0|0:0,0:0:0:0:
220,192,103995,1,8,0:0:0:0:
348,96,104225,2,0,L|392:96,2,45,0|0|2,0:0|0:0|0:0,0:0:0:0:
168,96,104687,1,0,0:0:0:0:
464,96,104918,1,8,0:0:0:0:
356,96,105149,1,0,0:0:0:0:
60,96,105379,6,0,P|32:136|40:176,1,90,2|0,0:0|0:0,0:0:0:0:
224,176,105841,1,8,0:0:0:0:
80,176,106072,2,0,P|0:232|32:296,1,180,2|2,0:0|0:0,0:0:0:0:
208,296,106764,2,0,L|116:296,1,90,8|0,0:0|0:0,0:0:0:0:
416,204,107225,6,0,L|320:204,1,90,2|0,0:0|0:0,0:0:0:0:
128,200,107687,1,8,0:0:0:0:
272,96,107918,1,0,0:0:0:0:
332,96,108033,1,0,0:0:0:0:
392,96,108149,1,2,0:0:0:0:
196,96,108379,1,0,0:0:0:0:
492,96,108610,1,8,0:0:0:0:
384,96,108841,1,0,0:0:0:0:
80,96,109071,6,0,B|36:96|36:96|88:96,1,90,2|0,0:0|0:0,0:0:0:0:
264,100,109533,1,8,0:0:0:0:
112,168,109764,2,0,P|38:196|112:228,1,202.500007724762,2|0,0:0|0:0,0:0:0:0:
312,192,110225,2,0,B|436:192|436:192|496:260|444:328,1,270.000010299683,8|0,0:0|0:0,0:0:0:0:
104,300,110918,6,0,L|8:300,1,90,2|0,0:0|0:0,0:0:0:0:
200,296,111379,2,0,L|244:296,1,45,8|0,0:0|0:0,0:0:0:0:
152,224,111610,2,0,L|108:224,1,45
224,192,111841,2,0,L|316:192,1,90,2|0,0:0|0:0,0:0:0:0:
16,288,112303,1,8,0:0:0:0:
124,288,112534,1,0,0:0:0:0:
420,288,112764,6,0,L|480:208,1,90,2|0,0:0|0:0,0:0:0:0:
288,216,113226,1,8,0:0:0:0:
432,216,113457,2,0,P|496:192|472:80,1,180,2|2,0:0|0:0,0:0:0:0:
312,96,114149,2,0,L|404:96,1,90,8|0,0:0|0:0,0:0:0:0:
104,192,114610,6,0,L|24:148,1,90,2|0,0:0|0:0,0:0:0:0:
224,192,115072,1,8,0:0:0:0:
84,92,115303,1,0,0:0:0:0:
144,92,115418,1,0,0:0:0:0:
204,92,115534,1,2,0:0:0:0:
8,92,115764,1,0,0:0:0:0:
304,92,115995,1,8,0:0:0:0:
168,92,116226,1,0,0:0:0:0:
464,92,116456,6,0,B|508:92|508:92|456:92,1,90,2|0,0:0|0:0,0:0:0:0:
280,96,116918,1,8,0:0:0:0:
456,160,117149,2,0,P|504:200|456:220,1,135,2|0,0:0|0:0,0:0:0:0:
256,188,117610,2,0,B|120:188|120:188|48:220|50:325,1,270.000010299683,8|0,0:0|0:0,0:0:0:0:
392,192,118302,6,0,L|488:192,1,90,4|0,0:0|0:0,0:0:0:0:
184,192,118764,1,8,0:0:0:0:
300,96,118994,2,0,L|344:96,2,45,0|0|2,0:0|0:0|0:0,0:0:0:0:
100,96,119456,1,0,0:0:0:0:
396,96,119687,2,0,L|492:96,1,90,8|0,0:0|0:0,0:0:0:0:
188,96,120149,5,2,0:0:0:0:
312,96,120379,1,0,0:0:0:0:
132,96,120611,1,8,0:0:0:0:
280,96,120841,2,0,P|368:124|392:208,1,180,2|2,0:0|0:0,0:0:0:0:
212,196,121534,2,0,L|120:196,1,90,8|0,0:0|0:0,0:0:0:0:
420,300,121995,6,0,L|504:256,1,90,2|0,0:0|0:0,0:0:0:0:
200,300,122456,1,8,0:0:0:0:
316,192,122687,2,0,L|360:192,1,45
244,160,122918,2,0,L|152:160,1,90,2|0,0:0|0:0,0:0:0:0:
452,256,123379,2,0,B|492:232|492:232|448:212,1,90,8|0,0:0|0:0,0:0:0:0:
152,192,123841,5,2,0:0:0:0:
316,192,124071,1,0,0:0:0:0:
116,192,124303,1,8,0:0:0:0:
268,192,124533,2,0,L|376:112,1,135,2|0,0:0|0:0,0:0:0:0:
196,140,124995,2,0,P|68:140|80:28,1,270.000010299683,8|0,0:0|0:0,0:0:0:0:
380,192,125687,6,0,L|476:192,1,90,2|0,0:0|0:0,0:0:0:0:
172,192,126149,1,8,0:0:0:0:
296,288,126379,1,0,0:0:0:0:
236,288,126495,1,0,0:0:0:0:
176,288,126610,1,2,0:0:0:0:
372,288,126841,1,0,0:0:0:0:
72,288,127072,2,0,L|4:228,1,90,8|0,0:0|0:0,0:0:0:0:
304,264,127533,6,0,L|396:264,1,90,2|0,0:0|0:0,0:0:0:0:
212,192,127995,1,8,0:0:0:0:
60,192,128226,2,0,P|8:152|128:72,1,270.000010299683,2|2,0:0|0:0,0:0:0:0:
304,72,128918,2,0,L|396:72,1,90,8|0,0:0|0:0,0:0:0:0:
96,76,129379,6,0,P|112:120|152:136,1,90,2|0,0:0|0:0,0:0:0:0:
448,136,129840,1,8,0:0:0:0:
332,244,130071,2,0,L|288:244,1,45
404,276,130302,2,0,L|496:276,1,90,2|0,0:0|0:0,0:0:0:0:
196,180,130764,1,8,0:0:0:0:
376,180,130995,1,0,0:0:0:0:
80,292,131225,6,0,B|8:224,1,90,2|0,0:0|0:0,0:0:0:0:
216,296,131687,1,8,0:0:0:0:
72,224,131918,2,0,B|8:192|8:192|72:168,1,135,2|0,0:0|0:0,0:0:0:0:
248,200,132379,2,0,B|384:200|384:200|404:128|336:72,1,270.000010299683,8|0,0:0|0:0,0:0:0:0:
280,32,132956,1,0,0:0:0:0:
88,56,133072,6,0,L|0:88,1,90,4|0,0:0|0:0,0:0:0:0:
200,84,133533,1,8,0:0:0:0:
8,160,133879,2,0,L|53:160,1,45,0|2,0:0|0:0,0:0:0:0:
181,160,134225,1,0,0:0:0:0:
361,160,134456,2,0,L|453:160,1,90,8|0,0:0|0:0,0:0:0:0:
249,160,134918,6,0,L|157:160,1,90,2|0,0:0|0:0,0:0:0:0:
357,188,135379,1,8,0:0:0:0:
169,264,135725,2,0,L|96:264,1,45,0|2,0:0|0:0,0:0:0:0:
296,264,136071,1,0,0:0:0:0:
100,264,136302,2,0,L|12:228,1,90,8|2,0:0|0:0,0:0:0:0:
316,88,136764,6,0,P|344:152|256:192,1,180,2|8,0:0|0:0,0:0:0:0:
104,88,137572,1,0,0:0:0:0:
174,88,137687,2,0,L|270:88,1,90,2|0,0:0|0:0,0:0:0:0:
442,88,138149,2,0,L|346:88,1,90,8|0,0:0|0:0,0:0:0:0:
150,88,138610,6,0,L|56:88,1,90,2|0,0:0|0:0,0:0:0:0:
240,156,139072,2,0,L|344:156,1,90,8|0,0:0|0:0,0:0:0:0:
272,156,139418,1,0,0:0:0:0:
180,156,139533,1,2,0:0:0:0:
380,156,139764,2,0,L|472:156,2,90,0|8|2,0:0|0:0|0:0,0:0:0:0:
84,152,140456,5,4,0:0:0:0:
300,152,140918,1,2,0:0:0:0:
84,152,141264,1,0,0:0:0:0:
20,152,141379,2,0,L|12:60,1,90,8|0,0:0|0:0,0:0:0:0:
140,64,141841,2,0,L|148:156,1,90
352,192,142302,5,2,0:0:0:0:
136,192,142764,1,2,0:0:0:0:
352,196,143110,1,0,0:0:0:0:
416,196,143225,2,0,L|424:288,1,90,8|0,0:0|0:0,0:0:0:0:
224,284,143687,2,0,L|128:284,1,90,2|0,0:0|0:0,0:0:0:0:
340,152,144149,5,2,0:0:0:0:
104,152,144611,1,2,0:0:0:0:
340,152,144957,1,0,0:0:0:0:
404,148,145072,2,0,L|412:56,1,90,8|0,0:0|0:0,0:0:0:0:
268,60,145534,2,0,L|260:152,1,90
464,192,145995,5,2,0:0:0:0:
176,192,146457,1,2,0:0:0:0:
392,192,146802,2,0,L|400:236,1,45,0|8,0:0|0:0,0:0:0:0:
212,192,147149,1,0,0:0:0:0:
416,280,147379,2,0,L|508:280,1,90,8|0,0:0|0:0,0:0:0:0:
188,280,147841,5,4,0:0:0:0:
135,253,147956,1,0,0:0:0:0:
109,200,148071,1,0,0:0:0:0:
122,143,148187,1,0,0:0:0:0:
196,144,148302,1,8,0:0:0:0:
160,81,148417,1,0,0:0:0:0:
88,79,148532,1,0,0:0:0:0:
48,138,148648,1,0,0:0:0:0:
228,144,148764,5,2,0:0:0:0:
299,160,148879,1,0,0:0:0:0:
341,220,148994,1,0,0:0:0:0:
333,293,149110,1,0,0:0:0:0:
260,296,149225,1,8,0:0:0:0:
293,232,149340,1,0,0:0:0:0:
364,228,149455,1,0,0:0:0:0:
404,288,149571,1,0,0:0:0:0:
260,296,149687,5,8,0:0:0:0:
234,243,149802,1,0,0:0:0:0:
257,189,149917,1,0,0:0:0:0:
312,171,150033,1,0,0:0:0:0:
440,136,150149,2,0,L|448:72,1,45,2|0,0:0|0:0,0:0:0:0:
320,88,150379,2,0,L|288:52,1,45,2|0,0:0|0:0,0:0:0:0:
108,52,150610,5,2,0:0:0:0:
46,88,150725,1,0,0:0:0:0:
48,159,150840,1,0,0:0:0:0:
112,192,150956,1,0,0:0:0:0:
248,192,151072,1,2,0:0:0:0:
321,199,151187,1,0,0:0:0:0:
378,246,151302,1,0,0:0:0:0:
400,317,151418,1,0,0:0:0:0:
220,320,151533,5,8,0:0:0:0:
146,279,151648,1,0,0:0:0:0:
164,197,151763,1,0,0:0:0:0:
248,192,151879,1,0,0:0:0:0:
164,197,151995,1,8,0:0:0:0:
92,181,152110,1,0,0:0:0:0:
47,123,152225,1,0,0:0:0:0:
51,50,152341,1,0,0:0:0:0:
232,52,152456,5,2,0:0:0:0:
314,70,152571,1,0,0:0:0:0:
324,154,152686,1,0,0:0:0:0:
248,192,152802,1,0,0:0:0:0:
164,197,152918,1,8,0:0:0:0:
95,220,153033,1,0,0:0:0:0:
64,287,153148,1,0,0:0:0:0:
90,354,153264,1,0,0:0:0:0:
228,356,153379,5,8,0:0:0:0:
199,288,153494,1,0,0:0:0:0:
131,260,153609,1,0,0:0:0:0:
63,287,153725,1,0,0:0:0:0:
184,192,153841,2,0,L|160:132,1,45,2|0,0:0|0:0,0:0:0:0:
40,152,154072,2,0,L|64:92,1,45,2|0,0:0|0:0,0:0:0:0:
232,84,154302,6,0,L|292:64,1,45,2|0,0:0|0:0,0:0:0:0:
148,48,154533,2,0,L|107:6,1,45
232,84,154764,1,2,0:0:0:0:
283,107,154879,1,0,0:0:0:0:
292,164,154994,1,0,0:0:0:0:
244,199,155110,1,0,0:0:0:0:
68,196,155225,5,8,0:0:0:0:
16,236,155340,1,0,0:0:0:0:
36,300,155455,1,0,0:0:0:0:
102,308,155572,1,0,0:0:0:0:
21,228,155687,1,8,0:0:0:0:
20,156,155802,1,0,0:0:0:0:
83,121,155917,1,0,0:0:0:0:
144,159,156033,1,0,0:0:0:0:
324,156,156149,5,2,0:0:0:0:
396,170,156264,1,0,0:0:0:0:
455,215,156379,1,0,0:0:0:0:
488,282,156495,1,0,0:0:0:0:
415,284,156610,1,8,0:0:0:0:
332,281,156725,1,0,0:0:0:0:
318,199,156840,1,0,0:0:0:0:
396,170,156956,1,0,0:0:0:0:
476,140,157072,5,8,0:0:0:0:
476,84,157187,1,0,0:0:0:0:
432,44,157302,1,0,0:0:0:0:
376,36,157418,1,0,0:0:0:0:
244,36,157533,2,0,L|196:36,1,45,2|0,0:0|0:0,0:0:0:0:
336,108,157764,2,0,L|376:144,1,45,2|0,0:0|0:0,0:0:0:0:
188,136,157995,5,2,0:0:0:0:
116,153,158110,1,0,0:0:0:0:
65,207,158225,1,0,0:0:0:0:
51,280,158341,1,0,0:0:0:0:
176,232,158456,1,2,0:0:0:0:
246,218,158571,1,0,0:0:0:0:
298,269,158686,1,0,0:0:0:0:
287,340,158802,1,0,0:0:0:0:
100,340,158918,5,8,0:0:0:0:
34,283,159033,1,0,0:0:0:0:
42,196,159148,1,0,0:0:0:0:
116,152,159264,1,0,0:0:0:0:
208,152,159379,1,8,0:0:0:0:
296,148,159494,1,0,0:0:0:0:
369,97,159609,1,0,0:0:0:0:
404,15,159725,1,0,0:0:0:0:
224,16,159841,5,2,0:0:0:0:
245,102,159956,1,0,0:0:0:0:
310,162,160071,1,0,0:0:0:0:
397,178,160187,1,0,0:0:0:0:
310,162,160302,1,8,0:0:0:0:
221,150,160417,1,0,0:0:0:0:
139,184,160532,1,0,0:0:0:0:
84,254,160648,1,0,0:0:0:0:
220,256,160764,5,8,0:0:0:0:
289,255,160879,1,0,0:0:0:0:
309,322,160994,1,0,0:0:0:0:
251,360,161110,1,0,0:0:0:0:
104,328,161225,2,0,L|88:264,1,45,2|0,0:0|0:0,0:0:0:0:
232,256,161456,2,0,L|244:204,1,45,2|0,0:0|0:0,0:0:0:0:
60,192,161687,5,2,0:0:0:0:
18,117,161802,1,0,0:0:0:0:
67,47,161917,1,0,0:0:0:0:
151,61,162033,1,0,0:0:0:0:
288,60,162149,2,2,L|332:60,1,45,2|0,0:0|0:0,0:0:0:0:
208,120,162379,2,0,L|196:172,1,45
380,192,162610,6,0,P|452:220|488:312,1,180,4|0,0:0|0:0,0:0:0:0:
220,308,163533,2,0,L|76:272,1,135,8|0,0:0|0:0,0:0:0:0:
56,224,163995,1,0,0:0:0:0:
61,165,164110,1,0,0:0:0:0:
99,119,164225,1,0,0:0:0:0:
156,103,164341,1,0,0:0:0:0:
328,240,164456,6,0,P|388:192|324:136,1,180,2|0,0:0|0:0,0:0:0:0:
80,88,165379,1,8,0:0:0:0:
216,88,165725,1,0,0:0:0:0:
104,160,165841,2,0,L|80:216,1,45
184,208,166072,2,0,L|240:208,1,45
416,88,166302,6,0,P|500:132|504:212,1,180,2|0,0:0|0:0,0:0:0:0:
232,80,167225,2,0,L|376:116,1,135,8|0,0:0|0:0,0:0:0:0:
396,164,167687,1,0,0:0:0:0:
391,223,167802,1,0,0:0:0:0:
353,269,167917,1,0,0:0:0:0:
296,285,168033,1,0,0:0:0:0:
72,192,168149,5,2,0:0:0:0:
184,192,168379,2,0,L|192:248,1,45
72,264,168610,2,0,L|64:320,1,45,8|8,0:0|0:0,0:0:0:0:
168,312,168841,2,0,L|216:312,1,45,8|8,0:0|0:0,0:0:0:0:
396,192,169072,1,2,0:0:0:0:
144,192,169995,6,0,P|72:164|36:72,1,180,2|0,0:0|0:0,0:0:0:0:
304,76,170918,2,0,L|448:112,1,135,8|0,0:0|0:0,0:0:0:0:
468,160,171380,1,0,0:0:0:0:
463,219,171495,1,0,0:0:0:0:
425,265,171610,1,0,0:0:0:0:
368,281,171726,1,0,0:0:0:0:
184,192,171841,6,0,P|124:240|188:296,1,180,2|0,0:0|0:0,0:0:0:0:
444,296,172764,1,8,0:0:0:0:
308,296,173110,1,0,0:0:0:0:
420,224,173226,2,0,L|444:168,1,45
340,176,173457,2,0,L|284:176,1,45
120,296,173687,6,0,P|36:252|16:168,1,180,2|0,0:0|0:0,0:0:0:0:
252,240,174610,2,0,L|108:204,1,135,8|0,0:0|0:0,0:0:0:0:
160,216,175072,1,0,0:0:0:0:
219,211,175187,1,0,0:0:0:0:
265,173,175302,1,0,0:0:0:0:
281,116,175418,1,0,0:0:0:0:
76,192,175533,5,2,0:0:0:0:
400,192,176456,1,8,0:0:0:0:
128,184,177379,6,0,L|384:184,1,236.250009012223,4|0,0:0|0:0,0:0:0:0:
448,184,178302,1,8,0:0:0:0:
96,120,179225,2,0,P|40:208|56:240,1,135.000005149842,2|0,0:0|0:0,0:0:0:0:
240,292,180033,1,0,0:0:0:0:
312,292,180149,2,0,L|460:292,1,135.000005149842,8|0,0:0|0:0,0:0:0:0:
232,188,181072,6,0,B|88:188|88:188|180:188,1,236.250009012223,2|0,0:0|0:0,0:0:0:0:
248,92,181995,1,8,0:0:0:0:
484,88,182918,2,0,P|452:184|428:196,1,135.000005149842,2|0,0:0|0:0,0:0:0:0:
300,192,183610,1,0,0:0:0:0:
172,192,183841,2,0,L|36:192,1,135.000005149842,8|0,0:0|0:0,0:0:0:0:
232,248,184764,6,0,L|-8:248,1,236.250009012223,2|0,0:0|0:0,0:0:0:0:
56,176,185687,1,8,0:0:0:0:
360,176,186610,2,0,L|504:176,1,135.000005149842,2|0,0:0|0:0,0:0:0:0:
392,272,187418,1,0,0:0:0:0:
300,268,187533,2,0,L|156:264,1,135.000005149842,8|0,0:0|0:0,0:0:0:0:
56,192,188456,6,0,L|280:112,1,236.250009012223,2|0,0:0|0:0,0:0:0:0:
360,112,189379,1,8,0:0:0:0:
124,112,190302,2,0,P|124:192|168:228,1,135.000005149842,2|0,0:0|0:0,0:0:0:0:
280,228,190995,1,0,0:0:0:0:
256,192,191225,12,0,193072,0:0:0:0:
488,192,193533,6,0,L|296:192,1,180,8|8,0:0|0:0,0:0:0:0:
224,192,193879,1,8,0:0:0:0:
40,192,193995,5,4,0:0:0:0:
344,88,194456,2,0,L|224:88,1,90,8|0,0:0|0:0,0:0:0:0:
64,272,194802,2,0,L|208:272,1,135,2|2,0:0|0:0,0:0:0:0:
408,272,195379,2,0,L|312:272,1,90,8|0,0:0|0:0,0:0:0:0:
152,128,195841,6,0,L|40:128,1,90,2|0,0:0|0:0,0:0:0:0:
200,208,196302,2,0,L|320:208,1,90,8|0,0:0|0:0,0:0:0:0:
464,96,196649,2,0,L|304:96,1,135,2|2,0:0|0:0,0:0:0:0:
112,104,197225,2,0,L|48:104|112:104,1,90,8|2,0:0|0:0,0:0:0:0:
456,104,197687,5,2,0:0:0:0:
280,272,198149,2,0,L|160:272,1,90,8|0,0:0|0:0,0:0:0:0:
8,160,198495,2,0,L|160:160,1,135,2|2,0:0|0:0,0:0:0:0:
376,160,199072,2,0,L|466:160,1,90,8|0,0:0|0:0,0:0:0:0:
156,160,199533,6,0,L|60:160,1,90,2|0,0:0|0:0,0:0:0:0:
152,288,199995,2,0,L|256:288,1,90,8|0,0:0|0:0,0:0:0:0:
320,288,200341,2,0,L|456:288,1,135,2|2,0:0|0:0,0:0:0:0:
228,208,200918,2,0,L|356:208,1,90,8|2,0:0|0:0,0:0:0:0:
0,120,201379,6,0,L|96:120,1,90,2|0,0:0|0:0,0:0:0:0:
440,120,201841,2,0,L|328:120,1,90,8|0,0:0|0:0,0:0:0:0:
80,120,202187,2,0,L|184:224,1,135,2|2,0:0|0:0,0:0:0:0:
56,216,202764,1,8,0:0:0:0:
360,128,203225,6,0,L|256:128,1,90,2|0,0:0|0:0,0:0:0:0:
160,128,203687,2,0,L|64:128,1,90,8|0,0:0|0:0,0:0:0:0:
264,128,204033,2,0,L|352:248,1,135,2|2,0:0|0:0,0:0:0:0:
440,240,204610,2,0,L|350:240,1,90,8|2,0:0|0:0,0:0:0:0:
112,240,205072,5,2,0:0:0:0:
256,240,205533,2,0,L|360:240,1,90,8|0,0:0|0:0,0:0:0:0:
456,240,205879,2,0,L|360:104,1,135,2|2,0:0|0:0,0:0:0:0:
480,128,206456,1,8,0:0:0:0:
136,64,206918,6,0,L|40:64,1,90,2|0,0:0|0:0,0:0:0:0:
136,64,207379,2,0,L|248:64,1,90,8|0,0:0|0:0,0:0:0:0:
448,64,207725,2,0,L|512:208,1,135,2|2,0:0|0:0,0:0:0:0:
496,232,208302,1,10,0:0:0:0:
480,256,208359,1,2,0:0:0:0:
464,272,208417,1,2,0:0:0:0:
440,288,208475,1,2,0:0:0:0:
416,296,208532,1,2,0:0:0:0:
376,296,208590,1,2,0:0:0:0:
336,288,208648,1,2,0:0:0:0:
96,192,208764,6,0,B|24:192|24:192|72:192,1,90,4|0,0:0|0:0,0:0:0:0:
292,192,209226,1,0,0:0:0:0:
164,288,209456,2,0,L|120:288,2,45,0|0|8,0:0|0:0|0:0,0:0:0:0:
344,288,209918,1,0,0:0:0:0:
48,288,210149,1,0,0:0:0:0:
156,288,210380,1,0,0:0:0:0:
452,288,210610,6,0,L|396:212,1,90,2|0,0:0|0:0,0:0:0:0:
216,212,211072,1,8,0:0:0:0:
64,212,211302,2,0,P|16:152|84:88,1,180,2|0,0:0|0:0,0:0:0:0:
220,88,211995,2,0,L|312:88,1,90,8|0,0:0|0:0,0:0:0:0:
12,192,212456,6,0,L|108:192,1,90,2|0,0:0|0:0,0:0:0:0:
300,196,212918,1,0,0:0:0:0:
136,284,213149,1,0,0:0:0:0:
196,284,213264,1,0,0:0:0:0:
256,284,213380,1,8,0:0:0:0:
60,284,213610,1,0,0:0:0:0:
356,284,213841,1,0,0:0:0:0:
484,284,214072,1,0,0:0:0:0:
188,284,214302,6,0,B|96:284,1,90,2|0,0:0|0:0,0:0:0:0:
280,284,214764,1,8,0:0:0:0:
432,216,214995,2,0,P|464:176|396:156,1,135,2|0,0:0|0:0,0:0:0:0:
224,192,215456,2,0,B|128:190|128:190|32:136|104:48,1,270.000010299683,8|0,0:0|0:0,0:0:0:0:
408,84,216149,6,0,L|504:84,1,90,2|0,0:0|0:0,0:0:0:0:
300,88,216610,1,0,0:0:0:0:
148,160,216841,2,0,L|192:160,1,45
308,192,217072,2,0,L|400:192,1,90,8|0,0:0|0:0,0:0:0:0:
100,96,217533,1,0,0:0:0:0:
208,96,217765,1,0,0:0:0:0:
504,96,217995,6,0,L|436:160,1,90,2|0,0:0|0:0,0:0:0:0:
256,168,218457,1,8,0:0:0:0:
400,168,218687,2,0,P|392:232|296:284,1,180,2|0,0:0|0:0,0:0:0:0:
152,288,219380,2,0,L|60:288,1,90,8|0,0:0|0:0,0:0:0:0:
360,192,219841,6,0,L|440:236,1,90,2|0,0:0|0:0,0:0:0:0:
240,192,220303,1,0,0:0:0:0:
80,292,220534,1,0,0:0:0:0:
140,292,220649,1,0,0:0:0:0:
200,292,220765,1,8,0:0:0:0:
4,292,220995,1,0,0:0:0:0:
300,292,221226,1,0,0:0:0:0:
164,292,221457,1,0,0:0:0:0:
460,292,221687,6,0,B|504:292|504:292|452:292,1,90,2|0,0:0|0:0,0:0:0:0:
276,292,222149,1,8,0:0:0:0:
428,220,222379,2,0,P|456:176|392:136,1,135,2|0,0:0|0:0,0:0:0:0:
200,192,222841,2,0,B|64:192|64:192|16:192|16:72,1,270.000010299683,8|0,0:0|0:0,0:0:0:0:
304,192,223533,5,4,0:0:0:0:
32,192,223995,1,0,0:0:0:0:
240,128,224341,1,2,0:0:0:0:
344,80,224687,1,0,0:0:0:0:
464,80,224918,1,2,0:0:0:0:
112,80,225379,5,8,0:0:0:0:
256,80,225841,1,0,0:0:0:0:
56,80,226187,1,2,0:0:0:0:
256,80,226533,1,0,0:0:0:0:
56,80,226764,1,2,0:0:0:0:
176,80,226995,1,0,0:0:0:0:
480,88,227225,5,8,0:0:0:0:
256,160,227687,1,0,0:0:0:0:
440,248,228033,1,2,0:0:0:0:
256,304,228379,1,0,0:0:0:0:
120,304,228610,1,2,0:0:0:0:
392,88,229072,5,8,0:0:0:0:
120,88,229533,1,0,0:0:0:0:
328,216,229879,1,2,0:0:0:0:
112,176,230225,1,0,0:0:0:0:
288,176,230456,1,2,0:0:0:0:
464,176,230687,1,2,0:0:0:0:
88,176,230918,5,4,0:0:0:0:
288,64,231379,2,0,L|424:64,1,135,0|2,0:0|0:0,0:0:0:0:
104,160,232072,2,0,L|194:160,2,90,0|2|0,0:0|0:0|0:0,0:0:0:0:
224,160,232764,5,8,0:0:0:0:
456,160,233225,1,0,0:0:0:0:
296,160,233572,2,0,L|184:272,1,135,2|0,0:0|0:0,0:0:0:0:
400,256,234149,2,0,L|296:256,1,90,2|0,0:0|0:0,0:0:0:0:
144,248,234610,6,0,L|110:248,3,33.7500012874604,2|2|2|2,0:0|0:0|0:0|0:0,0:0:0:0:
288,248,235072,2,0,L|321:248,3,33.7500012874604,2|2|2|2,0:0|0:0|0:0|0:0,0:0:0:0:
104,144,235533,2,0,L|70:144,3,33.7500012874604,2|2|2|2,0:0|0:0|0:0|0:0,0:0:0:0:
344,144,235995,2,0,L|377:144,3,33.7500012874604,2|2|2|2,0:0|0:0|0:0|0:0,0:0:0:0:
80,197,236456,5,10,0:0:0:0:
71,164,236513,1,2,0:0:0:0:
76,131,236571,1,2,0:0:0:0:
93,102,236629,1,2,0:0:0:0:
120,83,236686,1,2,0:0:0:0:
153,76,236744,1,2,0:0:0:0:
186,83,236802,1,2,0:0:0:0:
214,102,236859,1,2,0:0:0:0:
256,373,236918,5,10,0:0:0:0:
287,384,236975,1,2,0:0:0:0:
321,382,237033,1,2,0:0:0:0:
351,369,237091,1,2,0:0:0:0:
374,344,237148,1,2,0:0:0:0:
385,312,237206,1,2,0:0:0:0:
384,279,237264,1,2,0:0:0:0:
376,240,237322,1,2,0:0:0:0:
356,212,237379,1,2,0:0:0:0:
256,192,237610,12,0,238072,0:0:0:0:
184,72,238302,6,0,L|72:72,1,90,4|0,0:0|0:0,0:0:0:0:
232,208,238764,2,0,L|352:208,1,90,8|0,0:0|0:0,0:0:0:0:
432,72,239110,2,0,L|384:72,1,45,0|2,0:0|0:0,0:0:0:0:
94,112,239456,2,0,L|184:112,2,90,0|8|0,0:0|0:0|0:0,0:0:0:0:
472,112,240149,6,0,L|382:112,1,90,2|0,0:0|0:0,0:0:0:0:
232,224,240610,2,0,L|136:224,1,90,8|0,0:0|0:0,0:0:0:0:
288,320,241072,2,0,L|384:320,1,90,2|2,0:0|0:0,0:0:0:0:
480,320,241533,2,0,L|384:320,1,90,8|0,0:0|0:0,0:0:0:0:
48,96,241995,6,0,L|152:96,1,90,2|0,0:0|0:0,0:0:0:0:
314,96,242456,2,0,L|224:96,1,90,8|0,0:0|0:0,0:0:0:0:
184,224,242802,2,0,L|120:224,1,45,0|2,0:0|0:0,0:0:0:0:
248,224,243149,1,0,0:0:0:0:
16,224,243379,1,8,0:0:0:0:
248,224,243610,1,0,0:0:0:0:
416,152,243841,6,0,L|512:152,1,90,2|0,0:0|0:0,0:0:0:0:
352,64,244302,2,0,L|232:64,1,90,8|0,0:0|0:0,0:0:0:0:
216,128,244649,2,0,L|152:128,1,45,0|2,0:0|0:0,0:0:0:0:
8,288,244995,2,0,L|216:288,1,180,10|0,0:0|0:0,0:0:0:0:
496,288,245687,6,0,L|416:208,1,90,2|0,0:0|0:0,0:0:0:0:
224,288,246149,2,0,L|288:224,1,90,8|0,0:0|0:0,0:0:0:0:
152,96,246495,2,0,L|96:96,1,45
458,96,246841,2,0,L|368:96,2,90,0|8|0,0:0|0:0|0:0,0:0:0:0:
168,216,247533,6,0,L|64:216,1,90,2|0,0:0|0:0,0:0:0:0:
440,216,247995,2,0,L|350:216,1,90,8|0,0:0|0:0,0:0:0:0:
183,328,248456,2,0,L|103:248,1,90,2|2,0:0|0:0,0:0:0:0:
294,328,248918,2,0,L|374:248,1,90,8|0,0:0|0:0,0:0:0:0:
512,112,249379,6,0,L|384:112,1,90,2|0,0:0|0:0,0:0:0:0:
256,112,249841,2,0,L|184:184,1,90,8|0,0:0|0:0,0:0:0:0:
72,176,250187,2,0,L|117:176,1,45,0|2,0:0|0:0,0:0:0:0:
416,184,250533,2,0,L|520:184,2,90,0|8|0,0:0|0:0|0:0,0:0:0:0:
224,192,251225,6,0,L|128:192,1,90,2|0,0:0|0:0,0:0:0:0:
280,80,251687,2,0,L|392:80,1,90,8|0,0:0|0:0,0:0:0:0:
448,80,252149,1,2,0:0:0:0:
160,192,252379,2,0,L|288:192,1,90,2|8,0:0|0:0,0:0:0:0:
80,192,252841,1,2,0:0:0:0:
504,184,253072,6,0,L|392:184,1,90,4|0,0:0|0:0,0:0:0:0:
192,192,253533,2,0,L|320:192,1,90,8|0,0:0|0:0,0:0:0:0:
400,56,253879,2,0,L|344:56,1,45,0|2,0:0|0:0,0:0:0:0:
200,56,254225,2,0,L|80:56,2,90,2|8|0,0:0|0:0|0:0,0:0:0:0:
408,64,254918,6,0,L|480:136,1,90,2|0,0:0|0:0,0:0:0:0:
232,64,255379,2,0,L|160:136,1,90,8|0,0:0|0:0,0:0:0:0:
192,168,255725,2,0,L|264:168,1,45,0|2,0:0|0:0,0:0:0:0:
456,272,256072,2,0,L|366:272,2,90,2|8|0,0:0|0:0|0:0,0:0:0:0:
96,272,256764,6,0,P|56:232|56:200,1,90,2|0,0:0|0:0,0:0:0:0:
240,80,257225,2,0,P|320:80|336:96,1,90,8|0,0:0|0:0,0:0:0:0:
440,192,257572,2,0,L|384:200,1,45,0|2,0:0|0:0,0:0:0:0:
32,192,257918,2,0,L|122:192,2,90,2|8|0,0:0|0:0|0:0,0:0:0:0:
336,192,258610,5,2,0:0:0:0:
496,192,258841,1,0,0:0:0:0:
368,192,259072,1,8,0:0:0:0:
56,192,259302,2,0,L|146:192,1,90,2|0,0:0|0:0,0:0:0:0:
312,88,259764,2,0,L|504:88,1,180,8|8,0:0|0:0,0:0:0:0:
144,272,260456,6,0,L|48:272,1,90,2|0,0:0|0:0,0:0:0:0:
240,192,260918,2,0,L|360:192,1,90,8|0,0:0|0:0,0:0:0:0:
448,80,261264,2,0,L|403:80,1,45,0|2,0:0|0:0,0:0:0:0:
208,80,261610,2,0,L|96:80,2,90,2|8|0,0:0|0:0|0:0,0:0:0:0:
512,80,262302,6,0,L|416:80,1,90,2|0,0:0|0:0,0:0:0:0:
256,192,262764,2,0,L|160:192,1,90,8|0,0:0|0:0,0:0:0:0:
56,192,263225,1,2,0:0:0:0:
392,296,263456,2,0,L|520:296,2,90,2|8|0,0:0|0:0|0:0,0:0:0:0:
80,304,264149,6,0,P|40:272|80:224,1,90,2|0,0:0|0:0,0:0:0:0:
264,304,264610,2,0,P|312:272|304:232,1,90,8|0,0:0|0:0,0:0:0:0:
184,128,264956,2,0,L|136:128,1,45,0|2,0:0|0:0,0:0:0:0:
488,128,265302,2,0,L|384:128,2,90,2|8|0,0:0|0:0|0:0,0:0:0:0:
320,128,265995,5,2,0:0:0:0:
139,128,266225,1,0,0:0:0:0:
344,128,266456,2,0,L|254:128,1,90,8|2,0:0|0:0,0:0:0:0:
472,128,266918,1,0,0:0:0:0:
80,184,267149,1,8,0:0:0:0:
240,184,267379,1,0,0:0:0:0:
80,184,267610,1,0,0:0:0:0:
424,120,267841,5,4,0:0:0:0:
172,120,268302,1,8,0:0:0:0:
336,120,268649,1,0,0:0:0:0:
400,120,268764,2,0,L|496:120,2,90,2|0|8,0:0|0:0|0:0,0:0:0:0:
148,120,269687,5,2,0:0:0:0:
366,120,270148,1,8,0:0:0:0:
202,120,270495,1,0,0:0:0:0:
136,120,270610,2,0,L|40:120,1,90,2|0,0:0|0:0,0:0:0:0:
246,120,271072,2,0,L|342:120,1,90,8|0,0:0|0:0,0:0:0:0:
40,192,271533,5,2,0:0:0:0:
258,192,271994,1,8,0:0:0:0:
94,192,272341,2,0,L|140:192,1,45,0|2,0:0|0:0,0:0:0:0:
320,192,272687,2,0,L|416:192,1,90,0|8,0:0|0:0,0:0:0:0:
156,112,273379,5,2,0:0:0:0:
370,112,273840,1,8,0:0:0:0:
206,112,274187,1,0,0:0:0:0:
144,112,274302,2,0,L|48:112,1,90,2|0,0:0|0:0,0:0:0:0:
236,112,274764,1,8,0:0:0:0:
416,112,274995,1,8,0:0:0:0:
86,120,275226,6,0,P|28:168|92:224,1,180,2|8,0:0|0:0,0:0:0:0:
252,120,276034,1,0,0:0:0:0:
188,120,276149,2,0,L|92:120,2,90,2|0|8,0:0|0:0|0:0,0:0:0:0:
404,120,277072,5,2,0:0:0:0:
152,120,277533,1,8,0:0:0:0:
316,120,277879,2,0,L|372:120,1,45,0|2,0:0|0:0,0:0:0:0:
160,120,278226,2,0,L|64:120,2,90,0|8|0,0:0|0:0|0:0,0:0:0:0:
460,120,278918,5,2,0:0:0:0:
208,120,279379,1,8,0:0:0:0:
372,120,279726,2,0,L|420:120,1,45,0|2,0:0|0:0,0:0:0:0:
236,120,280072,2,0,L|144:120,1,90,0|8,0:0|0:0,0:0:0:0:
256,192,280764,12,0,282379,0:0:0:0:
368,192,282610,6,0,L|464:192,1,90,4|0,0:0|0:0,0:0:0:0:
260,192,283072,1,8,0:0:0:0:
408,96,283302,2,0,L|452:96,2,45,0|0|2,0:0|0:0|0:0,0:0:0:0:
208,96,283764,1,0,0:0:0:0:
504,96,283995,1,8,0:0:0:0:
376,96,284226,1,0,0:0:0:0:
80,96,284456,6,0,L|172:96,1,90,2|0,0:0|0:0,0:0:0:0:
8,192,284918,1,8,0:0:0:0:
152,192,285149,2,0,P|220:256|176:316,1,180,2|2,0:0|0:0,0:0:0:0:
16,316,285841,2,0,L|108:316,1,90,8|0,0:0|0:0,0:0:0:0:
404,192,286302,6,0,L|308:192,1,90,2|0,0:0|0:0,0:0:0:0:
116,188,286764,1,8,0:0:0:0:
296,88,286995,1,0,0:0:0:0:
236,88,287110,1,0,0:0:0:0:
176,88,287226,1,2,0:0:0:0:
372,88,287456,1,0,0:0:0:0:
76,88,287687,1,8,0:0:0:0:
184,88,287918,1,0,0:0:0:0:
480,88,288148,6,0,L|416:152,1,90,2|0,0:0|0:0,0:0:0:0:
236,148,288610,1,8,0:0:0:0:
400,216,288841,2,0,P|448:256|400:276,1,135,2|0,0:0|0:0,0:0:0:0:
224,240,289302,2,0,B|120:240|120:240|36:304|108:384,1,270.000010299683,8|0,0:0|0:0,0:0:0:0:
408,244,289995,6,0,L|504:244,1,90,2|0,0:0|0:0,0:0:0:0:
208,240,290456,1,8,0:0:0:0:
356,168,290687,2,0,L|400:168,1,45
288,136,290918,1,2,0:0:0:0:
452,140,291149,1,0,0:0:0:0:
156,192,291380,1,8,0:0:0:0:
320,192,291611,1,0,0:0:0:0:
24,280,291841,6,0,L|112:260,1,90,2|0,0:0|0:0,0:0:0:0:
292,216,292303,1,8,0:0:0:0:
128,216,292533,2,0,P|148:152|248:104,1,180,2|2,0:0|0:0,0:0:0:0:
408,104,293226,2,0,L|316:104,1,90,8|0,0:0|0:0,0:0:0:0:
20,192,293687,6,0,L|92:248,1,90,2|0,0:0|0:0,0:0:0:0:
272,192,294149,1,8,0:0:0:0:
108,92,294380,1,0,0:0:0:0:
168,92,294495,1,0,0:0:0:0:
228,92,294611,1,2,0:0:0:0:
32,92,294841,1,0,0:0:0:0:
328,92,295072,1,8,0:0:0:0:
168,92,295303,1,0,0:0:0:0:
464,92,295533,6,0,P|501:120|504:172,1,90,2|0,0:0|0:0,0:0:0:0:
308,92,295995,1,8,0:0:0:0:
460,160,296225,2,0,P|508:200|460:220,1,135,2|0,0:0|0:0,0:0:0:0:
284,184,296687,2,0,P|196:272|332:312,1,315.000003004074,8|0,0:0|0:0,0:0:0:0:
32,192,297379,6,0,L|122:192,1,90,4|0,0:0|0:0,0:0:0:0:
304,192,297841,1,8,0:0:0:0:
140,96,298071,2,0,L|96:96,2,45,0|0|2,0:0|0:0|0:0,0:0:0:0:
340,96,298533,1,0,0:0:0:0:
40,96,298764,2,0,L|136:96,1,90,8|0,0:0|0:0,0:0:0:0:
428,96,299226,5,2,0:0:0:0:
280,96,299456,1,0,0:0:0:0:
460,96,299688,1,8,0:0:0:0:
328,96,299919,2,0,B|212:96|212:96|212:208,1,225,2|2,0:0|0:0,0:0:0:0:
392,200,300611,2,0,L|484:200,1,90,8|0,0:0|0:0,0:0:0:0:
184,300,301072,6,0,L|100:256,1,90,2|0,0:0|0:0,0:0:0:0:
404,300,301533,1,8,0:0:0:0:
220,192,301764,2,0,L|172:192,1,45
292,116,301995,2,0,L|200:100,1,90,2|0,0:0|0:0,0:0:0:0:
500,260,302456,2,0,B|440:192,1,90,8|0,0:0|0:0,0:0:0:0:
132,192,302918,5,2,0:0:0:0:
296,192,303148,1,0,0:0:0:0:
96,192,303380,1,8,0:0:0:0:
256,192,303610,2,0,L|364:112,1,135,2|0,0:0|0:0,0:0:0:0:
188,192,304072,2,0,B|76:192|76:192|0:112|76:56,1,270.000010299683,8|0,0:0|0:0,0:0:0:0:
368,192,304764,6,0,L|464:192,1,90,2|0,0:0|0:0,0:0:0:0:
160,192,305226,1,8,0:0:0:0:
320,288,305456,1,0,0:0:0:0:
260,288,305572,1,0,0:0:0:0:
200,288,305687,1,2,0:0:0:0:
396,288,305918,1,0,0:0:0:0:
108,288,306149,2,0,L|16:288,1,90,8|0,0:0|0:0,0:0:0:0:
316,216,306610,6,0,L|408:216,1,90,2|0,0:0|0:0,0:0:0:0:
224,144,307072,1,8,0:0:0:0:
72,144,307303,2,0,P|12:84|72:32,1,180,2|2,0:0|0:0,0:0:0:0:
232,32,307995,2,0,L|140:32,1,90,8|0,0:0|0:0,0:0:0:0:
440,76,308456,6,0,B|484:76|484:76|436:76,1,90,2|0,0:0|0:0,0:0:0:0:
140,136,308917,1,8,0:0:0:0:
284,244,309148,2,0,L|240:244,1,45
128,276,309379,2,0,L|36:276,1,90,2|2,0:0|0:0,0:0:0:0:
336,168,309841,1,8,0:0:0:0:
156,168,310072,1,0,0:0:0:0:
452,296,310302,6,0,B|376:244,1,90,2|0,0:0|0:0,0:0:0:0:
196,244,310764,1,8,0:0:0:0:
348,176,310995,2,0,P|408:152|424:80,1,135,2|0,0:0|0:0,0:0:0:0:
244,44,311456,2,0,P|117:82|38:192,1,270.000010299683,8|0,0:0|0:0,0:0:0:0:
384,192,312149,6,0,L|472:224,1,90,4|0,0:0|0:0,0:0:0:0:
272,220,312610,1,8,0:0:0:0:
396,300,312841,2,0,L|441:300,2,45,0|0|2,0:0|0:0|0:0,0:0:0:0:
252,300,313302,1,2,0:0:0:0:
452,192,313533,2,0,B|489:158|489:158|452:136,1,90,8|0,0:0|0:0,0:0:0:0:
256,136,313995,6,0,P|188:152|160:216,1,135
264,208,314456,2,0,L|356:208,1,90,8|0,0:0|0:0,0:0:0:0:
232,292,314802,2,0,P|172:284|124:228,1,135,2|2,0:0|0:0,0:0:0:0:
304,192,315379,2,0,L|396:192,1,90,8|0,0:0|0:0,0:0:0:0:
96,92,315841,6,0,L|8:124,1,90,2|0,0:0|0:0,0:0:0:0:
208,120,316302,1,8,0:0:0:0:
336,120,316533,2,0,L|381:120,2,45,0|0|2,0:0|0:0|0:0,0:0:0:0:
192,120,316994,1,2,0:0:0:0:
392,228,317225,2,0,L|488:228,1,90,8|0,0:0|0:0,0:0:0:0:
284,64,317687,6,0,P|220:80|192:144,1,135
292,140,318149,1,8,0:0:0:0:
428,144,318379,2,0,P|456:204|376:260,1,180,2|2,0:0|0:0,0:0:0:0:
232,260,319072,1,8,0:0:0:0:
392,260,319302,1,8,0:0:0:0:
96,256,319533,6,0,L|8:224,1,90,4|0,0:0|0:0,0:0:0:0:
208,228,319994,1,0,0:0:0:0:
84,148,320225,2,0,L|39:148,2,45,0|0|8,0:0|0:0|0:0,0:0:0:0:
228,148,320686,1,0,0:0:0:0:
28,256,320918,2,0,L|108:304,1,90
304,304,321379,6,0,P|368:288|396:224,1,135,2|0,0:0|0:0,0:0:0:0:
304,208,321841,2,0,P|328:156|356:144,1,90
468,140,322186,2,0,P|444:80|376:56,1,135,8|0,0:0|0:0,0:0:0:0:
200,56,322764,2,0,L|108:56,1,90,8|0,0:0|0:0,0:0:0:0:
408,192,323225,5,2,0:0:0:0:
172,192,323687,1,0,0:0:0:0:
380,192,324033,2,0,L|476:192,1,90,2|0,0:0|0:0,0:0:0:0:
408,192,324379,2,0,L|232:128,1,180
440,192,325071,5,2,0:0:0:0:
152,192,325533,1,2,0:0:0:0:
352,192,325764,2,0,P|444:168|504:12,2,270.000010299683,8|8|0,0:0|0:0|0:0,0:0:0:0:
36,192,326918,5,4,0:0:0:0:
256,192,327149,12,0,328764,0:0:0:0:
