osu file format v9

[General]
AudioFilename: lamejorseriedelahistoria.mp3
AudioLeadIn: 2000
PreviewTime: 0
Countdown: 0
SampleSet: Soft
StackLeniency: 0.7
Mode: 0
LetterboxInBreaks: 0

[Editor]
DistanceSpacing: 0.8
BeatDivisor: 4
GridSize: 4

[Metadata]
Title:Es el Robot Gigante (TV Size)
Artist:Ezequiel Serrano
Creator:iMercurial
Version:Normal
Source:Megas XLR
Tags:Cartoon Network Darksonic Opening Chicks Dig Giant Robots mancusojuanmattos

[Difficulty]
HPDrainRate:3
CircleSize:3
OverallDifficulty:3
ApproachRate:4
SliderMultiplier:1.2
SliderTickRate:2

[Events]
//Background and Video events
Video,-576,"elvideodelamejorseriedelahistoria.avi"
0,0,"lamejorimagendelahistoria.jpg"
//Break Periods
//Storyboard Layer 0 (Background)
//Storyboard Layer 1 (Fail)
//Storyboard Layer 2 (Pass)
//Storyboard Layer 3 (Foreground)
//Storyboard Sound Samples
//Background Colour Transformations
3,100,163,162,255

[TimingPoints]
170.253744610872,403.768506056528,4,1,0,50,1,0
1790,397.350993377483,4,1,0,50,1,0
5763,401.33779264214,4,1,0,50,1,0
7368,400,4,1,0,50,1,0
8968,393.44262295082,4,1,0,50,1,0
10541,402.684563758389,4,1,0,50,1,0
13762,397.350993377483,4,1,0,50,1,0
13861,-100,4,2,0,50,0,0
16940,401.350993377483,4,2,0,50,1,0
18545,400,4,2,0,50,1,0
18945,-100,4,1,0,50,0,0
20145,398.671096345515,4,1,0,50,1,0
20344,-100,4,2,0,50,0,0
23334,401.33779264214,4,2,0,50,1,0
26559,402.684563758389,4,1,0,50,1,1
28149,400,4,1,0,50,1,1
29759,400,4,1,0,50,1,1
31359,402.684563758389,4,1,0,50,1,1
34580,397.350993377483,4,1,0,50,1,1
36169,400,4,1,0,50,1,1
37755,394.736842105263,4,1,0,50,1,1
39358,405.405405405405,4,1,0,50,1,0
41790,387.096774193548,4,1,0,50,1,0

[Colours]
Combo1 : 192,192,192
Combo2 : 255,128,0
Combo3 : 0,128,255
Combo4 : 255,255,0

[HitObjects]
64,76,170,1,4
448,76,1790,1,4
64,108,3379,1,4
448,108,4968,1,4
256,132,5763,1,4
144,288,6565,6,0,B|220:344|292:344|364:284,1,240
204,176,8168,6,0,B|304:112,1,120,8|2
388,64,8968,1,8
476,240,9754,2,0,B|380:312,1,120,8|2
304,368,10541,1,8
112,284,11346,6,0,B|96:256|64:248|64:248|32:256|16:288,2,120,8|2|8
212,120,12957,2,0,B|224:148|257:156|257:156|290:148|304:120,1,120,8|2
392,152,13762,6,0,B|360:208,1,60,4|0
312,284,14358,1,8
220,260,14755,1,0
176,248,14954,1,0
96,196,15351,2,0,B|120:96|216:64,1,180,8|2
356,68,16543,6,0,B|336:124,1,60,0|2
324,172,16940,1,2
392,240,17341,1,10
392,240,17542,2,0,B|444:212|444:212|474:160|474:160|472:100,1,180,0|8
472,52,18344,1,2
376,52,18745,6,0,B|316:52,1,60
256,120,19345,1,0
188,52,19745,1,8
168,96,19945,6,0,B|132:148,1,60,0|4
76,220,20543,1,8
172,220,20942,1,0
268,220,21341,2,0,B|312:260|312:260|360:220,2,120,8|2|8
268,124,22537,6,0,B|312:84|312:84|356:128,2,120,2|8|6
172,104,23735,1,8
240,36,24136,1,0
336,36,24538,1,8
396,112,24939,2,0,B|452:188|452:260|396:336,1,240,4|4
300,352,26143,1,8
196,320,26559,6,0,B|112:232,1,120,6|8
112,136,27364,2,0,B|196:48,1,120,6|8
260,120,28149,2,0,B|314:74|368:124,3,120,2|10|2|8
384,216,29759,6,0,B|300:304,1,120,6|8
201,299,30559,2,0,B|116:212,1,120,6|8
200,168,31359,2,0,B|154:114|200:60,3,120,2|10|2|8
280,112,32969,5,6
372,144,33372,1,8
372,240,33775,1,6
280,272,34177,1,8
188,240,34580,2,0,B|134:266|134:266|76:236,3,120,2|10|2|8
136,164,36169,6,0,B|208:68,1,120,6|8
304,68,36969,2,0,B|376:164,1,120,6|8
308,232,37755,1,2
228,284,38149,1,10
148,232,38544,1,2
68,180,38939,1,10
148,128,39358,6,0,B|200:68|256:136,1,120,0|8
252,224,40168,2,0,B|304:284|360:224,1,120,0|8
356,128,40979,2,0,B|416:76|344:24,2,120,0|8|4
256,292,42564,5,4
256,192,42757,12,0,44886
