osu file format v9

[General]
AudioFilename: lamejorseriedelahistoria.mp3
AudioLeadIn: 0
PreviewTime: 0
Countdown: 0
SampleSet: Soft
StackLeniency: 0.7
Mode: 0
LetterboxInBreaks: 0

[Editor]
DistanceSpacing: 0.8
BeatDivisor: 4
GridSize: 4

[Metadata]
Title:Es el Robot Gigante (TV Size)
Artist:Ezequiel Serrano
Creator:iMercurial
Version:Gigante!
Source:Megas XLR
Tags:Cartoon Network Darksonic Opening Chicks Dig Giant Robots mancusojuanmattos

[Difficulty]
HPDrainRate:7
CircleSize:4
OverallDifficulty:7
ApproachRate:9
SliderMultiplier:2
SliderTickRate:2

[Events]
//Background and Video events
Video,-576,"elvideodelamejorseriedelahistoria.avi"
0,0,"lamejorimagendelahistoria.jpg"
//Break Periods
//Storyboard Layer 0 (Background)
//Storyboard Layer 1 (Fail)
//Storyboard Layer 2 (Pass)
//Storyboard Layer 3 (Foreground)
//Storyboard Sound Samples
//Background Colour Transformations
3,100,163,162,255

[TimingPoints]
170.253744610872,403.768506056528,4,1,0,50,1,0
1790,397.350993377483,4,1,0,50,1,0
5763,401.33779264214,4,1,0,50,1,0
7368,400,4,1,0,50,1,0
8968,393.44262295082,4,1,0,50,1,0
10541,402.684563758389,4,1,0,50,1,0
13762,397.350993377483,4,1,0,50,1,0
13861,-100,4,2,0,50,0,0
16940,401.350993377483,4,2,0,50,1,0
18545,400,4,2,0,50,1,0
18945,-100,4,1,0,50,0,0
20145,398.671096345515,4,1,0,50,1,0
20344,-100,4,2,0,50,0,0
23334,401.33779264214,4,2,0,50,1,0
26559,402.684563758389,4,1,0,50,1,1
28149,400,4,1,0,50,1,1
29759,400,4,1,0,50,1,1
31359,402.684563758389,4,1,0,50,1,1
34580,397.350993377483,4,1,0,50,1,1
36169,400,4,1,0,50,1,1
37755,394.736842105263,4,1,0,50,1,1
39358,405.405405405405,4,1,0,50,1,0
41790,387.096774193548,4,1,0,50,1,0

[Colours]
Combo1 : 192,192,192
Combo2 : 255,128,0
Combo3 : 0,128,255
Combo4 : 255,255,0

[HitObjects]
88,132,6565,1,0
128,140,6666,1,0
164,160,6766,1,0
192,188,6865,1,0
220,216,6967,1,0
256,236,7067,1,0
296,244,7167,1,0
336,244,7268,1,0
376,240,7368,6,0,B|432:228|456:184,1,100
376,160,7668,2,0,B|320:148|296:104,1,100
380,80,7967,1,8
136,144,8168,6,0,B|80:156|56:200,1,100
136,224,8468,2,0,B|192:236|216:280,1,100
132,304,8767,1,8
392,312,8968,6,0,B|316:244,1,100,4|0
120,72,9263,2,0,B|196:140,1,100
256,192,9558,1,8
436,188,9754,5,0
336,64,9951,1,0
176,64,10148,1,0
76,188,10345,1,8
328,244,10541,6,0,B|328:292|328:292|368:328,1,100,4|0
480,272,10843,2,0,B|480:224|480:224|440:188,1,100,0|0
404,260,11145,1,8
184,140,11346,6,0,B|184:92|184:92|144:56,1,100,4|0
32,112,11648,2,0,B|32:160|32:160|72:196,1,100,0|0
108,124,11950,1,8
320,248,12151,6,0,B|288:284|288:284|236:284,1,100,4|0
192,136,12453,2,0,B|224:100|224:100|276:100,1,100
256,192,12755,1,8
436,188,12957,6,0,B|436:236|400:280,1,100,4|0
364,304,13259,1,0
324,312,13359,1,0
284,316,13460,1,0
244,312,13561,1,0
204,304,13661,1,0
164,284,13762,6,0,B|128:240|128:192,1,100,4|2
72,136,14159,1,0
4,92,14358,2,0,B|76:8|184:32,1,200,2|2
240,88,14954,2,0,B|224:180|316:264,2,200,2|4|2
312,116,15947,1,0
76,168,16543,5,2
112,96,16742,1,0
184,132,16940,2,0,B|216:228|136:316,1,200,4|2
84,256,17542,2,0,B|168:204|276:216,1,200,0|2
240,284,18144,1,4
240,284,18344,2,2,B|340:308|424:228,1,200,2|6
420,152,18945,5,8
308,180,19144,1,0
292,64,19344,1,8
256,44,19445,1,0
216,32,19545,1,0
176,28,19645,1,0
136,40,19745,1,8
100,56,19845,1,0
80,92,19945,1,0
84,132,20045,1,0
124,144,20145,6,0,B|224:144|296:232,1,200,4|2
224,268,20743,2,0,B|208:168|312:100,1,200,0|2
388,80,21341,1,0
388,240,21740,1,4
260,328,22138,1,2
116,260,22537,6,0,B|116:180|220:180|220:100,1,200,0|2
220,260,23334,2,0,B|220:180|116:180|116:100,1,200,0|2
256,140,24136,1,0
400,100,24538,2,0,B|399:180|295:180|296:260,2,200,2|4|2
256,140,25742,1,4
96,64,26559,6,0,B|144:88|152:144,1,100
80,148,26861,2,0,B|88:200|144:224,1,100
212,184,27163,1,8
416,320,27364,6,0,B|368:296|360:240,1,100
432,236,27666,2,0,B|424:184|368:160,1,100
300,200,27968,1,8
184,292,28149,5,0
184,292,28249,1,0
184,292,28349,1,8
328,216,28549,1,0
328,216,28649,1,0
328,216,28749,1,8
184,144,28949,5,0
184,144,29049,1,0
184,144,29149,1,8
324,124,29349,1,8
352,96,29449,1,0
348,56,29549,1,8
320,28,29649,1,0
280,28,29759,6,0,B|200:88,1,100,4|0
84,60,30059,2,0,B|88:124|132:144,1,100
32,204,30359,2,0,B|88:236|128:216,1,100,8|0
248,212,30759,5,0
248,212,30859,1,0
360,280,31059,1,0
360,280,31159,1,8
412,160,31359,5,0
388,128,31459,1,0
364,96,31559,1,8
332,232,31761,1,0
312,196,31861,1,0
292,160,31963,1,8
232,288,32164,5,0
212,252,32265,1,0
192,216,32365,1,8
136,344,32568,1,8
116,308,32668,1,0
96,272,32768,1,8
76,236,32868,1,0
56,200,32969,6,0,B|8:112,1,100,4|0
136,168,33271,2,0,B|88:80,1,100
216,140,33573,1,8
456,200,33775,6,0,B|504:112,1,100
376,168,34077,2,0,B|424:80,1,100
296,140,34379,1,8
456,312,34580,5,8
424,288,34678,1,0
388,268,34778,1,0
352,288,34878,1,0
320,312,34976,1,8
284,292,35076,1,0
252,268,35176,1,0
220,292,35276,1,0
188,316,35373,5,8
156,292,35473,1,0
124,268,35573,1,0
96,240,35671,1,0
68,212,35771,1,8
96,180,35871,1,0
120,148,35971,1,8
148,116,36071,1,0
176,88,36169,5,4
460,236,36969,1,4
188,300,37569,1,8
188,300,37755,5,4
372,96,38149,1,0
376,300,38544,1,0
188,96,38939,1,12
256,192,39358,12,0,41790
256,192,42564,5,4
