osu file format v9

[General]
AudioFilename: lamejorseriedelahistoria.mp3
AudioLeadIn: 0
PreviewTime: 0
Countdown: 0
SampleSet: Soft
StackLeniency: 0.7
Mode: 0
LetterboxInBreaks: 0

[Editor]
DistanceSpacing: 0.8
BeatDivisor: 4
GridSize: 4

[Metadata]
Title:Es el Robot Gigante (TV Size)
Artist:Ezequiel Serrano
Creator:iMercurial
Version:Dificil
Source:Megas XLR
Tags:Cartoon Network Darksonic Opening Chicks Dig Giant Robots mancusojuanmattos

[Difficulty]
HPDrainRate:5
CircleSize:4
OverallDifficulty:6
ApproachRate:7
SliderMultiplier:1.75
SliderTickRate:2

[Events]
//Background and Video events
Video,-576,"elvideodelamejorseriedelahistoria.avi"
0,0,"lamejorimagendelahistoria.jpg"
//Break Periods
//Storyboard Layer 0 (Background)
//Storyboard Layer 1 (Fail)
//Storyboard Layer 2 (Pass)
//Storyboard Layer 3 (Foreground)
//Storyboard Sound Samples
//Background Colour Transformations
3,100,163,162,255

[TimingPoints]
170.253744610872,403.768506056528,4,1,0,50,1,0
1790,397.350993377483,4,1,0,50,1,0
5763,401.33779264214,4,1,0,50,1,0
7368,400,4,1,0,50,1,0
8968,393.44262295082,4,1,0,50,1,0
10541,402.684563758389,4,1,0,50,1,0
13762,397.350993377483,4,1,0,50,1,0
13861,-100,4,2,0,50,0,0
16940,401.350993377483,4,2,0,50,1,0
18545,400,4,2,0,50,1,0
18945,-100,4,1,0,50,0,0
20145,398.671096345515,4,1,0,50,1,0
20344,-100,4,2,0,50,0,0
23334,401.33779264214,4,2,0,50,1,0
26559,402.684563758389,4,1,0,50,1,1
28149,400,4,1,0,50,1,1
29759,400,4,1,0,50,1,1
31359,402.684563758389,4,1,0,50,1,1
34580,397.350993377483,4,1,0,50,1,1
36169,400,4,1,0,50,1,1
37755,394.736842105263,4,1,0,50,1,1
39358,405.405405405405,4,1,0,50,1,0
41790,387.096774193548,4,1,0,50,1,0

[Colours]
Combo1 : 192,192,192
Combo2 : 255,128,0
Combo3 : 0,128,255
Combo4 : 255,255,0

[HitObjects]
120,140,6565,2,0,B|164:116,3,43.75
192,108,6967,2,0,B|240:96,3,43.75
268,92,7368,5,4
356,92,7568,2,0,B|424:148|436:244,1,175,8|0
296,228,8168,5,4
208,232,8368,2,0,B|152:300|52:304,1,175,8|0
76,172,8968,5,4
140,112,9164,2,0,B|196:44|292:32,1,175,12|0
360,44,9754,5,0
472,124,9951,1,8
472,44,10148,1,0
364,124,10345,1,0
420,208,10541,5,4
420,208,10742,2,0,B|384:264|312:264|276:208,1,175,8|0
172,180,11346,5,4
100,140,11547,2,0,B|136:84|208:84|244:140,1,175,8|0
172,276,12151,5,4
99,311,12353,2,0,B|136:368|208:368|244:308,1,175,8|0
388,288,12957,6,0,B|400:248,3,43.75
400,212,13359,2,0,B|392:168,3,43.75
380,124,13762,6,0,B|376:72|336:52,1,87.5,4|0
304,116,14159,2,0,B|220:140|176:228,2,175,2|0|0
228,56,15152,1,2
152,116,15351,2,0,B|236:140|288:224,2,175,0|2|0
76,228,16543,5,0
76,228,16742,1,0
76,228,16940,2,0,B|156:188|240:260,1,175,4|0
180,296,17542,2,0,B|168:208|208:116|276:64,1,262.5
344,84,18344,2,0,B|416:136|420:236,1,175,2|0
420,236,18945,5,0
364,192,19145,1,0
308,236,19345,2,0,B|275:264,3,43.75
272,268,19745,2,0,B|228:300,3,43.75
184,276,20145,6,0,B|208:192|136:116,1,175,4|0
100,176,20743,2,0,B|188:188|272:144,1,175
276,76,21341,1,2
416,76,21739,1,0
344,196,22138,1,2
216,248,22537,5,0
100,328,22935,2,0,B|48:244|104:164,1,175,2|0
216,248,23735,1,2
328,328,24136,2,0,B|380:244|328:160,1,175,0|2
256,192,24939,12,0,26143
96,160,26559,6,0,B|152:92|240:64,1,175,4|0
256,192,27163,1,0
416,224,27364,2,0,B|360:292|272:320,1,175,4|0
168,260,27968,5,0
168,260,28149,2,0,B|128:236,2,43.75
200,188,28549,2,0,B|180:148,2,43.75
268,148,28949,2,0,B|296:116,2,43.75
324,200,29349,2,0,B|368:192,2,43.75
336,272,29759,6,0,B|252:304|164:268,1,175,4|0
256,192,30359,1,0
172,112,30559,2,0,B|256:80|344:112,1,175,4|0
404,220,31159,5,0
404,220,31359,2,0,B|432:252,2,43.75
348,276,31761,2,0,B|364:316,2,43.75
272,300,32164,2,0,B|256:340,2,43.75
200,260,32567,2,0,B|156:272,2,43.75
176,180,32969,5,4
304,64,33372,1,0
376,124,33573,1,0
360,216,33775,1,4
176,180,34177,1,0
156,276,34379,5,0
156,276,34580,2,0,B|128:316,2,43.75
84,244,34977,2,0,B|40:256,2,43.75
44,176,35374,2,0,B|4:152,2,43.75
96,112,35772,2,0,B|64:76,2,43.75
172,168,36169,6,0,B|216:92|296:48,1,175,4|0
340,216,36969,2,0,B|296:292|212:332,1,175,4|0
80,292,37569,5,0
80,292,37755,2,0,B|36:312,2,43.75
104,216,38149,1,0
104,216,38249,1,0
104,216,38347,1,0
148,144,38544,2,0,B|116:108,2,43.75
216,100,38939,1,0
216,100,39037,1,0
216,100,39136,1,0
256,192,39358,12,0,41790
256,192,42564,5,4
