osu file format v12

[General]
AudioFilename: Holy Knight.mp3
AudioLeadIn: 1533
PreviewTime: -1
Countdown: 1
SampleSet: Soft
StackLeniency: 0.7
Mode: 0
LetterboxInBreaks: 1
WidescreenStoryboard: 0

[Editor]
DistanceSpacing: 1
BeatDivisor: 6
GridSize: 8

[Metadata]
Title:Holy Knight
TitleUnicode:Holy Knight
Artist:Eyemedia
ArtistUnicode:Eyemedia
Creator:Chie Satonaka
Version:...
Source:cytus
Tags:cytus
BeatmapID:291116
BeatmapSetID:112006

[Difficulty]
HPDrainRate:8
CircleSize:4
OverallDifficulty:8
ApproachRate:9
SliderMultiplier:1.4
SliderTickRate:1

[Events]
//Background and Video events
//Break Periods
//Storyboard Layer 0 (Background)
//Storyboard Layer 1 (Fail)
//Storyboard Layer 2 (Pass)
//Storyboard Layer 3 (Foreground)
//Storyboard Sound Samples
//Background Colour Transformations
3,100,163,162,255

[TimingPoints]
7390,386.996774193548,4,2,0,52,1,0
23966,-55.5555555555556,4,2,0,52,0,0
25191,-100,4,2,0,52,0,0
49969,-55.5555555555556,4,2,0,52,0,1
55377,-100,4,2,0,52,0,0

[HitObjects]
184,104,615,1,0,0:0:0:0:
216,136,680,1,0,0:0:0:0:
248,168,744,1,0,0:0:0:0:
289,200,809,1,0,0:0:0:0:
327,232,938,2,0,L|421:219,1,93.3333333333333,0|4,0:0|0:0,0:0:0:0:
67,233,1970,2,0,P|128:175|155:212,1,140,0|8,0:0|0:0,0:0:0:0:
222,228,2551,1,0,0:0:0:0:
297,227,2744,2,0,P|349:249|403:195,1,140,0|8,0:0|0:0,0:0:0:0:
395,185,3325,1,0,0:0:0:0:
336,122,3519,1,8,0:0:0:0:
262,79,3712,1,0,0:0:0:0:
191,38,3906,1,2,0:0:0:0:
84,34,4099,5,0,0:0:0:0:
79,139,4293,1,8,0:0:0:0:
160,207,4486,1,8,0:0:0:0:
244,254,4680,1,8,0:0:0:0:
336,284,4873,1,0,0:0:0:0:
151,253,5260,5,0,0:0:0:0:
489,52,5648,1,4,0:0:0:0:
106,129,6615,6,0,L|181:89,1,70,0|8,0:0|0:0,0:0:0:0:
251,89,7002,1,0,0:0:0:0:
344,102,7196,2,0,L|405:162,1,70,0|8,0:0|0:0,0:0:0:0:
331,214,7583,5,0,0:0:0:0:
365,280,7776,2,0,P|431:310|492:275,1,140
487,281,8357,1,8,0:0:0:0:
260,293,8550,1,0,0:0:0:0:
109,211,8744,1,0,0:0:0:0:
28,58,8937,6,0,L|96:83,1,70,0|4,0:0|0:0,0:0:0:0:
270,73,9324,1,0,0:0:0:0:
336,169,9518,1,0,0:0:0:0:
424,80,9711,2,0,L|480:152,1,70
445,299,10485,5,0,0:0:0:0:
415,274,10534,1,0,0:0:0:0:
387,250,10631,1,0,0:0:0:0:
355,221,10679,1,0,0:0:0:0:
323,189,10727,1,4,0:0:0:0:
290,164,10824,1,0,0:0:0:0:
263,140,10872,1,4,0:0:0:0:
233,123,10921,1,0,0:0:0:0:
195,136,11018,1,0,0:0:0:0:
182,170,11066,1,4,0:0:0:0:
185,209,11114,1,4,0:0:0:0:
194,246,11211,1,0,0:0:0:0:
218,282,11259,1,0,0:0:0:0:
265,279,11308,1,4,0:0:0:0:
315,261,11405,1,4,0:0:0:0:
343,239,11453,1,4,0:0:0:0:
378,207,11501,1,4,0:0:0:0:
402,170,11598,1,0,0:0:0:0:
421,131,11646,1,0,0:0:0:0:
390,98,11695,1,0,0:0:0:0:
351,65,11792,1,0,0:0:0:0:
302,50,11840,1,4,0:0:0:0:
251,43,11888,1,4,0:0:0:0:
200,45,11985,1,4,0:0:0:0:
256,192,12033,12,0,12420,0:0:0:0:
100,107,12759,5,0,0:0:0:0:
133,133,12807,1,0,0:0:0:0:
162,168,12856,1,0,0:0:0:0:
194,199,12936,1,0,0:0:0:0:
219,236,13001,1,0,0:0:0:0:
261,269,13049,1,0,0:0:0:0:
304,279,13065,1,0,0:0:0:0:
340,272,13146,1,0,0:0:0:0:
378,251,13194,1,0,0:0:0:0:
416,224,13243,1,8,0:0:0:0:
449,189,13340,1,8,0:0:0:0:
271,128,13581,5,0,0:0:0:0:
360,88,13775,1,8,0:0:0:0:
450,48,13968,1,0,0:0:0:0:
486,148,14162,1,0,0:0:0:0:
452,283,14355,2,0,L|382:255,1,70
381,357,14742,2,8,L|309:325,1,70
196,83,15129,6,0,L|273:112,3,70
376,93,15903,1,8,0:0:0:0:
383,231,16097,1,8,0:0:0:0:
209,241,16290,1,8,0:0:0:0:
148,204,16484,1,10,0:0:0:0:
230,86,16677,6,0,L|295:140,1,70
402,55,17064,2,0,L|351:124,1,70
276,275,17451,2,0,L|327:203,3,70
219,114,18225,6,0,L|250:125,6,23.3333333333333
201,175,18741,6,0,L|235:203,8,23.3333333333333
140,142,19386,6,2,L|111:127,5,23.3333333333333
95,169,19773,1,0,0:0:0:0:
101,224,19838,1,0,0:0:0:0:
135,273,19902,1,0,0:0:0:0:
174,302,19967,1,0,0:0:0:0:
221,307,20031,1,0,0:0:0:0:
280,300,20096,1,0,0:0:0:0:
321,275,20160,1,0,0:0:0:0:
357,239,20225,1,0,0:0:0:0:
400,193,20289,1,0,0:0:0:0:
421,157,20354,1,0,0:0:0:0:
437,108,20418,1,0,0:0:0:0:
414,63,20483,1,0,0:0:0:0:
355,60,20547,1,0,0:0:0:0:
299,76,20612,1,0,0:0:0:0:
241,83,20676,1,0,0:0:0:0:
190,78,20741,1,0,0:0:0:0:
132,57,20805,1,0,0:0:0:0:
123,113,20870,1,0,0:0:0:0:
163,161,20934,1,0,0:0:0:0:
211,186,20999,1,0,0:0:0:0:
280,183,21063,6,0,L|303:213,26,23.3333333333333
294,153,22805,6,0,L|317:150,17,23.3333333333333
224,152,23966,6,0,P|208:128|192:120,8,41.9999987182618,0|0|0|0|0|0|0|0|4,0:0|0:0|0:0|0:0|0:0|0:0|0:0|0:0|0:0,0:0:0:0:
95,65,25191,5,0,0:0:0:0:
257,69,25385,1,0,0:0:0:0:
401,73,25578,1,0,0:0:0:0:
409,179,25772,1,0,0:0:0:0:
412,278,25965,1,0,0:0:0:0:
196,158,26352,6,0,L|283:201,1,93.3333333333333
184,250,26868,2,0,L|271:282,1,93.3333333333333
362,86,27320,1,0,0:0:0:0:
401,119,27384,1,0,0:0:0:0:
434,153,27449,1,0,0:0:0:0:
380,209,27707,2,0,L|314:162,1,70
398,275,28287,1,0,0:0:0:0:
296,197,28674,1,0,0:0:0:0:
224,118,29061,1,0,0:0:0:0:
117,104,29255,1,0,0:0:0:0:
62,151,29448,1,0,0:0:0:0:
86,218,29642,1,0,0:0:0:0:
256,192,29835,12,0,31383,0:0:0:0:
90,113,31577,5,0,0:0:0:0:
159,178,31770,1,0,0:0:0:0:
241,180,31964,1,0,0:0:0:0:
353,216,32157,1,0,0:0:0:0:
439,71,32351,2,0,L|361:106,1,70
481,156,32738,2,0,L|415:188,1,70
481,260,33125,2,0,L|401:258,1,70
306,260,33512,1,0,0:0:0:0:
87,142,33705,1,0,0:0:0:0:
406,114,34286,2,0,L|343:150,1,70,2|0,0:0|0:0,0:0:0:0:
283,171,34737,1,0,0:0:0:0:
213,227,34995,2,0,L|317:226,1,93.3333333333333,0|2,0:0|0:0,0:0:0:0:
346,58,35640,2,0,L|271:71,1,70
125,158,36027,2,0,L|198:152,1,70
411,169,36414,1,0,0:0:0:0:
365,260,36608,1,0,0:0:0:0:
298,188,36801,1,0,0:0:0:0:
157,63,36995,2,0,L|240:91,1,70
154,266,37382,2,0,L|210:214,1,70
434,248,37769,2,0,L|360:199,1,70
290,133,38156,1,0,0:0:0:0:
221,134,38349,1,0,0:0:0:0:
300,188,38543,1,8,0:0:0:0:
364,254,38736,1,0,0:0:0:0:
432,182,38930,1,2,0:0:0:0:
406,115,39123,2,0,L|339:66,1,70
273,30,39510,2,0,L|197:52,1,70
192,142,39897,1,0,0:0:0:0:
260,217,40091,1,0,0:0:0:0:
130,249,40284,1,0,0:0:0:0:
86,177,40478,1,0,0:0:0:0:
86,177,40542,1,0,0:0:0:0:
86,177,40607,1,0,0:0:0:0:
232,80,40800,1,0,0:0:0:0:
329,112,40994,1,0,0:0:0:0:
277,242,41187,1,0,0:0:0:0:
341,273,41381,2,0,L|438:291,1,93.3333333333333
208,192,41832,1,0,0:0:0:0:
288,108,42026,1,0,0:0:0:0:
294,207,42219,1,0,0:0:0:0:
103,161,42413,2,0,L|167:103,1,70
157,238,42800,2,0,L|228:263,1,70
387,75,43187,1,0,0:0:0:0:
433,172,43380,2,0,L|360:224,1,70
207,95,43767,1,0,0:0:0:0:
294,133,43961,1,0,0:0:0:0:
331,175,44025,1,0,0:0:0:0:
371,221,44090,1,0,0:0:0:0:
348,280,44219,1,0,0:0:0:0:
266,280,44412,2,0,L|203:235,1,70
78,178,44735,1,0,0:0:0:0:
123,78,44928,1,0,0:0:0:0:
203,179,45122,1,0,0:0:0:0:
345,67,45315,2,0,L|419:107,2,70
405,158,45896,1,0,0:0:0:0:
292,268,46089,1,0,0:0:0:0:
161,267,46283,1,0,0:0:0:0:
79,191,46476,1,0,0:0:0:0:
150,117,46670,2,0,L|239:101,1,70
376,218,47057,2,0,P|247:132|188:90,2,210
146,203,48411,2,0,L|212:257,1,70
307,225,48798,2,0,L|370:171,1,70
413,147,49185,1,0,0:0:0:0:
388,106,49250,1,0,0:0:0:0:
350,67,49314,1,0,0:0:0:0:
301,38,49379,1,0,0:0:0:0:
242,26,49443,1,0,0:0:0:0:
189,32,49508,1,0,0:0:0:0:
141,51,49572,1,0,0:0:0:0:
112,82,49637,1,0,0:0:0:0:
101,120,49701,1,0,0:0:0:0:
89,166,49766,1,0,0:0:0:0:
91,214,49830,1,0,0:0:0:0:
134,251,49895,2,0,L|176:243,6,23.3333333333333
67,258,50346,2,0,L|31:222,8,41.9999987182618
216,129,51120,2,0,L|346:162,1,125.999996154785
444,110,51507,2,0,L|441:272,1,125.999996154785
361,248,51894,2,0,L|216:244,1,125.999996154785
94,66,52281,1,0,0:0:0:0:
189,66,52475,1,0,0:0:0:0:
315,68,52668,1,0,0:0:0:0:
414,67,52862,1,0,0:0:0:0:
57,231,53055,2,0,L|170:150,1,125.999996154785
461,250,53442,2,0,L|355:166,1,125.999996154785
74,72,53894,1,0,0:0:0:0:
390,68,54023,1,0,0:0:0:0:
402,311,54216,1,0,0:0:0:0:
79,311,54410,1,0,0:0:0:0:
256,192,54603,12,0,55183,0:0:0:0:
