osu file format v14

[General]
AudioFilename: Cytus - Bloody Purity.mp3
AudioLeadIn: 0
PreviewTime: -1
Countdown: 0
SampleSet: None
StackLeniency: 0.7
Mode: 3
LetterboxInBreaks: 1
SpecialStyle: 1
WidescreenStoryboard: 0

[Editor]
DistanceSpacing: 0.8
BeatDivisor: 4
GridSize: 8
TimelineZoom: 1

[Metadata]
Title:Bloody Purity
TitleUnicode:Bloody Purity
Artist:Eyemedia
ArtistUnicode:Eyemedia
Creator:abcoku123
Version:RM
Source:
Tags:
BeatmapID:603565
BeatmapSetID:264811

[Difficulty]
HPDrainRate:5
CircleSize:4
OverallDifficulty:5
ApproachRate:5
SliderMultiplier:1.4
SliderTickRate:1

[Events]
//Background and Video events
0,0,"bloody purity.jpg",0,0
//Break Periods
//Storyboard Layer 0 (Background)
//Storyboard Layer 1 (Fail)
//Storyboard Layer 2 (Pass)
//Storyboard Layer 3 (Foreground)
//Storyboard Sound Samples

[TimingPoints]
1592,387.046832666753,4,3,0,100,1,0

[HitObjects]
192,192,1398,5,0,0:0:0:0:
192,192,1495,1,0,0:0:0:0:
64,192,1592,1,0,0:0:0:0:
320,192,1592,1,0,0:0:0:0:
448,192,1592,1,0,0:0:0:0:
64,192,2172,1,0,0:0:0:0:
192,192,2269,1,0,0:0:0:0:
448,192,2366,1,0,0:0:0:0:
320,192,2559,1,0,0:0:0:0:
192,192,2753,1,0,0:0:0:0:
448,192,2946,1,0,0:0:0:0:
192,192,3140,1,0,0:0:0:0:
448,192,3140,1,0,0:0:0:0:
448,192,3430,1,0,0:0:0:0:
448,192,3720,1,0,0:0:0:0:
64,192,3914,1,0,0:0:0:0:
320,192,3914,1,0,0:0:0:0:
448,192,4204,1,0,0:0:0:0:
448,192,4494,1,0,0:0:0:0:
64,192,4688,1,0,0:0:0:0:
320,192,4688,1,0,0:0:0:0:
192,192,4881,1,0,0:0:0:0:
448,192,4881,1,0,0:0:0:0:
192,192,5075,128,0,5268:0:0:0:0:
448,192,5075,128,0,5268:0:0:0:0:
320,192,5268,1,0,0:0:0:0:
64,192,5268,1,0,0:0:0:0:
192,192,5462,128,0,5752:0:0:0:0:
448,192,5462,128,0,5752:0:0:0:0:
64,192,5752,128,0,6043:0:0:0:0:
320,192,5752,128,0,6043:0:0:0:0:
192,192,6043,1,0,0:0:0:0:
448,192,6043,1,0,0:0:0:0:
64,192,6236,128,0,6526:0:0:0:0:
320,192,6236,128,0,6526:0:0:0:0:
192,192,6526,128,0,6817:0:0:0:0:
448,192,6526,128,0,6817:0:0:0:0:
64,192,6817,1,0,0:0:0:0:
320,192,6817,1,0,0:0:0:0:
448,192,7010,128,0,7300:0:0:0:0:
192,192,7010,128,0,7300:0:0:0:0:
64,192,7300,128,0,7591:0:0:0:0:
320,192,7300,128,0,7591:0:0:0:0:
448,192,7591,1,0,0:0:0:0:
192,192,7591,1,0,0:0:0:0:
64,192,7784,1,0,0:0:0:0:
320,192,7784,1,0,0:0:0:0:
448,192,7784,1,0,0:0:0:0:
64,192,8171,1,0,0:0:0:0:
192,192,8365,1,0,0:0:0:0:
448,192,8752,1,0,0:0:0:0:
320,192,9139,1,0,0:0:0:0:
64,192,9332,1,0,0:0:0:0:
448,192,9332,1,0,0:0:0:0:
192,192,9719,1,0,0:0:0:0:
64,192,9913,1,0,0:0:0:0:
192,192,10300,1,0,0:0:0:0:
320,192,10687,1,0,0:0:0:0:
192,192,10881,1,0,0:0:0:0:
64,192,10881,1,0,0:0:0:0:
320,192,11268,1,0,0:0:0:0:
448,192,11461,1,0,0:0:0:0:
64,192,11848,1,0,0:0:0:0:
192,192,12042,1,0,0:0:0:0:
320,192,12235,1,0,0:0:0:0:
64,192,12429,1,0,0:0:0:0:
448,192,12429,1,0,0:0:0:0:
192,192,12816,128,0,13009:0:0:0:0:
448,192,13009,1,0,0:0:0:0:
64,192,13009,128,0,13590:0:0:0:0:
320,192,13106,1,0,0:0:0:0:
448,192,13203,1,0,0:0:0:0:
448,192,13590,1,0,0:0:0:0:
192,192,13590,1,0,0:0:0:0:
64,192,13977,1,0,0:0:0:0:
448,192,13977,1,0,0:0:0:0:
320,192,14171,1,0,0:0:0:0:
192,192,14364,1,0,0:0:0:0:
64,192,14558,1,0,0:0:0:0:
448,192,14558,1,0,0:0:0:0:
320,192,14751,1,0,0:0:0:0:
192,192,14945,1,0,0:0:0:0:
64,192,15138,1,0,0:0:0:0:
448,192,15138,1,0,0:0:0:0:
320,192,15332,1,0,0:0:0:0:
448,192,15525,1,0,0:0:0:0:
64,192,15525,1,0,0:0:0:0:
192,192,15719,1,0,0:0:0:0:
320,192,15912,1,0,0:0:0:0:
64,192,16106,1,0,0:0:0:0:
448,192,16106,1,0,0:0:0:0:
192,192,16299,1,0,0:0:0:0:
320,192,16493,1,0,0:0:0:0:
448,192,16686,1,0,0:0:0:0:
64,192,16686,1,0,0:0:0:0:
192,192,16880,1,0,0:0:0:0:
64,192,17073,1,0,0:0:0:0:
448,192,17073,1,0,0:0:0:0:
320,192,17267,1,0,0:0:0:0:
192,192,17460,1,0,0:0:0:0:
64,192,17654,1,0,0:0:0:0:
448,192,17654,1,0,0:0:0:0:
320,192,17847,1,0,0:0:0:0:
192,192,18041,1,0,0:0:0:0:
64,192,18235,1,0,0:0:0:0:
448,192,18235,1,0,0:0:0:0:
320,192,18428,1,0,0:0:0:0:
448,192,18622,1,0,0:0:0:0:
64,192,18622,1,0,0:0:0:0:
192,192,18815,1,0,0:0:0:0:
320,192,19009,1,0,0:0:0:0:
448,192,19202,1,0,0:0:0:0:
64,192,19202,1,0,0:0:0:0:
192,192,19396,1,0,0:0:0:0:
320,192,19589,1,0,0:0:0:0:
448,192,19783,1,0,0:0:0:0:
64,192,19783,1,0,0:0:0:0:
192,192,19976,1,0,0:0:0:0:
64,192,20170,1,0,0:0:0:0:
448,192,20170,1,0,0:0:0:0:
192,192,20363,1,0,0:0:0:0:
320,192,20557,1,0,0:0:0:0:
192,192,20557,1,0,0:0:0:0:
64,192,20557,128,0,20750:0:0:0:0:
448,192,20750,1,0,0:0:0:0:
192,192,20750,128,0,21137:0:0:0:0:
320,192,21137,1,0,0:0:0:0:
64,192,21137,128,0,21524:0:0:0:0:
448,192,21524,1,0,0:0:0:0:
192,192,21524,1,0,0:0:0:0:
320,192,21718,1,0,0:0:0:0:
192,192,21911,1,0,0:0:0:0:
448,192,22105,1,0,0:0:0:0:
192,192,22105,1,0,0:0:0:0:
64,192,22105,128,0,22299:0:0:0:0:
320,192,22299,1,0,0:0:0:0:
192,192,22299,128,0,22686:0:0:0:0:
448,192,22686,1,0,0:0:0:0:
64,192,22686,128,0,22879:0:0:0:0:
192,192,22879,128,0,23073:0:0:0:0:
64,192,23073,1,0,0:0:0:0:
320,192,23266,1,0,0:0:0:0:
192,192,23363,1,0,0:0:0:0:
320,192,23460,1,0,0:0:0:0:
448,192,23556,1,0,0:0:0:0:
192,192,23653,1,0,0:0:0:0:
320,192,23750,1,0,0:0:0:0:
192,192,23847,1,0,0:0:0:0:
64,192,23943,1,0,0:0:0:0:
320,192,24040,1,0,0:0:0:0:
192,192,24137,1,0,0:0:0:0:
320,192,24234,1,0,0:0:0:0:
448,192,24331,1,0,0:0:0:0:
192,192,24427,1,0,0:0:0:0:
320,192,24524,1,0,0:0:0:0:
192,192,24621,1,0,0:0:0:0:
64,192,24718,1,0,0:0:0:0:
192,192,24814,1,0,0:0:0:0:
448,192,24814,1,0,0:0:0:0:
192,192,25008,1,0,0:0:0:0:
448,192,25008,1,0,0:0:0:0:
192,192,25395,1,0,0:0:0:0:
448,192,25395,1,0,0:0:0:0:
64,192,25588,1,0,0:0:0:0:
320,192,25588,1,0,0:0:0:0:
192,192,25782,1,0,0:0:0:0:
448,192,25782,1,0,0:0:0:0:
64,192,25975,1,0,0:0:0:0:
320,192,25975,1,0,0:0:0:0:
192,192,26169,1,0,0:0:0:0:
448,192,26169,1,0,0:0:0:0:
64,192,27137,128,0,27717:0:0:0:0:
192,192,27911,1,0,0:0:0:0:
448,192,27911,1,0,0:0:0:0:
320,192,28104,1,0,0:0:0:0:
192,192,28104,1,0,0:0:0:0:
64,192,28298,1,0,0:0:0:0:
448,192,28298,1,0,0:0:0:0:
64,192,28491,1,0,0:0:0:0:
320,192,28491,1,0,0:0:0:0:
448,192,28685,1,0,0:0:0:0:
192,192,28685,1,0,0:0:0:0:
320,192,28878,1,0,0:0:0:0:
192,192,28878,1,0,0:0:0:0:
64,192,28878,128,0,29072:0:0:0:0:
448,192,29072,1,0,0:0:0:0:
192,192,29072,128,0,29265:0:0:0:0:
320,192,29265,1,0,0:0:0:0:
64,192,29265,128,0,29459:0:0:0:0:
448,192,29459,1,0,0:0:0:0:
192,192,29459,128,0,29652:0:0:0:0:
320,192,29652,1,0,0:0:0:0:
64,192,29652,1,0,0:0:0:0:
64,192,29846,1,0,0:0:0:0:
448,192,29846,1,0,0:0:0:0:
320,192,30039,1,0,0:0:0:0:
64,192,30039,1,0,0:0:0:0:
192,192,30233,1,0,0:0:0:0:
448,192,30233,1,0,0:0:0:0:
192,192,30426,1,0,0:0:0:0:
320,192,30426,1,0,0:0:0:0:
64,192,30620,1,0,0:0:0:0:
448,192,30620,1,0,0:0:0:0:
320,192,30814,1,0,0:0:0:0:
64,192,30814,1,0,0:0:0:0:
192,192,31007,1,0,0:0:0:0:
448,192,31007,1,0,0:0:0:0:
64,192,31201,1,0,0:0:0:0:
448,192,31201,1,0,0:0:0:0:
192,192,31394,1,0,0:0:0:0:
320,192,31394,1,0,0:0:0:0:
64,192,31588,1,0,0:0:0:0:
320,192,31588,1,0,0:0:0:0:
192,192,31781,1,0,0:0:0:0:
320,192,31781,1,0,0:0:0:0:
448,192,31975,1,0,0:0:0:0:
320,192,31975,128,0,32168:0:0:0:0:
64,192,31975,1,0,0:0:0:0:
448,192,32168,128,0,32362:0:0:0:0:
192,192,32168,1,0,0:0:0:0:
320,192,32362,128,0,32555:0:0:0:0:
64,192,32362,1,0,0:0:0:0:
448,192,32555,128,0,32749:0:0:0:0:
192,192,32555,1,0,0:0:0:0:
64,192,32749,1,0,0:0:0:0:
320,192,32749,1,0,0:0:0:0:
192,192,32942,1,0,0:0:0:0:
320,192,32942,1,0,0:0:0:0:
64,192,33136,1,0,0:0:0:0:
320,192,33136,1,0,0:0:0:0:
192,192,33329,1,0,0:0:0:0:
448,192,33329,1,0,0:0:0:0:
64,192,33523,1,0,0:0:0:0:
448,192,33523,1,0,0:0:0:0:
192,192,33716,1,0,0:0:0:0:
320,192,33716,1,0,0:0:0:0:
320,192,33910,1,0,0:0:0:0:
64,192,33910,1,0,0:0:0:0:
192,192,34103,1,0,0:0:0:0:
448,192,34103,1,0,0:0:0:0:
192,192,34297,1,0,0:0:0:0:
320,192,34297,1,0,0:0:0:0:
64,192,34490,1,0,0:0:0:0:
448,192,34490,1,0,0:0:0:0:
64,192,34684,1,0,0:0:0:0:
320,192,34684,1,0,0:0:0:0:
192,192,34878,1,0,0:0:0:0:
448,192,34878,1,0,0:0:0:0:
320,192,35071,1,0,0:0:0:0:
192,192,35071,1,0,0:0:0:0:
64,192,35071,128,0,35265:0:0:0:0:
192,192,35265,128,0,35458:0:0:0:0:
448,192,35265,1,0,0:0:0:0:
64,192,35458,128,0,35652:0:0:0:0:
320,192,35458,1,0,0:0:0:0:
192,192,35652,128,0,35845:0:0:0:0:
448,192,35652,1,0,0:0:0:0:
64,192,35845,1,0,0:0:0:0:
320,192,35845,1,0,0:0:0:0:
64,192,36039,1,0,0:0:0:0:
448,192,36039,1,0,0:0:0:0:
64,192,36232,1,0,0:0:0:0:
320,192,36232,1,0,0:0:0:0:
192,192,36426,1,0,0:0:0:0:
448,192,36426,1,0,0:0:0:0:
192,192,36619,1,0,0:0:0:0:
320,192,36619,1,0,0:0:0:0:
64,192,36813,1,0,0:0:0:0:
448,192,36813,1,0,0:0:0:0:
64,192,37006,1,0,0:0:0:0:
320,192,37006,1,0,0:0:0:0:
192,192,37200,1,0,0:0:0:0:
448,192,37200,1,0,0:0:0:0:
64,192,37393,1,0,0:0:0:0:
448,192,37393,1,0,0:0:0:0:
192,192,37587,1,0,0:0:0:0:
320,192,37587,1,0,0:0:0:0:
64,192,37780,1,0,0:0:0:0:
320,192,37780,1,0,0:0:0:0:
192,192,37974,1,0,0:0:0:0:
320,192,37974,1,0,0:0:0:0:
64,192,38167,1,0,0:0:0:0:
448,192,38167,1,0,0:0:0:0:
320,192,38167,128,0,38361:0:0:0:0:
448,192,38361,128,0,38554:0:0:0:0:
192,192,38361,1,0,0:0:0:0:
320,192,38554,128,0,38748:0:0:0:0:
64,192,38554,1,0,0:0:0:0:
192,192,38748,1,0,0:0:0:0:
448,192,38748,1,0,0:0:0:0:
64,192,38942,1,0,0:0:0:0:
320,192,38942,1,0,0:0:0:0:
192,192,39135,1,0,0:0:0:0:
448,192,39135,1,0,0:0:0:0:
320,192,39135,128,0,39329:0:0:0:0:
64,192,39329,1,0,0:0:0:0:
448,192,39329,1,0,0:0:0:0:
192,192,39522,1,0,0:0:0:0:
448,192,39522,1,0,0:0:0:0:
64,192,39716,1,0,0:0:0:0:
320,192,39716,1,0,0:0:0:0:
448,192,39716,128,0,39909:0:0:0:0:
320,192,39909,128,0,40103:0:0:0:0:
192,192,39909,1,0,0:0:0:0:
448,192,40103,1,0,0:0:0:0:
64,192,40103,1,0,0:0:0:0:
64,192,40296,1,0,0:0:0:0:
320,192,40296,1,0,0:0:0:0:
192,192,40490,1,0,0:0:0:0:
320,192,40683,1,0,0:0:0:0:
64,192,40877,1,0,0:0:0:0:
448,192,40877,1,0,0:0:0:0:
320,192,41070,1,0,0:0:0:0:
192,192,41264,1,0,0:0:0:0:
448,192,41264,1,0,0:0:0:0:
64,192,41457,1,0,0:0:0:0:
192,192,41651,1,0,0:0:0:0:
448,192,41651,1,0,0:0:0:0:
192,192,41844,1,0,0:0:0:0:
448,192,41844,1,0,0:0:0:0:
320,192,42038,1,0,0:0:0:0:
192,192,42231,1,0,0:0:0:0:
448,192,42231,1,0,0:0:0:0:
320,192,42425,1,0,0:0:0:0:
64,192,42425,1,0,0:0:0:0:
192,192,42618,1,0,0:0:0:0:
64,192,42812,1,0,0:0:0:0:
448,192,42812,1,0,0:0:0:0:
320,192,43006,1,0,0:0:0:0:
192,192,43199,1,0,0:0:0:0:
64,192,43393,1,0,0:0:0:0:
64,192,43586,1,0,0:0:0:0:
192,192,43780,1,0,0:0:0:0:
448,192,43780,1,0,0:0:0:0:
320,192,43973,1,0,0:0:0:0:
64,192,43973,1,0,0:0:0:0:
448,192,44167,1,0,0:0:0:0:
320,192,44360,1,0,0:0:0:0:
64,192,44360,1,0,0:0:0:0:
192,192,44554,1,0,0:0:0:0:
448,192,44554,1,0,0:0:0:0:
320,192,44747,1,0,0:0:0:0:
64,192,44747,1,0,0:0:0:0:
448,192,44941,1,0,0:0:0:0:
448,192,45134,1,0,0:0:0:0:
320,192,45328,1,0,0:0:0:0:
192,192,45521,1,0,0:0:0:0:
448,192,45521,1,0,0:0:0:0:
64,192,45715,1,0,0:0:0:0:
192,192,45908,1,0,0:0:0:0:
64,192,46102,1,0,0:0:0:0:
320,192,46102,1,0,0:0:0:0:
192,192,46295,1,0,0:0:0:0:
448,192,46295,1,0,0:0:0:0:
64,192,46489,1,0,0:0:0:0:
320,192,46489,1,0,0:0:0:0:
192,192,46682,1,0,0:0:0:0:
64,192,46876,1,0,0:0:0:0:
320,192,46876,1,0,0:0:0:0:
192,192,47070,1,0,0:0:0:0:
448,192,47070,1,0,0:0:0:0:
320,192,47263,1,0,0:0:0:0:
192,192,47457,1,0,0:0:0:0:
448,192,47457,1,0,0:0:0:0:
320,192,47650,1,0,0:0:0:0:
192,192,47844,1,0,0:0:0:0:
448,192,47844,1,0,0:0:0:0:
64,192,48037,1,0,0:0:0:0:
64,192,48231,1,0,0:0:0:0:
192,192,48424,1,0,0:0:0:0:
448,192,48424,1,0,0:0:0:0:
320,192,48618,1,0,0:0:0:0:
64,192,48618,1,0,0:0:0:0:
192,192,48811,1,0,0:0:0:0:
320,192,49005,1,0,0:0:0:0:
64,192,49005,1,0,0:0:0:0:
448,192,49198,1,0,0:0:0:0:
320,192,49392,1,0,0:0:0:0:
64,192,49392,1,0,0:0:0:0:
192,192,49585,1,0,0:0:0:0:
320,192,49779,1,0,0:0:0:0:
64,192,49779,1,0,0:0:0:0:
192,192,49972,1,0,0:0:0:0:
448,192,49972,1,0,0:0:0:0:
64,192,50166,1,0,0:0:0:0:
448,192,50166,1,0,0:0:0:0:
320,192,50359,1,0,0:0:0:0:
448,192,50553,1,0,0:0:0:0:
192,192,50553,1,0,0:0:0:0:
64,192,50746,1,0,0:0:0:0:
320,192,50746,1,0,0:0:0:0:
192,192,50940,1,0,0:0:0:0:
448,192,50940,1,0,0:0:0:0:
64,192,51133,1,0,0:0:0:0:
448,192,51327,1,0,0:0:0:0:
320,192,51424,1,0,0:0:0:0:
192,192,51521,1,0,0:0:0:0:
320,192,51617,1,0,0:0:0:0:
448,192,51714,1,0,0:0:0:0:
64,192,51811,1,0,0:0:0:0:
192,192,51908,1,0,0:0:0:0:
64,192,52004,1,0,0:0:0:0:
448,192,52101,1,0,0:0:0:0:
320,192,52198,1,0,0:0:0:0:
448,192,52295,1,0,0:0:0:0:
64,192,52391,1,0,0:0:0:0:
192,192,52488,1,0,0:0:0:0:
320,192,52585,1,0,0:0:0:0:
448,192,52682,1,0,0:0:0:0:
64,192,52682,1,0,0:0:0:0:
64,192,54230,1,0,0:0:0:0:
448,192,54230,1,0,0:0:0:0:
64,192,54810,1,0,0:0:0:0:
192,192,54907,1,0,0:0:0:0:
448,192,55004,1,0,0:0:0:0:
320,192,55197,1,0,0:0:0:0:
192,192,55391,1,0,0:0:0:0:
448,192,55585,1,0,0:0:0:0:
448,192,55778,1,0,0:0:0:0:
192,192,55778,1,0,0:0:0:0:
448,192,56068,1,0,0:0:0:0:
448,192,56359,1,0,0:0:0:0:
320,192,56552,1,0,0:0:0:0:
64,192,56552,1,0,0:0:0:0:
320,192,56842,1,0,0:0:0:0:
320,192,57133,1,0,0:0:0:0:
448,192,57326,1,0,0:0:0:0:
64,192,57326,1,0,0:0:0:0:
64,192,57907,1,0,0:0:0:0:
192,192,58004,1,0,0:0:0:0:
448,192,58100,1,0,0:0:0:0:
320,192,58294,1,0,0:0:0:0:
192,192,58487,1,0,0:0:0:0:
448,192,58681,1,0,0:0:0:0:
192,192,58874,1,0,0:0:0:0:
448,192,58874,1,0,0:0:0:0:
448,192,59165,1,0,0:0:0:0:
448,192,59455,1,0,0:0:0:0:
320,192,59649,1,0,0:0:0:0:
64,192,59649,1,0,0:0:0:0:
64,192,60036,1,0,0:0:0:0:
64,192,60810,1,0,0:0:0:0:
192,192,61003,1,0,0:0:0:0:
192,192,61390,1,0,0:0:0:0:
448,192,61390,1,0,0:0:0:0:
64,192,61777,1,0,0:0:0:0:
320,192,61777,1,0,0:0:0:0:
448,192,62358,1,0,0:0:0:0:
320,192,62551,1,0,0:0:0:0:
64,192,62938,1,0,0:0:0:0:
64,192,63325,1,0,0:0:0:0:
448,192,63325,1,0,0:0:0:0:
64,192,64293,1,0,0:0:0:0:
192,192,64487,1,0,0:0:0:0:
448,192,64680,1,0,0:0:0:0:
320,192,64874,1,0,0:0:0:0:
64,192,65067,128,0,66228:0:0:0:0:
64,192,66615,1,0,0:0:0:0:
448,192,66615,1,0,0:0:0:0:
320,192,66809,1,0,0:0:0:0:
192,192,67002,1,0,0:0:0:0:
448,192,67196,1,0,0:0:0:0:
192,192,67196,1,0,0:0:0:0:
64,192,67293,1,0,0:0:0:0:
320,192,67293,1,0,0:0:0:0:
192,192,67389,1,0,0:0:0:0:
448,192,67389,1,0,0:0:0:0:
64,192,67583,1,0,0:0:0:0:
320,192,67583,1,0,0:0:0:0:
192,192,67777,1,0,0:0:0:0:
448,192,67777,1,0,0:0:0:0:
64,192,67970,1,0,0:0:0:0:
320,192,67970,1,0,0:0:0:0:
192,192,68164,1,0,0:0:0:0:
448,192,68164,1,0,0:0:0:0:
448,192,68357,1,0,0:0:0:0:
192,192,68454,1,0,0:0:0:0:
448,192,68551,1,0,0:0:0:0:
448,192,68744,1,0,0:0:0:0:
192,192,68744,1,0,0:0:0:0:
64,192,68938,1,0,0:0:0:0:
320,192,68938,1,0,0:0:0:0:
64,192,69131,1,0,0:0:0:0:
320,192,69228,1,0,0:0:0:0:
64,192,69325,1,0,0:0:0:0:
64,192,69518,1,0,0:0:0:0:
320,192,69518,1,0,0:0:0:0:
64,192,69712,1,0,0:0:0:0:
448,192,69712,1,0,0:0:0:0:
192,192,69905,1,0,0:0:0:0:
320,192,70099,1,0,0:0:0:0:
64,192,70292,1,0,0:0:0:0:
320,192,70292,1,0,0:0:0:0:
192,192,70389,1,0,0:0:0:0:
448,192,70389,1,0,0:0:0:0:
320,192,70486,1,0,0:0:0:0:
64,192,70486,1,0,0:0:0:0:
192,192,70679,1,0,0:0:0:0:
448,192,70679,1,0,0:0:0:0:
64,192,70873,1,0,0:0:0:0:
320,192,70873,1,0,0:0:0:0:
192,192,71066,1,0,0:0:0:0:
448,192,71066,1,0,0:0:0:0:
64,192,71260,1,0,0:0:0:0:
320,192,71260,1,0,0:0:0:0:
64,192,71453,1,0,0:0:0:0:
320,192,71550,1,0,0:0:0:0:
64,192,71647,1,0,0:0:0:0:
192,192,71841,1,0,0:0:0:0:
448,192,71841,1,0,0:0:0:0:
448,192,72034,1,0,0:0:0:0:
192,192,72131,1,0,0:0:0:0:
448,192,72228,1,0,0:0:0:0:
192,192,72421,1,0,0:0:0:0:
448,192,72421,1,0,0:0:0:0:
192,192,72615,1,0,0:0:0:0:
448,192,72615,1,0,0:0:0:0:
320,192,72808,1,0,0:0:0:0:
64,192,72808,1,0,0:0:0:0:
192,192,73002,1,0,0:0:0:0:
320,192,73195,1,0,0:0:0:0:
192,192,73195,1,0,0:0:0:0:
64,192,73195,128,0,73389:0:0:0:0:
448,192,73389,1,0,0:0:0:0:
192,192,73389,128,0,73776:0:0:0:0:
320,192,73776,1,0,0:0:0:0:
64,192,73776,128,0,74163:0:0:0:0:
192,192,74163,1,0,0:0:0:0:
448,192,74163,1,0,0:0:0:0:
320,192,74356,1,0,0:0:0:0:
192,192,74550,1,0,0:0:0:0:
448,192,74743,1,0,0:0:0:0:
192,192,74743,1,0,0:0:0:0:
64,192,74743,128,0,74937:0:0:0:0:
320,192,74937,1,0,0:0:0:0:
192,192,74937,128,0,75324:0:0:0:0:
64,192,75324,128,0,75517:0:0:0:0:
448,192,75324,1,0,0:0:0:0:
192,192,75517,128,0,75711:0:0:0:0:
64,192,75711,1,0,0:0:0:0:
320,192,75711,1,0,0:0:0:0:
64,192,75904,1,0,0:0:0:0:
320,192,75904,1,0,0:0:0:0:
192,192,76098,1,0,0:0:0:0:
320,192,76292,1,0,0:0:0:0:
192,192,76292,1,0,0:0:0:0:
64,192,76292,128,0,76485:0:0:0:0:
448,192,76485,1,0,0:0:0:0:
192,192,76485,128,0,76872:0:0:0:0:
320,192,76872,1,0,0:0:0:0:
64,192,76872,128,0,77259:0:0:0:0:
192,192,77259,1,0,0:0:0:0:
448,192,77259,1,0,0:0:0:0:
320,192,77453,1,0,0:0:0:0:
64,192,77453,1,0,0:0:0:0:
192,192,77646,1,0,0:0:0:0:
64,192,77840,1,0,0:0:0:0:
192,192,77840,128,0,78227:0:0:0:0:
448,192,77840,1,0,0:0:0:0:
320,192,78033,1,0,0:0:0:0:
64,192,78227,128,0,78420:0:0:0:0:
192,192,78420,128,0,78614:0:0:0:0:
448,192,78420,1,0,0:0:0:0:
64,192,78614,128,0,78807:0:0:0:0:
192,192,78807,1,0,0:0:0:0:
448,192,78807,1,0,0:0:0:0:
448,192,78904,1,0,0:0:0:0:
448,192,79001,1,0,0:0:0:0:
192,192,79001,1,0,0:0:0:0:
64,192,79001,1,0,0:0:0:0:
64,192,79388,1,0,0:0:0:0:
192,192,79388,1,0,0:0:0:0:
448,192,79388,1,0,0:0:0:0:
448,192,79581,1,0,0:0:0:0:
192,192,79775,1,0,0:0:0:0:
320,192,79968,1,0,0:0:0:0:
320,192,80162,1,0,0:0:0:0:
192,192,80162,1,0,0:0:0:0:
64,192,80162,1,0,0:0:0:0:
192,192,80549,1,0,0:0:0:0:
448,192,80549,1,0,0:0:0:0:
448,192,80743,1,0,0:0:0:0:
192,192,80936,1,0,0:0:0:0:
64,192,80936,1,0,0:0:0:0:
320,192,81130,1,0,0:0:0:0:
192,192,81323,1,0,0:0:0:0:
320,192,81323,1,0,0:0:0:0:
320,192,81710,1,0,0:0:0:0:
192,192,81710,1,0,0:0:0:0:
64,192,81710,1,0,0:0:0:0:
448,192,81904,1,0,0:0:0:0:
192,192,82097,1,0,0:0:0:0:
320,192,82291,1,0,0:0:0:0:
320,192,82484,1,0,0:0:0:0:
192,192,82484,1,0,0:0:0:0:
64,192,82484,1,0,0:0:0:0:
448,192,82871,1,0,0:0:0:0:
192,192,82871,1,0,0:0:0:0:
448,192,83065,1,0,0:0:0:0:
192,192,83258,1,0,0:0:0:0:
64,192,83258,1,0,0:0:0:0:
320,192,83452,1,0,0:0:0:0:
320,192,83645,1,0,0:0:0:0:
192,192,83645,1,0,0:0:0:0:
448,192,84032,1,0,0:0:0:0:
192,192,84032,1,0,0:0:0:0:
64,192,84032,1,0,0:0:0:0:
448,192,84226,1,0,0:0:0:0:
192,192,84420,1,0,0:0:0:0:
320,192,84613,1,0,0:0:0:0:
320,192,84807,1,0,0:0:0:0:
192,192,84807,1,0,0:0:0:0:
64,192,84807,1,0,0:0:0:0:
320,192,85194,1,0,0:0:0:0:
192,192,85387,1,0,0:0:0:0:
192,192,85581,1,0,0:0:0:0:
320,192,85581,1,0,0:0:0:0:
448,192,85581,1,0,0:0:0:0:
64,192,85968,1,0,0:0:0:0:
320,192,85968,1,0,0:0:0:0:
64,192,86161,1,0,0:0:0:0:
320,192,86355,1,0,0:0:0:0:
448,192,86355,1,0,0:0:0:0:
192,192,86548,1,0,0:0:0:0:
192,192,86742,1,0,0:0:0:0:
320,192,86742,1,0,0:0:0:0:
64,192,87129,1,0,0:0:0:0:
320,192,87129,1,0,0:0:0:0:
448,192,87129,1,0,0:0:0:0:
64,192,87322,1,0,0:0:0:0:
320,192,87516,1,0,0:0:0:0:
64,192,87709,1,0,0:0:0:0:
192,192,87903,1,0,0:0:0:0:
320,192,87903,1,0,0:0:0:0:
448,192,87903,1,0,0:0:0:0:
320,192,88290,1,0,0:0:0:0:
64,192,88484,1,0,0:0:0:0:
64,192,88677,1,0,0:0:0:0:
320,192,88677,1,0,0:0:0:0:
448,192,88677,1,0,0:0:0:0:
192,192,89064,1,0,0:0:0:0:
320,192,89064,1,0,0:0:0:0:
192,192,89258,1,0,0:0:0:0:
320,192,89451,1,0,0:0:0:0:
448,192,89451,1,0,0:0:0:0:
64,192,89645,1,0,0:0:0:0:
64,192,89838,1,0,0:0:0:0:
320,192,89838,1,0,0:0:0:0:
192,192,90225,1,0,0:0:0:0:
320,192,90225,1,0,0:0:0:0:
448,192,90225,1,0,0:0:0:0:
192,192,90419,1,0,0:0:0:0:
320,192,90612,1,0,0:0:0:0:
64,192,90806,1,0,0:0:0:0:
64,192,90999,1,0,0:0:0:0:
320,192,90999,1,0,0:0:0:0:
448,192,90999,1,0,0:0:0:0:
448,192,91193,1,0,0:0:0:0:
192,192,91386,1,0,0:0:0:0:
64,192,91386,1,0,0:0:0:0:
448,192,91580,1,0,0:0:0:0:
448,192,91773,1,0,0:0:0:0:
192,192,91773,1,0,0:0:0:0:
64,192,91773,1,0,0:0:0:0:
320,192,91967,1,0,0:0:0:0:
448,192,92160,1,0,0:0:0:0:
192,192,92160,1,0,0:0:0:0:
64,192,92160,1,0,0:0:0:0:
320,192,92354,1,0,0:0:0:0:
448,192,92548,1,0,0:0:0:0:
192,192,92548,1,0,0:0:0:0:
64,192,92548,1,0,0:0:0:0:
320,192,92741,1,0,0:0:0:0:
320,192,92935,1,0,0:0:0:0:
448,192,92935,1,0,0:0:0:0:
64,192,93128,1,0,0:0:0:0:
64,192,93322,1,0,0:0:0:0:
320,192,93322,1,0,0:0:0:0:
448,192,93322,1,0,0:0:0:0:
192,192,93515,1,0,0:0:0:0:
64,192,93709,1,0,0:0:0:0:
320,192,93709,1,0,0:0:0:0:
448,192,93709,1,0,0:0:0:0:
192,192,93902,1,0,0:0:0:0:
64,192,94096,1,0,0:0:0:0:
320,192,94096,1,0,0:0:0:0:
448,192,94096,1,0,0:0:0:0:
192,192,94289,1,0,0:0:0:0:
192,192,94483,1,0,0:0:0:0:
64,192,94483,1,0,0:0:0:0:
448,192,94676,1,0,0:0:0:0:
448,192,94870,1,0,0:0:0:0:
192,192,94870,1,0,0:0:0:0:
64,192,94870,1,0,0:0:0:0:
320,192,95063,1,0,0:0:0:0:
448,192,95257,1,0,0:0:0:0:
192,192,95257,1,0,0:0:0:0:
64,192,95257,1,0,0:0:0:0:
320,192,95450,1,0,0:0:0:0:
448,192,95644,1,0,0:0:0:0:
192,192,95644,1,0,0:0:0:0:
64,192,95644,1,0,0:0:0:0:
320,192,95837,1,0,0:0:0:0:
320,192,96031,1,0,0:0:0:0:
448,192,96031,1,0,0:0:0:0:
64,192,96224,1,0,0:0:0:0:
192,192,96321,1,0,0:0:0:0:
64,192,96418,1,0,0:0:0:0:
320,192,96418,1,0,0:0:0:0:
448,192,96418,1,0,0:0:0:0:
192,192,96611,1,0,0:0:0:0:
64,192,96708,1,0,0:0:0:0:
192,192,96805,1,0,0:0:0:0:
320,192,96805,1,0,0:0:0:0:
448,192,96805,1,0,0:0:0:0:
64,192,96999,1,0,0:0:0:0:
192,192,97095,1,0,0:0:0:0:
64,192,97192,1,0,0:0:0:0:
320,192,97192,1,0,0:0:0:0:
448,192,97192,1,0,0:0:0:0:
64,192,97579,1,0,0:0:0:0:
448,192,97579,1,0,0:0:0:0:
320,192,97676,1,0,0:0:0:0:
192,192,97773,1,0,0:0:0:0:
320,192,97869,1,0,0:0:0:0:
448,192,97966,1,0,0:0:0:0:
64,192,97966,1,0,0:0:0:0:
320,192,98063,1,0,0:0:0:0:
192,192,98160,1,0,0:0:0:0:
320,192,98256,1,0,0:0:0:0:
448,192,98353,1,0,0:0:0:0:
64,192,98353,1,0,0:0:0:0:
320,192,98450,1,0,0:0:0:0:
192,192,98547,1,0,0:0:0:0:
320,192,98643,1,0,0:0:0:0:
448,192,98740,1,0,0:0:0:0:
64,192,98740,1,0,0:0:0:0:
320,192,98837,1,0,0:0:0:0:
192,192,98934,1,0,0:0:0:0:
320,192,99031,1,0,0:0:0:0:
448,192,99127,1,0,0:0:0:0:
64,192,99127,1,0,0:0:0:0:
192,192,99224,1,0,0:0:0:0:
320,192,99321,1,0,0:0:0:0:
192,192,99418,1,0,0:0:0:0:
64,192,99514,1,0,0:0:0:0:
448,192,99514,1,0,0:0:0:0:
192,192,99611,1,0,0:0:0:0:
320,192,99708,1,0,0:0:0:0:
192,192,99805,1,0,0:0:0:0:
64,192,99901,1,0,0:0:0:0:
448,192,99901,1,0,0:0:0:0:
192,192,99998,1,0,0:0:0:0:
320,192,100095,1,0,0:0:0:0:
192,192,100192,1,0,0:0:0:0:
64,192,100288,1,0,0:0:0:0:
448,192,100288,1,0,0:0:0:0:
192,192,100385,1,0,0:0:0:0:
320,192,100482,1,0,0:0:0:0:
192,192,100579,1,0,0:0:0:0:
448,192,100675,1,0,0:0:0:0:
64,192,100675,1,0,0:0:0:0:
320,192,100772,1,0,0:0:0:0:
192,192,100869,1,0,0:0:0:0:
320,192,100966,1,0,0:0:0:0:
448,192,101063,1,0,0:0:0:0:
64,192,101063,1,0,0:0:0:0:
320,192,101159,1,0,0:0:0:0:
192,192,101256,1,0,0:0:0:0:
320,192,101353,1,0,0:0:0:0:
448,192,101450,1,0,0:0:0:0:
64,192,101450,1,0,0:0:0:0:
320,192,101546,1,0,0:0:0:0:
192,192,101643,1,0,0:0:0:0:
320,192,101740,1,0,0:0:0:0:
448,192,101837,1,0,0:0:0:0:
64,192,101837,1,0,0:0:0:0:
320,192,101933,1,0,0:0:0:0:
192,192,102030,1,0,0:0:0:0:
320,192,102127,1,0,0:0:0:0:
320,192,102417,1,0,0:0:0:0:
192,192,102514,1,0,0:0:0:0:
320,192,102611,1,0,0:0:0:0:
448,192,102707,1,0,0:0:0:0:
64,192,102804,1,0,0:0:0:0:
192,192,102901,1,0,0:0:0:0:
320,192,102998,1,0,0:0:0:0:
448,192,103095,1,0,0:0:0:0:
64,192,103191,1,0,0:0:0:0:
192,192,103288,1,0,0:0:0:0:
320,192,103385,1,0,0:0:0:0:
448,192,103482,1,0,0:0:0:0:
64,192,103578,1,0,0:0:0:0:
192,192,103675,1,0,0:0:0:0:
320,192,103772,1,0,0:0:0:0:
64,192,103965,1,0,0:0:0:0:
448,192,103965,1,0,0:0:0:0:
192,192,105320,1,0,0:0:0:0:
64,192,105320,1,0,0:0:0:0:
448,192,105514,1,0,0:0:0:0:
320,192,105610,1,0,0:0:0:0:
448,192,105707,1,0,0:0:0:0:
64,192,105901,1,0,0:0:0:0:
320,192,105901,1,0,0:0:0:0:
192,192,106094,1,0,0:0:0:0:
448,192,106094,1,0,0:0:0:0:
64,192,106288,1,0,0:0:0:0:
320,192,106288,1,0,0:0:0:0:
192,192,106481,1,0,0:0:0:0:
448,192,106481,1,0,0:0:0:0:
64,192,106675,1,0,0:0:0:0:
320,192,106675,1,0,0:0:0:0:
448,192,107062,1,0,0:0:0:0:
320,192,107159,1,0,0:0:0:0:
192,192,107255,1,0,0:0:0:0:
320,192,107352,1,0,0:0:0:0:
448,192,107449,1,0,0:0:0:0:
320,192,107546,1,0,0:0:0:0:
192,192,107642,1,0,0:0:0:0:
64,192,107739,1,0,0:0:0:0:
192,192,107836,1,0,0:0:0:0:
320,192,107933,1,0,0:0:0:0:
448,192,108029,1,0,0:0:0:0:
320,192,108126,1,0,0:0:0:0:
192,192,108223,1,0,0:0:0:0:
320,192,108416,1,0,0:0:0:0:
448,192,108416,1,0,0:0:0:0:
64,192,108610,1,0,0:0:0:0:
192,192,108707,1,0,0:0:0:0:
64,192,108803,1,0,0:0:0:0:
192,192,108997,1,0,0:0:0:0:
448,192,108997,1,0,0:0:0:0:
320,192,109191,1,0,0:0:0:0:
64,192,109191,1,0,0:0:0:0:
192,192,109384,1,0,0:0:0:0:
448,192,109384,1,0,0:0:0:0:
320,192,109578,1,0,0:0:0:0:
64,192,109578,1,0,0:0:0:0:
192,192,109771,1,0,0:0:0:0:
448,192,109771,1,0,0:0:0:0:
192,192,110158,1,0,0:0:0:0:
64,192,110255,1,0,0:0:0:0:
448,192,110352,1,0,0:0:0:0:
320,192,110448,1,0,0:0:0:0:
192,192,110545,1,0,0:0:0:0:
64,192,110642,1,0,0:0:0:0:
448,192,110739,1,0,0:0:0:0:
320,192,110835,1,0,0:0:0:0:
192,192,110932,1,0,0:0:0:0:
64,192,111029,1,0,0:0:0:0:
448,192,111126,1,0,0:0:0:0:
320,192,111223,1,0,0:0:0:0:
192,192,111319,1,0,0:0:0:0:
192,192,111513,1,0,0:0:0:0:
64,192,111513,1,0,0:0:0:0:
448,192,111706,1,0,0:0:0:0:
320,192,111803,1,0,0:0:0:0:
448,192,111900,1,0,0:0:0:0:
64,192,112093,1,0,0:0:0:0:
320,192,112093,1,0,0:0:0:0:
192,192,112287,1,0,0:0:0:0:
448,192,112287,1,0,0:0:0:0:
64,192,112480,1,0,0:0:0:0:
320,192,112480,1,0,0:0:0:0:
192,192,112674,1,0,0:0:0:0:
448,192,112674,1,0,0:0:0:0:
320,192,112867,1,0,0:0:0:0:
64,192,112867,1,0,0:0:0:0:
448,192,113061,128,0,113255:0:0:0:0:
192,192,113255,1,0,0:0:0:0:
320,192,113448,128,0,113642:0:0:0:0:
64,192,113642,1,0,0:0:0:0:
192,192,113835,128,0,114029:0:0:0:0:
448,192,114029,1,0,0:0:0:0:
320,192,114222,128,0,114416:0:0:0:0:
64,192,114416,1,0,0:0:0:0:
192,192,114609,1,0,0:0:0:0:
64,192,114609,1,0,0:0:0:0:
448,192,114609,1,0,0:0:0:0:
320,192,114803,1,0,0:0:0:0:
192,192,114996,1,0,0:0:0:0:
192,192,115190,1,0,0:0:0:0:
64,192,115190,1,0,0:0:0:0:
448,192,115190,1,0,0:0:0:0:
320,192,115383,1,0,0:0:0:0:
192,192,115577,1,0,0:0:0:0:
192,192,115770,1,0,0:0:0:0:
64,192,115770,1,0,0:0:0:0:
448,192,115770,1,0,0:0:0:0:
320,192,115964,1,0,0:0:0:0:
192,192,116157,1,0,0:0:0:0:
64,192,116157,1,0,0:0:0:0:
448,192,116157,1,0,0:0:0:0:
448,192,116415,1,0,0:0:0:0:
320,192,116415,1,0,0:0:0:0:
64,192,116415,1,0,0:0:0:0:
64,192,116673,1,0,0:0:0:0:
192,192,116673,1,0,0:0:0:0:
448,192,116673,1,0,0:0:0:0:
64,192,116931,1,0,0:0:0:0:
320,192,116931,1,0,0:0:0:0:
448,192,116931,1,0,0:0:0:0:
192,192,116931,1,0,0:0:0:0:
64,192,117319,1,0,0:0:0:0:
448,192,117415,1,0,0:0:0:0:
64,192,117512,1,0,0:0:0:0:
448,192,117609,1,0,0:0:0:0:
192,192,117706,1,0,0:0:0:0:
64,192,117706,1,0,0:0:0:0:
192,192,118093,1,0,0:0:0:0:
64,192,118093,1,0,0:0:0:0:
448,192,118093,1,0,0:0:0:0:
448,192,118286,1,0,0:0:0:0:
192,192,118480,1,0,0:0:0:0:
320,192,118673,1,0,0:0:0:0:
64,192,118867,1,0,0:0:0:0:
192,192,118867,1,0,0:0:0:0:
320,192,118867,1,0,0:0:0:0:
192,192,119254,1,0,0:0:0:0:
448,192,119254,1,0,0:0:0:0:
448,192,119447,1,0,0:0:0:0:
192,192,119641,1,0,0:0:0:0:
64,192,119641,1,0,0:0:0:0:
320,192,119834,1,0,0:0:0:0:
320,192,120028,1,0,0:0:0:0:
192,192,120028,1,0,0:0:0:0:
320,192,120415,1,0,0:0:0:0:
192,192,120415,1,0,0:0:0:0:
64,192,120415,1,0,0:0:0:0:
448,192,120608,1,0,0:0:0:0:
192,192,120802,1,0,0:0:0:0:
320,192,120995,1,0,0:0:0:0:
320,192,121189,1,0,0:0:0:0:
192,192,121189,1,0,0:0:0:0:
64,192,121189,1,0,0:0:0:0:
192,192,121576,1,0,0:0:0:0:
448,192,121576,1,0,0:0:0:0:
448,192,121770,1,0,0:0:0:0:
192,192,121963,1,0,0:0:0:0:
64,192,121963,1,0,0:0:0:0:
320,192,122157,1,0,0:0:0:0:
448,192,122350,1,0,0:0:0:0:
192,192,122350,1,0,0:0:0:0:
64,192,122350,1,0,0:0:0:0:
448,192,122608,1,0,0:0:0:0:
320,192,122608,1,0,0:0:0:0:
64,192,122608,1,0,0:0:0:0:
64,192,122866,1,0,0:0:0:0:
192,192,122866,1,0,0:0:0:0:
448,192,122866,1,0,0:0:0:0:
64,192,123124,1,0,0:0:0:0:
320,192,123124,1,0,0:0:0:0:
448,192,123124,1,0,0:0:0:0:
64,192,123382,1,0,0:0:0:0:
192,192,123382,1,0,0:0:0:0:
448,192,123382,1,0,0:0:0:0:
64,192,123640,1,0,0:0:0:0:
320,192,123640,1,0,0:0:0:0:
448,192,123640,1,0,0:0:0:0:
192,192,123898,1,0,0:0:0:0:
64,192,123898,1,0,0:0:0:0:
448,192,123898,1,0,0:0:0:0:
192,192,124092,1,0,0:0:0:0:
192,192,124285,1,0,0:0:0:0:
320,192,124285,1,0,0:0:0:0:
448,192,124285,1,0,0:0:0:0:
64,192,124672,1,0,0:0:0:0:
320,192,124672,1,0,0:0:0:0:
64,192,124866,1,0,0:0:0:0:
320,192,125059,1,0,0:0:0:0:
448,192,125059,1,0,0:0:0:0:
192,192,125253,1,0,0:0:0:0:
320,192,125446,1,0,0:0:0:0:
192,192,125446,1,0,0:0:0:0:
64,192,125834,1,0,0:0:0:0:
320,192,125834,1,0,0:0:0:0:
448,192,125834,1,0,0:0:0:0:
64,192,126027,1,0,0:0:0:0:
320,192,126221,1,0,0:0:0:0:
64,192,126414,1,0,0:0:0:0:
192,192,126608,1,0,0:0:0:0:
320,192,126608,1,0,0:0:0:0:
448,192,126608,1,0,0:0:0:0:
320,192,126995,1,0,0:0:0:0:
64,192,127188,1,0,0:0:0:0:
64,192,127382,1,0,0:0:0:0:
320,192,127382,1,0,0:0:0:0:
448,192,127382,1,0,0:0:0:0:
192,192,127769,1,0,0:0:0:0:
320,192,127769,1,0,0:0:0:0:
192,192,127962,1,0,0:0:0:0:
320,192,128156,1,0,0:0:0:0:
448,192,128156,1,0,0:0:0:0:
64,192,128349,1,0,0:0:0:0:
448,192,128543,1,0,0:0:0:0:
64,192,128543,1,0,0:0:0:0:
192,192,128607,1,0,0:0:0:0:
64,192,128672,1,0,0:0:0:0:
320,192,128736,1,0,0:0:0:0:
192,192,128736,1,0,0:0:0:0:
64,192,128801,1,0,0:0:0:0:
448,192,128930,1,0,0:0:0:0:
320,192,129123,1,0,0:0:0:0:
64,192,129123,1,0,0:0:0:0:
448,192,129317,1,0,0:0:0:0:
64,192,129317,128,0,129510:0:0:0:0:
320,192,129510,1,0,0:0:0:0:
192,192,129704,1,0,0:0:0:0:
448,192,129704,1,0,0:0:0:0:
64,192,129898,1,0,0:0:0:0:
320,192,129898,1,0,0:0:0:0:
64,192,130091,1,0,0:0:0:0:
192,192,130091,1,0,0:0:0:0:
448,192,130091,1,0,0:0:0:0:
320,192,130285,1,0,0:0:0:0:
192,192,130381,1,0,0:0:0:0:
64,192,130478,1,0,0:0:0:0:
320,192,130478,1,0,0:0:0:0:
448,192,130575,1,0,0:0:0:0:
320,192,130672,1,0,0:0:0:0:
192,192,130768,1,0,0:0:0:0:
64,192,130865,1,0,0:0:0:0:
320,192,130865,1,0,0:0:0:0:
448,192,130962,1,0,0:0:0:0:
320,192,131059,1,0,0:0:0:0:
192,192,131155,1,0,0:0:0:0:
320,192,131252,1,0,0:0:0:0:
64,192,131252,1,0,0:0:0:0:
448,192,131349,1,0,0:0:0:0:
320,192,131446,1,0,0:0:0:0:
192,192,131542,1,0,0:0:0:0:
320,192,131639,1,0,0:0:0:0:
64,192,131639,1,0,0:0:0:0:
448,192,131736,1,0,0:0:0:0:
320,192,131833,1,0,0:0:0:0:
192,192,131930,1,0,0:0:0:0:
64,192,132026,1,0,0:0:0:0:
320,192,132026,1,0,0:0:0:0:
448,192,132123,1,0,0:0:0:0:
320,192,132220,1,0,0:0:0:0:
192,192,132317,1,0,0:0:0:0:
64,192,132413,1,0,0:0:0:0:
320,192,132413,1,0,0:0:0:0:
448,192,132510,1,0,0:0:0:0:
320,192,132607,1,0,0:0:0:0:
192,192,132704,1,0,0:0:0:0:
64,192,132800,1,0,0:0:0:0:
320,192,132800,1,0,0:0:0:0:
448,192,132897,1,0,0:0:0:0:
320,192,132994,1,0,0:0:0:0:
192,192,133091,1,0,0:0:0:0:
64,192,133187,1,0,0:0:0:0:
320,192,133187,1,0,0:0:0:0:
448,192,133187,1,0,0:0:0:0:
192,192,133381,1,0,0:0:0:0:
320,192,133478,1,0,0:0:0:0:
448,192,133574,1,0,0:0:0:0:
192,192,133574,1,0,0:0:0:0:
64,192,133671,1,0,0:0:0:0:
192,192,133768,1,0,0:0:0:0:
320,192,133865,1,0,0:0:0:0:
448,192,133962,1,0,0:0:0:0:
192,192,133962,1,0,0:0:0:0:
64,192,134058,1,0,0:0:0:0:
192,192,134155,1,0,0:0:0:0:
320,192,134252,1,0,0:0:0:0:
448,192,134349,1,0,0:0:0:0:
192,192,134349,1,0,0:0:0:0:
64,192,134445,1,0,0:0:0:0:
192,192,134542,1,0,0:0:0:0:
320,192,134639,1,0,0:0:0:0:
448,192,134736,1,0,0:0:0:0:
192,192,134736,1,0,0:0:0:0:
64,192,134832,1,0,0:0:0:0:
192,192,134929,1,0,0:0:0:0:
320,192,135026,1,0,0:0:0:0:
448,192,135123,1,0,0:0:0:0:
192,192,135123,1,0,0:0:0:0:
64,192,135219,1,0,0:0:0:0:
192,192,135316,1,0,0:0:0:0:
320,192,135413,1,0,0:0:0:0:
448,192,135510,1,0,0:0:0:0:
192,192,135510,1,0,0:0:0:0:
64,192,135606,1,0,0:0:0:0:
192,192,135703,1,0,0:0:0:0:
320,192,135800,1,0,0:0:0:0:
448,192,135897,1,0,0:0:0:0:
192,192,135897,1,0,0:0:0:0:
64,192,135994,1,0,0:0:0:0:
192,192,136090,1,0,0:0:0:0:
320,192,136187,1,0,0:0:0:0:
448,192,136284,1,0,0:0:0:0:
64,192,136284,1,0,0:0:0:0:
320,192,136381,1,0,0:0:0:0:
192,192,136477,1,0,0:0:0:0:
320,192,136574,1,0,0:0:0:0:
64,192,136574,1,0,0:0:0:0:
448,192,136671,1,0,0:0:0:0:
320,192,136768,1,0,0:0:0:0:
192,192,136864,1,0,0:0:0:0:
64,192,136864,1,0,0:0:0:0:
320,192,136961,1,0,0:0:0:0:
448,192,137058,1,0,0:0:0:0:
64,192,137058,1,0,0:0:0:0:
320,192,137155,1,0,0:0:0:0:
192,192,137251,1,0,0:0:0:0:
320,192,137348,1,0,0:0:0:0:
448,192,137445,1,0,0:0:0:0:
64,192,137445,1,0,0:0:0:0:
320,192,137542,1,0,0:0:0:0:
192,192,137638,1,0,0:0:0:0:
320,192,137735,1,0,0:0:0:0:
448,192,137832,1,0,0:0:0:0:
192,192,137832,1,0,0:0:0:0:
64,192,137929,1,0,0:0:0:0:
192,192,138026,1,0,0:0:0:0:
320,192,138122,1,0,0:0:0:0:
448,192,138122,1,0,0:0:0:0:
192,192,138219,1,0,0:0:0:0:
64,192,138316,1,0,0:0:0:0:
192,192,138413,1,0,0:0:0:0:
448,192,138413,1,0,0:0:0:0:
320,192,138509,1,0,0:0:0:0:
192,192,138606,1,0,0:0:0:0:
448,192,138606,1,0,0:0:0:0:
64,192,138703,1,0,0:0:0:0:
192,192,138800,1,0,0:0:0:0:
320,192,138896,1,0,0:0:0:0:
192,192,138993,1,0,0:0:0:0:
448,192,138993,1,0,0:0:0:0:
64,192,139090,1,0,0:0:0:0:
192,192,139187,1,0,0:0:0:0:
320,192,139283,1,0,0:0:0:0:
64,192,139380,1,0,0:0:0:0:
448,192,139380,1,0,0:0:0:0:
320,192,139477,1,0,0:0:0:0:
192,192,139574,1,0,0:0:0:0:
320,192,139670,1,0,0:0:0:0:
64,192,139670,1,0,0:0:0:0:
448,192,139767,1,0,0:0:0:0:
320,192,139864,1,0,0:0:0:0:
192,192,139961,1,0,0:0:0:0:
64,192,139961,1,0,0:0:0:0:
320,192,140058,1,0,0:0:0:0:
448,192,140154,1,0,0:0:0:0:
64,192,140154,1,0,0:0:0:0:
320,192,140251,1,0,0:0:0:0:
192,192,140348,1,0,0:0:0:0:
320,192,140445,1,0,0:0:0:0:
448,192,140541,1,0,0:0:0:0:
64,192,140541,1,0,0:0:0:0:
320,192,140638,1,0,0:0:0:0:
192,192,140735,1,0,0:0:0:0:
320,192,140832,1,0,0:0:0:0:
320,192,141122,1,0,0:0:0:0:
192,192,141219,1,0,0:0:0:0:
320,192,141315,1,0,0:0:0:0:
448,192,141412,1,0,0:0:0:0:
64,192,141509,1,0,0:0:0:0:
192,192,141606,1,0,0:0:0:0:
320,192,141702,1,0,0:0:0:0:
448,192,141799,1,0,0:0:0:0:
64,192,141896,1,0,0:0:0:0:
192,192,141993,1,0,0:0:0:0:
320,192,142090,1,0,0:0:0:0:
448,192,142186,1,0,0:0:0:0:
64,192,142283,1,0,0:0:0:0:
192,192,142380,1,0,0:0:0:0:
320,192,142477,1,0,0:0:0:0:
64,192,142670,1,0,0:0:0:0:
192,192,142670,1,0,0:0:0:0:
320,192,142670,1,0,0:0:0:0:
448,192,142670,1,0,0:0:0:0:
