osu file format v13

[General]
AudioFilename: Jewbagles.mp3
AudioLeadIn: 0
PreviewTime: 52143
Countdown: 0
SampleSet: Normal
StackLeniency: 0.4
Mode: 0
LetterboxInBreaks: 0
WidescreenStoryboard: 0

[Editor]
DistanceSpacing: 0.5
BeatDivisor: 4
GridSize: 4
TimelineZoom: 1.8

[Metadata]
Title:Mi Shemaamin
TitleUnicode:מי שמאמין
Artist:Eyal Golan
ArtistUnicode:אייל גולן
Creator:Priti
Version:Normal
Source:
Tags:Israel Hebrew Eastern Milkshake Collab Collaboration
BeatmapID:454103
BeatmapSetID:181448

[Difficulty]
HPDrainRate:4
CircleSize:3.5
OverallDifficulty:4
ApproachRate:5
SliderMultiplier:1.5
SliderTickRate:1

[Events]
//Background and Video events
0,0,"EYAL GOLAN 555.png",0,0
//Break Periods
//Storyboard Layer 0 (Background)
//Storyboard Layer 1 (Fail)
//Storyboard Layer 2 (Pass)
//Storyboard Layer 3 (Foreground)
//Storyboard Sound Samples
//Background Colour Transformations
3,100,163,162,255

[TimingPoints]
8026,441.176470588235,4,1,1,50,1,0
52143,-100,4,1,1,50,0,1
80378,-100,4,1,1,50,0,0

[Colours]
Combo1 : 151,79,238
Combo2 : 255,32,111
Combo3 : 247,225,72
Combo4 : 71,238,53
Combo5 : 58,236,250

[HitObjects]
236,296,8025,6,0,P|288:324|400:308,1,150
404,188,8908,2,0,P|352:160|240:176,1,150
132,198,9790,2,0,L|115:37,2,150
368,332,11555,5,0,0:0:0:0:
484,260,11996,1,0,0:0:0:0:
484,124,12437,1,0,0:0:0:0:
368,52,12878,1,0,0:0:0:0:
252,124,13320,1,0,0:0:0:0:
16,256,14202,6,0,P|12:220|32:176,2,75
119,339,15084,2,0,L|270:323,1,150
376,241,15967,2,0,P|393:169|345:89,1,150
228,80,16849,6,0,B|152:87|152:87|87:42,2,150
360,51,18173,1,0,0:0:0:0:
419,171,18614,2,0,P|433:240|379:290,1,150
247,316,19496,1,0,0:0:0:0:
44,140,20378,6,0,P|68:92|160:80,1,150
252,173,21261,2,0,L|405:156,1,150
416,292,22143,2,0,L|266:307,1,150
142,254,23025,1,0,0:0:0:0:
304,36,23908,6,0,P|388:16|440:48,1,150,0|0,0:0|0:0,0:0:0:0:
428,180,24790,2,0,P|344:200|292:168,1,150,0|0,0:0|0:0,0:0:0:0:
181,92,25673,1,0,0:0:0:0:
12,304,26555,6,0,P|92:332|168:308,1,150,0|0,0:0|0:0,0:0:0:0:
94,195,27437,2,0,B|136:172|180:165|219:176|249:213|288:224|332:217|386:195,1,300,4|0,0:3|0:0,0:0:0:0:
488,112,28761,1,0,0:0:0:0:
509,245,29202,6,0,P|506:301|426:322,1,150,4|8,0:0|0:2,0:0:0:0:
296,292,30084,2,0,L|140:308,1,150,8|8,0:2|0:2,0:0:0:0:
51,212,30967,1,8,0:2:0:0:
159,132,31408,1,0,0:0:0:0:
268,52,31849,2,0,P|336:48|408:88,1,150,8|8,0:2|0:2,0:0:0:0:
369,216,32731,6,0,P|301:220|229:180,1,150,8|8,0:2|0:2,0:0:0:0:
137,84,33614,2,0,L|128:3,2,75,8|0|8,0:2|0:0|0:2,0:0:0:0:
100,213,34496,1,8,0:2:0:0:
156,336,34937,1,8,0:2:0:0:
292,348,35378,2,0,L|447:331,1,150,8|8,0:2|0:2,0:0:0:0:
460,200,36261,6,0,P|460:128|264:80,1,300,8|8,0:2|0:2,0:0:0:0:
196,180,37584,1,8,0:2:0:0:
208,316,38025,2,0,L|52:299,2,150,8|8|8,0:2|0:2|0:2,0:0:0:0:
319,239,39349,1,8,0:2:0:0:
196,180,39790,6,0,P|189:118|236:33,1,150,8|8,0:2|0:2,0:0:0:0:
322,136,40673,2,0,L|477:119,1,150,8|8,0:2|0:2,0:0:0:0:
488,256,41555,1,4,0:0:0:0:
488,256,43320,6,0,L|336:271,1,150,4|4,0:3|0:3,0:0:0:0:
244,176,44202,2,0,L|94:160,1,150,8|8,0:2|0:2,0:0:0:0:
93,295,45084,2,0,L|244:310,1,150,4|4,0:3|0:3,0:0:0:0:
338,215,45967,2,0,L|487:199,1,150,8|8,0:2|0:2,0:0:0:0:
487,64,46849,5,4,0:3:0:0:
256,204,47731,1,8,0:2:0:0:
25,64,48614,1,4,0:3:0:0:
256,192,48834,12,2,51261,2:0:0:0:
153,266,52143,6,0,P|226:276|291:241,1,150,4|8,0:0|0:0,0:0:0:0:
312,215,52805,1,0,0:0:0:0:
324,184,53025,1,0,0:0:0:0:
435,107,53467,1,8,0:0:0:0:
312,49,53908,2,0,B|272:59|254:58|222:39|204:38|164:49,1,150,0|8,0:0|0:0,0:0:0:0:
40,100,54790,1,2,0:0:0:0:
43,132,55011,1,0,0:0:0:0:
46,165,55231,1,10,0:0:0:0:
60,300,55673,5,0,0:0:0:0:
169,221,56114,2,0,P|241:203|320:227,1,150,8|0,0:0|0:0,0:0:0:0:
337,355,56996,2,0,P|300:360|263:351,1,75,8|0,0:0|0:0,0:0:0:0:
240,327,57437,2,0,L|88:342,1,150,0|8,0:0|0:0,0:0:0:0:
104,207,58320,1,2,0:0:0:0:
107,175,58540,1,0,0:0:0:0:
110,142,58761,1,10,0:0:0:0:
176,24,59202,6,0,P|248:4|323:29,1,150,0|8,0:0|0:0,0:0:0:0:
388,140,60084,2,0,P|316:160|245:138,1,150,0|8,0:0|0:0,0:0:0:0:
110,142,60967,2,0,B|102:216|102:216|131:286,1,150,0|8,0:0|0:0,0:0:0:0:
146,316,61628,1,0,0:0:0:0:
162,345,61849,2,0,B|201:355|219:354|251:335|269:334|309:345,1,150,0|8,0:0|0:0,0:0:0:0:
432,292,62731,6,0,B|440:217|440:217|411:148,1,150,0|8,0:0|0:0,0:0:0:0:
396,118,63393,1,0,0:0:0:0:
380,89,63614,2,0,P|313:65|230:86,1,150,0|8,0:0|0:0,0:0:0:0:
301,200,64496,2,0,P|323:245|153:291,1,300,0|2,0:0|0:0,0:0:0:0:
358,117,66261,6,0,P|285:107|221:143,1,150,4|8,0:0|0:0,0:0:0:0:
200,169,66923,1,0,0:0:0:0:
188,200,67143,1,0,0:0:0:0:
77,277,67584,1,8,0:0:0:0:
200,335,68025,2,0,B|239:324|257:325|289:344|307:345|347:335,1,150,0|8,0:0|0:0,0:0:0:0:
472,284,68908,1,2,0:0:0:0:
469,252,69128,1,0,0:0:0:0:
466,219,69349,1,10,0:0:0:0:
452,84,69790,5,0,0:0:0:0:
342,162,70231,2,0,P|270:180|192:157,1,150,8|0,0:0|0:0,0:0:0:0:
175,29,71114,2,0,P|211:23|248:32,1,75,8|0,0:0|0:0,0:0:0:0:
272,57,71555,2,0,L|423:41,1,150,0|8,0:0|0:0,0:0:0:0:
407,176,72437,1,2,0:0:0:0:
404,208,72658,1,0,0:0:0:0:
401,241,72878,1,10,0:0:0:0:
336,360,73320,6,0,P|264:380|189:355,1,150,0|8,0:0|0:0,0:0:0:0:
124,244,74202,2,0,P|195:223|266:245,1,150,0|8,0:0|0:0,0:0:0:0:
401,241,75084,2,0,B|409:167|409:167|381:98,1,150,0|8,0:0|0:0,0:0:0:0:
366,68,75746,1,0,0:0:0:0:
350,39,75967,2,0,B|310:28|292:29|260:48|242:49|202:39,1,150,0|8,0:0|0:0,0:0:0:0:
80,92,76849,6,0,B|71:166|71:166|100:235,1,150,0|8,0:0|0:0,0:0:0:0:
116,266,77511,1,0,0:0:0:0:
132,295,77731,2,0,P|199:319|282:298,1,150,0|8,0:0|0:0,0:0:0:0:
211,184,78614,1,0,0:0:0:0:
256,192,78834,12,2,80378,3:2:0:0:
