osu file format v13

[General]
AudioFilename: Jewbagles.mp3
AudioLeadIn: 0
PreviewTime: 52143
Countdown: 0
SampleSet: Normal
StackLeniency: 0.4
Mode: 0
LetterboxInBreaks: 0
WidescreenStoryboard: 0

[Editor]
Bookmarks: 22096,29155,36214,43273,52096,66214
DistanceSpacing: 1.3
BeatDivisor: 4
GridSize: 4
TimelineZoom: 1.8

[Metadata]
Title:Mi Shemaamin
TitleUnicode:מי שמאמין
Artist:Eyal Golan
ArtistUnicode:אייל גולן
Creator:Priti
Version:555 Style
Source:
Tags:Israel Hebrew Eastern Milkshake Collab Collaboration
BeatmapID:435555
BeatmapSetID:181448

[Difficulty]
HPDrainRate:6
CircleSize:4
OverallDifficulty:6
ApproachRate:7
SliderMultiplier:1.8
SliderTickRate:1

[Events]
//Background and Video events
0,0,"EYAL GOLAN 555.png",0,0
//Break Periods
//Storyboard Layer 0 (Background)
//Storyboard Layer 1 (Fail)
//Storyboard Layer 2 (Pass)
//Storyboard Layer 3 (Foreground)
Sprite,Foreground,Centre,"pretty.png",320,240 M,0,7978,,533,412 F,0,7978,8420,1 F,0,8420,21655,1 F,0,21655,22096,1,0.03380678
Sprite,Foreground,Centre,"milky.png",320,240 M,0,22096,,497,412 F,0,22096,22537,0,1 F,0,22537,28714,1 F,0,28714,29155,1,0
Sprite,Foreground,Centre,"pretty.png",320,240 M,0,29155,,532,413 F,0,29155,29596,0,1 F,0,29596,35773,1,0.9954649 F,0,35773,36214,0.9954649,0
Sprite,Foreground,Centre,"milky.png",320,240 M,0,36214,,497,413 F,0,36214,36655,0,1 F,0,36655,42831,1 F,0,42831,43273,1,0
Sprite,Foreground,Centre,"pretty.png",320,240 M,0,43273,,533,414 F,0,43273,43714,0,1 F,0,43714,51214,1 F,0,51214,52096,1,0
Sprite,Foreground,Centre,"milky.png",320,240 M,0,52096,,499,414 F,0,52096,52317,0,1 F,0,52317,65331,1 F,0,65331,66214,1,0
Sprite,Foreground,Centre,"pretty.png",320,240 M,0,66214,,533,414 F,0,66214,66434,0,1 F,0,66434,80331,1 F,0,80331,81214,1,0
//Storyboard Sound Samples
//Background Colour Transformations
3,100,163,162,255

[TimingPoints]
8026,441.176470588235,4,1,1,50,1,0
52143,-100,4,1,1,50,0,1
80378,-100,4,1,1,50,0,0

[Colours]
Combo1 : 151,79,238
Combo2 : 255,32,111
Combo3 : 247,225,72
Combo4 : 71,238,53
Combo5 : 58,236,250

[HitObjects]
296,152,8025,6,0,P|312:72|288:16,2,135
196,216,8908,2,0,L|59:226,2,135
302,271,9790,2,0,P|348:296|436:280,1,135
484,120,10452,1,0,0:0:0:0:
388,48,10673,2,0,P|342:23|254:39,2,135
373,167,11555,6,0,P|364:226|373:305,2,135,0|0|0,0:0|0:0|0:0,0:0:0:0:
484,120,12437,2,0,P|493:60|481:23,1,90
372,1,12878,1,0,0:0:0:0:
256,192,13320,1,0,0:0:0:0:
256,192,14202,5,4,0:0:0:0:
364,240,14423,2,0,P|408:244|448:220,1,90
488,112,14864,1,0,0:0:0:0:
404,32,15084,6,0,B|361:23|346:30|327:45|310:52|269:43,3,135
156,20,16298,1,0,0:0:0:0:
24,136,16628,1,0,0:0:0:0:
64,248,16849,6,0,L|213:232,1,135
324,108,17511,1,0,0:0:0:0:
369,276,17842,2,0,P|424:284|464:268,1,90
442,98,18393,1,0,0:0:0:0:
324,108,18614,6,0,P|241:100|210:58,1,135
126,216,19275,2,0,P|41:231|10:266,1,135
106,333,19827,2,0,P|191:318|222:283,1,135
232,167,20378,6,0,L|378:182,2,135
56,147,21371,1,0,0:0:0:0:
103,40,21592,2,0,P|175:24|227:51,1,135
308,256,22143,6,0,P|380:288|456:272,2,135
140,304,23136,1,0,0:0:0:0:
32,252,23356,2,0,P|24:184|72:100,1,135
164,100,23908,5,0,0:0:0:0:
340,88,24239,2,0,P|376:120|472:132,1,135
408,304,24900,1,0,0:0:0:0:
292,280,25121,2,0,L|136:292,1,135
40,272,25673,6,0,P|32:216|80:148,2,135
148,228,26555,1,0,0:0:0:0:
188,120,26775,1,0,0:0:0:0:
104,40,26996,1,0,0:0:0:0:
8,108,27217,1,0,0:0:0:0:
248,220,27437,6,0,P|296:184|304:104,2,135
76,260,28430,1,0,0:0:0:0:
164,336,28650,2,0,P|220:328|288:364,1,135
346,359,29092,1,0,0:0:0:0:
402,350,29202,6,0,L|413:248,1,90,4|0,0:0|0:0,0:0:0:0:
295,260,29643,2,0,L|305:158,1,90,8|0,0:2|0:0,0:0:0:0:
187,170,30084,2,0,L|196:80,1,90,8|0,0:2|0:0,0:0:0:0:
79,80,30525,1,8,0:2:0:0:
42,191,30746,1,0,0:0:0:0:
136,260,30967,6,0,P|180:273|231:263,1,90,8|0,0:2|0:0,0:0:0:0:
304,183,31408,2,0,P|346:170|391:176,1,90,8|0,0:2|0:0,0:0:0:0:
474,259,31849,2,0,P|505:172|467:91,1,180,8|8,0:2|0:2,0:0:0:0:
364,48,32511,1,0,0:0:0:0:
251,79,32731,6,0,L|155:68,1,90,8|0,0:2|0:0,0:0:0:0:
162,188,33173,2,0,L|66:177,1,90,8|0,0:2|0:0,0:0:0:0:
72,295,33614,1,8,0:2:0:0:
166,361,33834,1,0,0:0:0:0:
281,360,34055,1,8,0:2:0:0:
374,292,34275,1,0,0:0:0:0:
411,183,34496,6,0,P|396:124|456:21,1,180,8|8,0:2|0:2,0:0:0:0:
510,126,35158,1,0,0:0:0:0:
510,126,35378,2,0,L|333:78,1,180,8|8,0:2|0:2,0:0:0:0:
222,48,36040,1,0,0:0:0:0:
112,84,36261,6,0,P|88:128|128:204,1,135,8|0,0:2|0:0,0:0:0:0:
180,208,36702,1,8,0:2:0:0:
292,168,36923,2,0,L|344:132,2,45,0|0|8,0:0|0:0|0:2,0:0:0:0:
305,224,37253,2,0,P|310:287|298:336,1,90
256,344,37584,2,0,L|140:352,1,90,8|0,0:2|0:0,0:0:0:0:
180,208,38025,6,0,P|168:136|216:96,1,135,8|0,0:2|0:0,0:0:0:0:
224,40,38467,2,0,L|328:60,1,90,8|0,0:2|0:0,0:0:0:0:
428,80,38908,2,0,P|404:160|452:244,1,180,8|8,0:2|0:2,0:0:0:0:
380,336,39570,1,0,0:0:0:0:
264,336,39790,6,0,P|232:288|248:240,1,90,8|0,0:2|0:0,0:0:0:0:
248,48,40231,2,0,P|280:96|264:144,1,90,8|0,0:2|0:0,0:0:0:0:
150,290,40673,6,0,P|167:235|214:216,1,90,8|0,0:2|0:0,0:0:0:0:
361,93,41114,2,0,P|344:148|297:167,1,90,8|0,0:2|0:0,0:0:0:0:
204,188,41555,6,0,P|135:171|98:122,1,135,8|0,0:2|0:0,0:0:0:0:
72,68,41996,1,8,0:2:0:0:
44,208,42217,1,0,0:0:0:0:
44,208,42327,1,0,0:0:0:0:
44,208,42437,2,0,L|56:316,1,90,8|0,0:2|0:0,0:0:0:0:
172,288,42878,2,0,L|184:396,1,90,8|0,0:2|0:0,0:0:0:0:
300,368,43320,6,0,P|372:372|448:304,1,180,4|4,0:3|0:3,0:0:0:0:
432,188,43981,1,0,0:0:0:0:
344,108,44202,2,0,B|252:98|252:98|177:42,1,180,8|8,0:2|0:2,0:0:0:0:
56,244,45084,6,0,L|238:263,1,180,4|4,0:3|0:3,0:0:0:0:
456,140,45967,2,0,L|273:120,1,180,8|8,0:2|0:2,0:0:0:0:
160,108,46628,1,0,0:0:0:0:
44,132,46849,6,0,P|28:176|40:232,1,90,4|0,0:3|0:0,0:0:0:0:
45,252,47180,1,0,0:0:0:0:
71,275,47290,2,0,L|170:285,1,90,4|0,0:3|0:0,0:0:0:0:
243,201,47731,2,0,L|342:211,1,90,8|0,0:2|0:0,0:0:0:0:
415,127,48173,2,0,L|514:137,1,90,4|0,0:2|0:0,0:0:0:0:
256,192,48614,12,0,49937,0:0:0:0:
256,192,50378,5,2,2:0:0:0:
256,192,50820,1,2,2:0:0:0:
256,192,51261,1,2,2:0:0:0:
256,192,52143,6,0,P|248:136|284:80,1,90,4|0,0:0|0:0,0:0:0:0:
368,64,52584,2,0,L|468:60,1,90,8|0,0:0|0:0,0:0:0:0:
368,212,53025,1,0,0:0:0:0:
276,284,53246,1,0,0:0:0:0:
276,284,53356,1,0,0:0:0:0:
276,284,53467,2,0,L|168:288,1,90,8|0,0:0|0:0,0:0:0:0:
14,207,53908,6,0,L|104:204,1,90
249,96,54349,2,0,L|160:100,1,90,8|0,0:0|0:0,0:0:0:0:
48,60,54790,2,0,L|64:28,4,22.5,2|0|0|0|0,1:1|3:0|3:0|3:0|3:0,0:0:0:0:
128,144,55231,2,0,L|144:112,4,22.5,10|0|0|0|0,1:0|3:3|3:3|3:3|3:3,0:0:0:0:
209,229,55673,6,0,P|277:221|372:298,1,180,0|8,0:0|0:0,0:0:0:0:
260,340,56334,1,0,0:0:0:0:
144,320,56555,2,0,L|4:328,2,135
196,216,57437,6,0,P|220:176|212:124,1,90
124,61,57878,2,0,P|159:29|204:21,1,90,8|0,0:0|0:0,0:0:0:0:
312,64,58320,2,0,L|328:32,4,22.5,2|0|0|0|0,1:1|3:0|3:0|3:0|3:0,0:0:0:0:
392,148,58761,2,0,L|408:116,6,22.5,10|0|0|0|0|0|0,1:0|3:0|3:0|3:0|3:0|3:0|3:0,0:0:0:0:
352,192,59202,6,0,P|356:260|460:284,1,180,0|8,0:0|0:0,0:0:0:0:
360,364,59864,1,0,0:0:0:0:
248,328,60084,2,0,P|180:328|152:344,2,90,0|0|8,0:0|0:0|0:0,0:0:0:0:
300,224,60746,1,0,0:0:0:0:
196,172,60967,6,0,B|153:163|138:170|119:185|102:192|61:183,2,135
264,76,61849,2,0,B|301:84|318:77|337:62|352:55|395:64,2,135
180,160,62731,6,0,L|196:264,2,90,0|0|8,0:0|0:0|0:0,0:0:0:0:
292,200,63393,1,0,0:0:0:0:
372,284,63614,2,0,L|388:388,2,90,0|0|8,0:0|0:0|0:0,0:0:0:0:
476,228,64275,1,0,0:0:0:0:
452,113,64496,2,0,P|444:41|485:-12,2,135,0|0|0,0:0|0:0|0:0,0:0:0:0:
336,96,65378,5,0,0:0:0:0:
310,78,65489,1,0,0:0:0:0:
280,68,65599,1,0,0:0:0:0:
248,68,65709,1,0,0:0:0:0:
218,77,65820,1,0,0:0:0:0:
192,95,65930,1,0,0:0:0:0:
172,119,66040,1,0,0:0:0:0:
160,148,66150,1,0,0:0:0:0:
158,179,66261,6,0,L|68:170,1,90,4|0,0:0|0:0,0:0:0:0:
240,262,66702,2,0,L|329:252,1,90,8|0,1:0|0:0,2:0:0:0:
445,240,67143,1,0,0:0:0:0:
469,126,67364,1,0,0:0:0:0:
367,67,67584,1,8,0:0:0:0:
279,145,67805,1,0,0:0:0:0:
329,252,68025,6,0,L|150:271,1,180,0|8,0:0|0:0,0:0:0:0:
33,282,68687,1,0,0:0:0:0:
81,175,68908,2,0,L|77:141,4,22.5,2|0|0|0|0,1:0|3:0|3:0|3:0|3:0,0:0:0:0:
176,104,69349,2,0,L|179:70,4,22.5,10|0|0|0|0,1:0|3:0|3:0|3:0|3:0,0:0:0:0:
271,33,69790,6,0,P|325:33|359:54,1,90
370,166,70231,2,0,P|316:166|282:145,1,90,8|0,0:0|0:0,0:0:0:0:
176,104,70673,2,0,P|104:100|80:112,1,90
59,126,71003,1,0,0:0:0:0:
43,158,71114,2,0,L|52:249,1,90,8|0,0:0|0:0,0:0:0:0:
135,330,71555,6,0,B|166:345|186:342|208:338|222:330|236:321|258:317|278:314|309:330,1,180,0|8,0:0|0:0,0:0:0:0:
420,364,72217,1,0,0:0:0:0:
468,256,72437,2,0,L|472:222,4,22.5,2|0|0|0|0,1:0|3:0|3:0|3:0|3:0,0:0:0:0:
385,173,72878,2,0,L|381:139,4,22.5,10|0|0|0|0,1:0|3:0|3:0|3:0|3:0,0:0:0:0:
301,89,73320,6,0,P|237:77|212:84,1,90,0|0,0:0|0:0,0:0:0:0:
48,179,73761,2,0,P|93:183|136:171,1,90,8|0,0:0|0:0,0:0:0:0:
250,194,74202,1,0,0:0:0:0:
352,251,74423,1,0,0:0:0:0:
404,355,74643,2,0,L|493:345,1,90,8|0,0:0|0:0,0:0:0:0:
286,348,75084,6,0,P|191:343|128:287,1,180,0|8,0:0|0:0,0:0:0:0:
92,180,75746,1,0,0:0:0:0:
156,84,75967,2,0,B|251:73|251:73|331:33,1,180,0|8,0:0|0:0,0:0:0:0:
396,132,76628,1,0,0:0:0:0:
396,131,76849,6,0,L|310:175,1,90
234,257,77290,2,0,P|178:262|139:243,1,90,8|0,0:0|0:0,0:0:0:0:
116,137,77731,2,0,P|171:131|210:150,1,90
315,172,78173,2,0,L|405:163,1,90,8|0,0:0|0:0,0:0:0:0:
256,192,78724,12,2,80378,2:0:0:0:
