osu file format v5

[General]
AudioFilename: 04 look into the air.mp3
AudioLeadIn: 0
PreviewTime: -1
Countdown: 1
SampleSet: Soft
StackLeniency: 0.7
Mode: 0

[Metadata]
Title:look into the air
Artist:Explosions In The Sky
Creator:ichikam
Version:Hard
Source:
Tags:

[Difficulty]
HPDrainRate:6
CircleSize:5
OverallDifficulty:6
SliderMultiplier:1.6
SliderTickRate:2

[Events]
//Background and Video events
1,0,"look into the air.avi"
//Break Periods
2,32159,41723
2,53296,59350
2,82538,87551
2,110199,120953
2,127596,131912
2,146210,153658
//Storyboard Layer 0 (Background)
//Storyboard Layer 1 (Failing)
//Storyboard Layer 2 (Passing)
//Storyboard Layer 3 (Foreground)
//Storyboard Sound Samples
//Background Colour Transformations
3,100,163,162,255

[TimingPoints]
4750,695.864692893388,4,2,0,100

[Colours]
Combo1 : 0,128,255
Combo2 : 0,128,0

[HitObjects]
67,306,4750,1,0
97,118,5445,1,0
194,281,6141,1,0
222,92,6837,1,0
305,136,7185,2,0,B|323:91|395:135,1,80
355,214,7881,1,0
457,322,8577,5,0
304,208,9273,1,0
255,289,9621,2,0,B|169:250|187:154,1,160
323,49,11012,5,0
451,189,11708,1,0
282,277,12404,1,0
328,186,12752,1,0
291,98,13100,1,0
205,139,13448,2,0,B|187:94|115:138,1,80
142,217,14144,1,6
297,328,15187,6,0,B|246:305|240:268,1,80
242,275,15883,1,0
242,274,16231,1,0
345,231,16579,6,0,B|324:174|275:175,1,80
179,179,17275,1,0
248,90,17623,1,0
331,119,17971,5,0
404,58,18319,1,0
456,144,18667,2,0,B|458:214|391:191|392:190|393:192|393:192|393:191|394:193,1,80
406,194,19363,1,0
407,194,19711,1,0
406,193,20059,1,0
407,194,20406,1,0
372,277,20754,6,0,B|285:256|288:136,1,160
244,94,21798,1,0
206,151,22146,2,0,B|180:261|84:254,1,160
103,160,23190,1,2
164,87,23538,5,0
245,38,23886,1,0
245,85,24060,1,0
292,86,24234,1,0
344,165,24582,2,0,B|312:270|296:240,1,80
253,246,25278,1,2
253,246,25451,1,2
253,246,25625,1,2
206,328,25973,6,0,B|148:331|141:276,1,80
102,218,26669,6,0,B|54:220|54:221,2,40
172,153,27365,6,0,B|209:188|208:188,2,40
80,125,28061,6,0,B|43:91,2,40
165,83,28757,5,0
258,63,29105,1,0
343,106,29453,1,0
414,168,29801,1,0
416,263,30149,2,0,B|443:299,2,40
374,240,30670,5,2
334,266,30844,1,2
325,223,31018,1,2
281,241,31192,1,2
222,167,31540,1,6
195,258,31888,1,6
261,292,42674,6,0,B|191:264|210:220,1,80
295,211,43370,1,0
364,145,44066,5,0
292,81,44414,1,0
107,177,45110,6,0,B|92:226|156:259,1,80
217,212,45806,1,0
194,171,45979,1,0
247,175,46153,2,0,B|260:114|324:146,1,80
338,220,47197,1,2
367,310,47545,6,0,B|321:321,2,40
367,312,48067,6,0,B|384:350,2,40
367,312,48589,6,0,B|422:286,2,40
338,274,49111,1,0
326,227,49285,1,0
336,180,49459,1,0
383,185,49633,6,0,B|410:219,2,40
427,115,50329,1,0
464,143,50503,1,0
471,96,50677,1,0
379,69,51025,2,0,B|336:97,1,40
314,120,51372,1,0
220,103,51720,5,0
220,103,51894,1,0
220,103,52068,1,0
128,127,52416,2,0,B|90:187|160:193,1,80
224,210,53112,1,6
342,84,60419,5,0
213,224,61115,1,0
92,76,61810,1,0
128,163,62158,1,0
92,74,62506,1,0
127,162,62854,1,0
316,103,63898,5,2
376,283,64246,1,2
230,159,64942,1,2
261,194,65116,1,2
225,225,65290,1,2
131,206,66334,6,0,B|121:261|123:262,1,40
149,283,66681,1,2
228,324,67029,1,0
269,259,67377,2,2,B|306:287|307:297,1,40
337,257,67725,2,2,B|384:232,2,40
337,257,68421,1,0
431,231,68769,6,0,B|447:181|395:170,1,80
310,157,69465,1,0
213,176,69813,2,0,B|173:199,1,40
134,185,70161,1,0
111,228,70335,1,0
80,189,70509,1,0
110,227,70683,1,0
134,186,70857,2,0,B|155:104|262:101,1,160
366,248,72248,5,0
105,304,73292,2,0,B|52:238,1,80
78,152,73988,2,0,B|132:158,1,40
151,125,74336,1,0
241,84,74684,2,0,B|330:88|330:88,1,80
322,182,75380,5,0
322,182,75496,1,0
322,182,75612,1,0
322,182,75728,1,0
265,278,76076,2,0,B|225:259|238:197,1,80
266,102,76771,5,0
363,111,77119,1,0
411,196,77467,1,0
379,186,77583,1,0
380,218,77699,1,0
350,203,77815,1,0
255,229,78163,1,0
198,309,78511,5,0
127,241,78859,1,0
127,208,78975,1,0
157,220,79091,1,0
156,187,79207,1,0
187,194,79323,1,0
184,161,79439,1,0
214,173,79555,1,0
276,97,79903,1,0
386,115,80251,6,0,B|457:89|393:174|505:201,1,160
479,231,81063,1,0
448,252,81179,1,0
420,277,81295,1,0
333,247,81643,5,0
235,241,81990,1,2
137,235,82338,1,6
128,292,88427,5,0
352,292,89123,1,0
178,150,89819,1,0
280,104,90167,1,0
179,152,90515,1,0
289,168,90863,2,0,B|256:268|148:234,1,160
120,135,91907,1,0
162,238,92254,2,0,B|195:138|303:172,1,160
397,160,93298,5,0
321,242,93646,1,2
254,152,93994,6,0,B|197:146|184:192,1,80
173,294,94690,5,0
127,191,95038,1,0
127,191,95212,1,0
126,191,95386,2,0,B|127:91|162:128,1,80
237,182,96082,1,6
179,86,96430,1,6
416,96,97473,5,0
327,164,97821,1,0
415,95,98169,2,0,B|295:41|330:188,1,160
203,243,99213,1,6
91,238,99561,5,2
161,151,99909,1,2
251,84,100257,2,2,B|308:48|328:76,2,80
160,151,101301,1,0
208,178,101475,1,0
160,151,101649,1,0
110,251,101997,1,0
161,151,102345,1,6
257,93,102692,5,0
369,93,103040,2,0,B|435:120|431:155,2,80
312,89,103910,1,0
256,87,104084,1,0
258,142,104258,1,0
263,197,104432,1,6
178,242,106172,5,0
222,139,106520,1,0
253,246,106868,1,0
222,139,107216,1,0
222,139,107390,1,0
222,139,107564,2,0,B|280:189|264:228,2,80
150,224,108607,1,0
261,221,108955,1,0
262,108,109303,5,0
206,116,109477,1,0
261,109,109651,1,0
262,108,109825,1,0
244,161,109999,1,6
302,164,121829,5,0
165,177,123220,1,0
350,296,124612,1,0
207,241,126004,5,0
207,241,126352,1,0
207,241,126700,1,0
207,241,127048,1,0
207,241,127222,1,0
207,241,127396,1,6
324,132,132962,5,0
324,243,133310,1,0
212,245,133658,1,0
324,243,134006,1,0
270,225,134180,1,0
212,245,134354,1,0
256,142,134702,1,0
104,305,135746,5,0
60,201,136094,2,0,B|128:224|124:255,1,80
233,268,136790,1,0
189,233,136964,1,0
227,191,137138,1,0
122,151,137486,1,0
147,101,137660,1,0
190,135,137834,1,0
190,135,138007,1,0
190,135,138181,1,0
190,135,138355,1,0
147,101,138529,2,0,B|88:193|195:282|272:194,1,240
436,63,140269,5,0
434,175,140617,1,0
341,237,140965,1,0
341,237,141139,1,0
341,237,141313,1,0
341,237,141487,1,0
341,237,141661,1,0
269,150,142009,6,2,B|328:113|329:113,2,40
226,254,142705,1,0
189,148,143053,1,0
160,196,143226,1,0
189,148,143400,1,0
86,102,143748,1,0
131,321,144444,1,4
257,192,145140,5,2
257,192,145314,1,2
257,192,145488,1,2
257,192,145662,1,2
257,192,145836,1,2
257,192,146010,1,2
65,303,154534,5,0
95,115,155229,1,0
192,278,155925,1,0
220,89,156621,1,0
303,133,156969,2,0,B|321:88|393:132,1,80
353,211,157665,1,0
448,320,158362,5,0
302,205,159057,1,0
253,286,159405,2,0,B|167:247|185:151,1,160
321,46,160797,1,0
449,186,161493,1,0
280,274,162189,1,0
326,183,162537,1,0
289,95,162885,1,0
203,136,163233,2,0,B|185:91|113:135,1,80
140,214,163929,1,6
295,325,164972,6,0,B|244:302|238:265,1,80
240,272,165668,1,0
240,271,166016,1,0
343,228,166364,2,0,B|322:171|273:172,1,80
177,176,167060,1,0
246,87,167408,1,0
355,111,167756,6,0,B|347:178|280:155|281:154|282:156|282:156|282:155|283:157,1,80
202,213,168452,1,0
277,295,168800,1,0
404,190,170017,1,0
405,191,170364,1,0
370,297,170712,6,0,B|283:276|286:156,1,160
242,91,171756,1,0
204,148,172104,2,0,B|178:258|82:251,1,160
101,157,173148,1,2
162,84,173496,1,0
243,35,173844,1,0
243,82,174018,1,0
290,83,174192,1,0
351,176,174540,6,0,B|319:281|303:251,1,80
163,193,175409,1,2
164,192,175757,1,2
113,291,176105,2,0,B|55:294|48:239,1,80
83,145,176801,2,0,B|35:147|35:148,2,40
191,114,177497,2,0,B|228:149|227:149,2,40
78,122,178193,2,0,B|41:88,2,40
127,94,178715,5,0
233,60,179064,1,0
200,167,179411,1,0
301,119,179759,1,0
369,156,180107,2,2,B|443:127,2,40
294,191,180629,1,6
193,255,180977,1,6
