osu file format v5

[General]
AudioFilename: 06 - So Long, Lonesome.mp3
AudioLeadIn: 0
PreviewTime: 119886
Countdown: 0
SampleSet: Soft
StackLeniency: 0.7
Mode: 0
LetterboxInBreaks: 1
EditorBookmarks: 58151,71868,92444,133620,154196,167912,195346

[Metadata]
Title:So Long, Lonesome
Artist:Explosions In The Sky
Creator:CheeseWarlock
Version:Hard
Source:
Tags:calm quiet relaxing instrumental post-rock

[Difficulty]
HPDrainRate:5
CircleSize:6
OverallDifficulty:2
SliderMultiplier:1.5
SliderTickRate:1

[Events]
//Background and Video events
0,0,"night.jpg"
//Break Periods
2,106404,118358
//Storyboard Layer 0 (Background)
//Storyboard Layer 1 (Failing)
//Storyboard Layer 2 (Passing)
//Storyboard Layer 3 (Foreground)
//Storyboard Sound Samples
//Background Colour Transformations
3,100,163,162,255

[TimingPoints]
30766,571.466669206519,3,2,0,70,1

[Colours]
Combo1 : 179,205,232
Combo2 : 236,225,91

[HitObjects]
72,24,30766,2,0,B|73:96|104:144,1,112.5
112,168,31337,1,0
64,224,31623,1,0
128,264,31908,1,8
264,320,32480,2,0,B|344:296|360:240,1,112.5
368,224,33051,1,0
304,176,33337,1,0
256,232,33623,1,2
352,120,34194,6,0,B|440:64|472:136,1,112.5
472,144,34766,1,0
440,208,35052,1,0
408,272,35337,1,8
272,344,35909,2,0,B|188:362|128:328,1,112.5
128,328,36480,1,0
64,288,36766,1,0
112,232,37052,1,2
32,104,37623,6,0,B|32:32|144:32,1,112.5
144,32,38195,1,0
208,72,38480,2,8,B|168:128,2,37.5
352,32,39338,2,0,B|488:32|464:80,1,112.5
488,80,39909,1,0
432,128,40195,2,2,B|464:160,2,37.5
296,208,41052,5,0
216,208,41338,2,0,B|216:288,1,75
296,280,41909,2,0,B|296:360,1,75
216,352,42481,1,0
216,280,42766,1,0
216,208,43052,2,0,B|216:128,1,75
296,136,43624,2,0,B|296:232,1,75
368,208,44195,5,2
408,200,44338,1,2
440,176,44481,1,2
480,112,44766,2,0,B|497:57|472:24,3,75
416,72,45909,1,2
384,48,46052,1,2
344,48,46195,1,2
272,64,46481,1,0
208,104,46767,1,0
152,160,47052,1,8
128,184,47195,1,8
104,208,47338,1,8
160,256,47624,5,2
184,232,47767,1,2
208,208,47910,1,2
264,152,48195,2,0,B|312:104|360:160,3,75
392,184,49338,1,2
416,208,49481,1,2
424,240,49624,1,2
400,312,49910,1,0
336,352,50195,1,0
256,352,50481,1,8
216,352,50624,1,8
176,352,50767,1,8
176,272,51053,5,2
216,272,51195,1,2
256,272,51338,1,2
328,272,51624,2,0,B|400:272|416:240,3,75
448,200,52767,1,2
464,168,52910,1,2
464,128,53053,1,2
392,152,53338,1,0
392,152,53624,1,0
344,96,53910,1,8
320,128,54053,1,8
312,160,54196,1,8
240,160,54481,5,2
224,128,54624,1,2
200,96,54767,1,2
144,48,55053,2,0,B|92:24|64:80,3,75
32,120,56196,1,2
24,152,56339,1,2
32,184,56482,1,2
104,152,56767,1,0
104,152,57053,1,0
168,184,57339,1,8
184,152,57482,1,8
168,120,57624,1,8
288,32,58196,5,2
360,40,58482,1,0
424,80,58767,1,0
456,144,59053,1,0
456,144,59148,1,0
456,144,59244,1,0
456,144,59339,1,8
464,216,59625,2,0,B|471:317|384:336,1,150
320,344,60482,1,0
240,344,60768,1,2
160,344,61053,1,8
32,264,61625,5,0
40,192,61910,1,0
72,128,62196,1,0
128,80,62482,1,0
128,80,62577,1,0
128,80,62672,1,0
128,80,62768,1,8
192,40,63053,2,0,B|268:9|336:16|368:48,1,150
400,64,63911,1,2
400,64,64196,1,2
400,64,64482,1,8
376,208,65054,5,0
352,280,65339,1,0
288,320,65625,1,0
216,328,65911,1,0
192,328,66006,1,0
168,320,66101,1,0
144,304,66196,1,8
88,256,66482,2,0,B|48:228|56:176,1,75
120,160,67054,2,0,B|114:196|154:224,1,75
216,264,67625,1,2
288,280,67911,1,8
368,152,68482,5,0
312,104,68768,1,0
240,112,69054,1,0
184,160,69340,1,0
168,184,69435,1,0
168,208,69530,1,0
184,232,69625,1,8
232,288,69911,2,0,B|280:344|448:360,1,225
440,280,71054,1,2
440,280,71340,1,8
448,128,71911,6,0,B|360:24|268:244|144:112,1,300
112,88,73340,2,0,B|40:16|48:48,1,75
40,112,73911,2,0,B|96:168,1,75
144,216,74483,1,8
144,216,74768,1,8
240,336,75340,6,0,B|328:376|432:288|288:264|448:152,1,300
480,112,76769,2,0,B|526:43|408:16|304:48,1,225
240,56,77912,1,8
240,56,78197,1,8
112,128,78769,6,0,B|40:163|96:280|328:256,1,300
368,256,80197,2,0,B|460:242|416:128|384:136,1,150
344,96,81055,1,0
280,56,81340,1,8
240,120,81626,1,8
240,272,82198,6,0,B|252:372|40:361|104:136,1,300
104,104,83626,2,0,B|123:40|200:88|160:192,1,150
152,232,84483,1,0
184,296,84769,1,8
256,312,85055,1,8
400,280,85626,6,0,B|472:160|288:192|288:192|144:200|248:80|248:80|280:0|128:40,1,525
80,56,87912,1,8
40,120,88198,1,8
48,192,88484,1,8
168,104,89055,6,0,B|248:96|176:232|344:136|344:136|448:104|328:272|496:160,1,375
480,104,90770,1,2
440,40,91055,1,0
368,24,91341,1,2
296,32,91627,1,8
224,56,91912,1,8
120,168,92484,6,2,B|48:232|128:296,2,150,2|2|8
176,216,93913,1,0
208,232,94055,1,8
240,240,94198,2,2,B|304:200|272:128,1,112.5
272,104,94770,2,0,B|256:32|320:32,1,75
368,40,95341,1,0
424,96,95627,1,0
448,168,95913,6,2,B|480:256|448:344|256:320,1,300,2|8
192,312,97341,1,0
160,296,97484,1,8
136,264,97627,2,2,B|104:208|184:192|144:152,1,112.5
128,128,98199,2,0,B|80:88|48:152|56:168,1,75
56,208,98770,1,0
120,344,99342,6,0,B|192:232|200:360|240:288|240:288|272:240|304:304|384:216,1,300
392,152,100770,1,0
360,80,101056,2,0,B|288:48|256:88|264:152|264:152|184:128|256:208|112:288|72:192,1,375
64,136,102770,6,0,B|72:56|136:56,1,112.5
168,56,103342,2,0,B|232:56|264:120,1,112.5
280,144,103913,2,0,B|320:216|392:192,1,112.5
408,200,104485,2,2,B|464:200|464:256,1,75
464,280,104913,1,0
456,320,105056,2,2,B|430:364|368:344,1,75
352,344,105485,1,0
320,328,105628,2,2,B|264:296|256:256,1,75
248,240,106056,1,2
240,200,106199,1,4
360,48,119914,5,2
408,104,120200,1,0
440,168,120486,1,0
456,240,120772,1,0
432,240,120867,1,0
408,232,120962,1,0
384,216,121057,1,8
320,168,121343,2,0,B|253:136|326:53|144:56,1,225
72,56,122486,1,2
120,112,122772,1,8
72,256,123343,5,2
144,256,123629,1,0
216,232,123915,1,0
280,192,124200,1,0
296,176,124296,1,0
304,152,124391,1,0
304,128,124486,1,8
304,56,124772,2,0,B|353:44|368:104,2,75
224,56,125629,1,0
152,64,125915,1,2
88,104,126200,1,8
72,248,126772,5,2
96,312,127058,1,0
160,344,127343,1,0
232,344,127629,1,0
256,336,127724,1,0
272,320,127820,1,0
280,296,127915,1,8
272,224,128201,2,0,B|264:152|176:216|152:120,1,150
232,120,129058,1,0
296,152,129344,1,2
296,80,129629,1,8
440,120,130201,5,2
432,192,130486,1,0
392,256,130772,1,0
336,304,131058,1,0
336,304,131153,1,0
336,304,131248,1,0
336,304,131344,1,8
264,328,131629,2,0,B|232:344|224:296|280:304,3,75
328,248,132772,1,2
360,176,133058,1,8
224,120,133630,6,2,B|160:160|136:88|80:128|80:128|88:184|40:208|72:232|152:240,2,300
288,80,136201,1,0
360,48,136487,1,0
424,80,136773,1,0
464,144,137058,2,2,B|512:192|392:168|440:272|440:272|368:280|400:368|296:328,1,300
248,288,138487,2,0,B|224:256|264:232|296:248|296:248|328:264|360:248|344:200,1,150
336,160,139344,1,0
336,160,139487,1,0
336,160,139630,1,0
296,96,139916,1,0
232,56,140201,1,4
160,40,140487,6,2,B|88:56|128:168|128:168|168:120|200:168|168:272|136:248|136:248|128:240,1,300
72,280,141916,1,4
144,304,142202,1,8
216,288,142487,1,2
272,232,142773,1,0
296,160,143059,1,8
296,160,143202,1,0
296,160,143344,1,0
296,80,143630,1,0
232,32,143916,5,2
160,48,144202,1,0
120,112,144487,1,0
128,184,144773,1,2
176,240,145059,1,0
248,264,145345,2,0,B|320:280|304:216|304:216|376:248|448:176|488:288,1,300,2|0
464,344,146773,1,0
392,360,147059,1,0
312,360,147345,6,2,B|152:360|288:256|168:224,1,225
104,192,148488,1,0
56,128,148773,2,0,B|8:64|112:24|128:96|128:96|160:32|240:112|160:160,1,300,0|8
104,192,150202,1,8
216,88,150774,6,0,B|264:56|312:104,1,75,2|0
264,160,151345,2,0,B|304:200|360:152,1,75,2|0
400,136,151916,2,0,B|440:192|400:224,1,75,2|8
360,256,152488,1,2
296,296,152774,1,0
272,304,152869,1,0
248,312,152964,1,0
224,312,153059,1,0
152,312,153345,1,0
80,288,153631,1,8
48,216,153917,1,2
56,80,154202,5,4
448,72,155917,1,4
368,280,156488,1,0
216,112,157060,1,2
88,296,157631,1,4
256,32,159346,1,0
152,344,161060,6,4,B|320:344|432:224,1,300,4|0
200,208,162774,1,0
32,56,163346,1,0
256,56,163917,1,2
432,192,164489,1,8
256,320,166203,5,8
352,272,166489,1,0
352,272,166632,1,0
352,272,166775,1,8
400,176,167060,1,0
400,176,167203,1,0
400,176,167346,1,8
400,80,167632,1,4
368,80,167727,1,4
336,88,167822,1,4
304,104,167918,5,6
232,176,168203,1,0
152,104,168489,1,0
232,176,168775,1,0
152,104,169060,1,0
80,184,169346,2,0,B|56:216|16:208,2,37.5,0|0|12
144,264,169918,2,0,B|112:296|128:280|88:320,1,75,0|12
232,312,170489,2,0,B|208:344|224:360,2,37.5,0|0|12
336,312,171061,1,4
368,304,171156,1,4
392,280,171251,1,4
408,248,171346,5,6
416,144,171632,1,0
336,72,171918,1,0
312,176,172204,1,0
416,144,172489,1,0
224,112,172775,6,0,B|168:104|192:80,2,37.5,0|0|12
208,216,173346,2,0,B|240:248|280:280,1,75,0|12
168,312,173918,2,0,B|192:344|176:360,2,37.5,0|0|12
80,248,174489,1,4
56,224,174585,1,4
48,192,174680,1,4
48,160,174775,5,6
88,64,175061,2,0,B|184:16|224:80|224:80|288:56|248:152|328:136|328:136|344:104|400:120,1,337.5
377,115,176490,1,12
296,48,176775,2,12,B|352:16|392:40,1,75,0|4
464,72,177347,1,0
464,72,177490,1,0
464,72,177632,1,12
488,176,177918,1,4
488,176,178013,1,4
488,176,178109,1,4
488,176,178204,5,6
432,280,178490,1,0
48,208,179061,1,0
328,176,179633,2,0,B|344:152|336:136,2,37.5,0|0|12
328,176,180204,2,0,B|264:176|272:240,1,75,0|12
272,214,180776,2,0,B|224:216|240:184,2,37.5,0|0|12
360,264,181347,1,4
456,288,181633,6,4,B|488:296|480:344|424:344|424:344|336:352|272:296|224:344|224:344|216:200|112:320|96:160,1,525
88,80,183919,1,4
48,176,184204,1,4
192,128,184490,1,4
392,80,184776,1,4
392,80,185062,6,4,B|440:48|472:104|440:160|400:160|400:160|376:112|304:120|256:192|256:192|208:248|288:312|128:304,1,525,4|0
132,304,187347,1,0
132,304,187633,1,4
132,304,187919,1,4
40,64,188490,6,0,B|104:24|152:96|88:136|88:136|120:192|240:88|176:272|464:264,1,525,4|0
432,160,190776,1,0
360,88,191062,1,2
264,56,191348,1,2
256,192,191919,12,0,195348
