osu file format v5

[General]
AudioFilename: 06 - So Long, Lonesome.mp3
AudioLeadIn: 0
PreviewTime: 119886
Countdown: 0
SampleSet: Soft
StackLeniency: 0.7
Mode: 0
LetterboxInBreaks: 1
EditorBookmarks: 167884,195317

[Metadata]
Title:So Long, Lonesome
Artist:Explosions In The Sky
Creator:CheeseWarlock
Version:Easy
Source:
Tags:calm quiet relaxing instrumental post-rock

[Difficulty]
HPDrainRate:3
CircleSize:5
OverallDifficulty:2
SliderMultiplier:1.3
SliderTickRate:1

[Events]
//Background and Video events
0,0,"night.jpg"
//Break Periods
2,106399,118354
//Storyboard Layer 0 (Background)
//Storyboard Layer 1 (Failing)
//Storyboard Layer 2 (Passing)
//Storyboard Layer 3 (Foreground)
//Storyboard Sound Samples
//Background Colour Transformations
3,100,163,162,255

[TimingPoints]
30766,571.466669206519,3,2,0,90,1

[Colours]
Combo1 : 179,205,232
Combo2 : 236,225,91

[HitObjects]
64,16,30766,1,0
64,256,32480,1,0
304,256,34194,1,0
304,16,35909,1,0
96,32,37623,2,0,B|279:160|464:32,1,390
464,240,41052,2,0,B|331:-36|208:256,1,390
48,224,44195,6,0,B|24:291|80:288,1,65
224,320,45909,2,0,B|256:288|304:320,1,65
384,304,47052,2,0,B|416:256|368:224,1,65
368,208,47624,6,0,B|336:160|288:176,1,65
144,144,49338,2,0,B|104:116|144:80,1,65
208,48,50481,2,0,B|250:16|288:64,1,65
304,64,51053,6,0,B|328:98|384:96,1,65
480,208,52767,6,0,B|480:256|432:272,1,65
352,304,53910,2,0,B|293:310|272:272,1,65
256,272,54481,6,0,B|208:240|208:208,1,65
128,80,56196,6,0,B|112:48,2,32.5
176,160,57339,2,0,B|192:192,2,32.5
144,96,58196,5,2
80,64,58767,1,0
32,112,59339,1,0
32,176,59910,5,0
64,240,60482,1,2
112,288,61053,1,0
176,320,61625,5,2
240,336,62196,1,0
304,336,62768,1,0
368,320,63339,1,0
416,272,63911,1,2
448,208,64482,1,0
464,144,65054,6,0,B|483:0|256:32,1,260
208,32,66768,2,0,B|64:48|45:181|168:208,1,260
208,224,68482,2,0,B|331:252|268:55|416:64,1,260
448,80,70197,2,0,B|512:96|512:240|416:304,1,260
368,336,71911,6,2,B|304:378|224:320,3,130
192,288,74197,1,0
144,224,74768,1,0
112,160,75340,2,2,B|83:64|176:48,3,130
352,96,78769,5,2
416,128,79340,1,2
448,192,79912,1,2
432,256,80483,1,2
384,304,81055,1,0
320,336,81626,1,0
256,352,82198,6,2,B|160:360|216:296|120:288,3,130
80,272,84483,1,0
32,224,85055,1,0
16,160,85626,2,2,B|8:80|112:48,3,130
288,32,89055,5,2
336,80,89627,1,2
368,144,90198,1,2
384,208,90770,1,2
368,272,91341,1,0
320,320,91912,1,0
256,336,92484,5,2
80,224,94198,1,2
32,160,94770,1,2
64,96,95341,1,2
128,64,95913,1,2
336,96,97627,5,0
480,240,99342,5,2
288,336,101056,1,2
224,304,101627,1,2
176,256,102199,1,2
144,192,102770,1,2
40,32,104485,2,0,B|80:64|80:112,6,65
224,320,119914,5,2
160,304,120486,1,0
112,256,121057,1,0
96,192,121629,1,0
112,128,122200,1,2
160,80,122772,1,0
224,64,123343,5,2
288,64,123915,1,0
352,72,124486,1,0
408,104,125058,1,0
440,160,125629,1,2
448,224,126200,1,0
448,288,126772,6,0,B|448:360|200:336,1,260
152,328,128486,2,0,B|24:304|40:128|144:144,1,260
184,128,130201,2,0,B|273:140|272:240,2,130
120,112,131915,2,0,B|7:126|50:-4|224:32,1,260
272,40,133630,6,2,B|387:64|357:108|312:112,3,130
272,136,135915,1,0
208,144,136487,1,0
144,144,137058,2,2,B|56:144|32:232,3,130
184,328,140487,5,2
152,272,141059,1,2
152,208,141630,1,2
168,144,142202,1,2
200,88,142773,1,0
256,56,143344,1,0
320,48,143916,5,2
384,56,144487,1,2
440,80,145059,1,2
480,128,145630,1,2
472,320,147345,6,2,B|356:362|280:312,1,195
256,296,148488,1,0
208,248,149059,2,2,B|120:168|136:72|232:144,1,195
232,144,150202,1,0
280,184,150774,2,2,B|344:240|384:152|264:72,1,195
248,72,151916,1,0
184,64,152488,2,2,B|64:48|72:200,1,195
72,216,153631,1,0
72,280,154202,5,2
240,328,155917,2,2,C|408:336|456:288|432:232|336:224,1,390
288,216,158203,1,0
232,176,158774,1,0
208,112,159346,1,0
256,72,159917,2,2,B|283:22|336:72,2,65
208,112,161060,5,0
96,264,162774,2,0,B|160:312|240:312,3,130
400,264,166203,2,0,B|432:240|432:208,1,65
432,176,166775,2,0,B|432:120|384:120,1,65
368,112,167346,2,0,B|328:104|288:120,1,65
272,128,167918,5,4
208,144,168489,1,0
152,176,169060,1,0
136,200,169346,2,2,B|93:240|128:280,1,65
144,312,170203,1,0
168,328,170489,2,2,B|208:352|248:336,1,65
264,336,171061,6,4,B|312:328|336:304,1,65
368,264,171918,1,0
400,208,172489,1,0
416,176,172775,2,2,B|435:138|408:96,1,65
384,56,173632,1,0
360,32,173918,2,2,B|304:8|280:56,1,65
272,48,174489,6,4,B|216:80|208:104,1,65
168,128,175347,1,0
128,176,175918,1,0
112,200,176204,2,2,B|88:232|96:272,1,65
120,320,177061,1,0
144,344,177347,2,2,B|184:368|224:352,1,65
240,344,177918,6,4,B|281:338|296:288,1,65
312,248,178775,1,0
328,184,179347,1,0
328,152,179633,2,2,B|328:96|384:88,1,65
416,80,180490,1,0
448,80,180776,2,2,B|491:95|472:144,1,65
464,160,181347,6,4,B|440:208|416:224,1,65
256,192,182204,12,4,184490
88,128,184776,6,4,B|96:88|152:80,1,65
256,192,185633,12,4,187919
232,304,188205,6,4,B|248:351|312:328,1,65
256,192,189062,12,2,191348
456,144,191633,6,2,B|488:176|464:216,1,65
256,192,192491,12,0,194776
256,88,195062,6,0,B|256:16,1,65
