osu file format v14

[General]
AudioFilename: audio.mp3
AudioLeadIn: 0
PreviewTime: 80515
Countdown: 1
SampleSet: Normal
StackLeniency: 0.7
Mode: 0
LetterboxInBreaks: 0
WidescreenStoryboard: 0

[Editor]
DistanceSpacing: 0.8
BeatDivisor: 4
GridSize: 4
TimelineZoom: 1

[Metadata]
Title:subtractive
TitleUnicode:subtractive
Artist:Expander
ArtistUnicode:Expander
Creator:Kyshiro
Version:wub wub motherfucker
Source:
Tags:
BeatmapID:1050214
BeatmapSetID:493044

[Difficulty]
HPDrainRate:6
CircleSize:4.3
OverallDifficulty:8.5
ApproachRate:9.4
SliderMultiplier:2
SliderTickRate:1

[Events]
//Background and Video events
0,0,"wallhaven-134122.jpg",0,0
//Break Periods
//Storyboard Layer 0 (Background)
//Storyboard Layer 1 (Fail)
//Storyboard Layer 2 (Pass)
//Storyboard Layer 3 (Foreground)
//Storyboard Sound Samples

[TimingPoints]
516,333.333333333333,4,1,0,70,1,0
516,-66.6666666666667,4,1,0,70,0,0
1182,-100,4,1,0,70,0,0
2515,-66.6666666666667,4,1,0,70,0,0
3182,-100,4,1,0,70,0,0
3515,-76.9230769230769,4,1,0,70,0,0
5849,-100,4,1,0,70,0,0
6849,-66.6666666666667,4,1,0,70,0,0
7182,-100,4,1,0,70,0,0
8015,-66.6666666666667,4,1,0,70,0,0
9349,-100,4,1,0,70,0,0
13849,-66.6666666666667,4,1,0,70,0,0
15182,-83.3333333333333,4,1,0,70,0,0
17349,-66.6666666666667,4,1,0,70,0,0
19182,-58.8235294117647,4,1,0,70,0,0
19849,-71.4285714285714,4,1,0,70,0,0
20515,-58.8235294117647,4,1,0,70,0,0
21849,-100,4,1,0,70,0,0
23182,-66.6666666666667,4,1,0,70,0,0
28182,-55.5555555555556,4,1,0,70,0,0
28349,-66.6666666666667,4,1,0,70,0,0
29849,-100,4,1,0,70,0,0
30515,-66.6666666666667,4,1,0,70,0,0
30849,-100,4,1,0,70,0,0
31015,-76.9230769230769,4,1,0,70,0,0
31182,-66.6666666666667,4,1,0,70,0,0
32182,-50,4,1,0,70,0,0
32515,-83.3333333333333,4,1,0,70,0,0
33182,-200,4,1,0,70,0,0
33849,-100,4,1,0,70,0,0
34182,-133.333333333333,4,1,0,70,0,0
34515,-83.3333333333333,4,1,0,70,0,0
35182,-200,4,1,0,70,0,0
35515,-133.333333333333,4,1,0,70,0,0
35849,-100,4,1,0,70,0,0
36349,-50,4,1,0,70,0,0
36682,-100,4,1,0,70,0,0
37182,-66.6666666666667,4,1,0,70,0,0
37849,-100,4,1,0,70,0,0
38515,-66.6666666666667,4,1,0,70,0,0
39182,-133.333333333333,4,1,0,70,0,0
39682,-66.6666666666667,4,1,0,70,0,0
40182,-100,4,1,0,70,0,0
40849,-66.6666666666667,4,1,0,70,0,0
41182,-50,4,1,0,70,0,0
41849,-83.3333333333333,4,1,0,70,0,0
42015,-66.6666666666667,4,1,0,70,0,0
42515,-100,4,1,0,70,0,0
42682,-66.6666666666667,4,1,0,70,0,0
42849,-100,4,1,0,70,0,0
43182,-66.6666666666667,4,1,0,70,0,0
43849,-100,4,1,0,70,0,0
44849,-66.6666666666667,4,1,0,70,0,0
45849,-100,4,1,0,70,0,0
46515,-66.6666666666667,4,1,0,70,0,0
47015,-50,4,1,0,70,0,0
47515,-100,4,1,0,70,0,0
47849,-66.6666666666667,4,1,0,70,0,0
48515,-100,4,1,0,70,0,0
51849,-66.6666666666667,4,1,0,70,0,0
52182,-133.333333333333,4,1,0,70,0,0
52515,-66.6666666666667,4,1,0,70,0,0
53182,-100,4,1,0,70,0,0
59515,-66.6666666666667,4,1,0,70,0,0
59849,-100,4,1,0,70,0,0
60515,-66.6666666666667,4,1,0,70,0,0
61849,-200,4,1,0,70,0,0
63182,-100,4,1,0,70,0,0
65682,-66.6666666666667,4,1,0,70,0,0
67182,-100,4,1,0,70,0,0
70182,-66.6666666666667,4,1,0,70,0,0
70515,-100,4,1,0,70,0,0
71182,-83.3333333333333,4,1,0,70,0,0
72515,-133.333333333333,4,1,0,70,0,0
73682,-66.6666666666667,4,1,0,70,0,0
75182,-200,4,1,0,70,0,0
78515,-400,4,1,0,70,0,0
79015,-200,4,1,0,70,0,0
80515,-80,4,1,0,70,0,1
101682,-66.6666666666667,4,1,0,70,0,0
101849,-66.6666666666667,4,1,0,70,0,1
102515,-100,4,1,0,70,0,1
103849,-66.6666666666667,4,1,0,70,0,1
104515,-100,4,1,0,70,0,1
104849,-66.6666666666667,4,1,0,70,0,1
106182,-100,4,1,0,70,0,1
107182,-66.6666666666667,4,1,0,70,0,1
107765,-100,4,1,0,70,0,1
108182,-66.6666666666667,4,1,0,70,0,1
110015,-100,4,1,0,70,0,1
112515,-66.6666666666667,4,1,0,70,0,0

[Colours]
Combo1 : 234,216,162
Combo2 : 237,184,206
Combo3 : 176,211,255

[HitObjects]
89,140,516,6,0,P|115:185|121:222,1,75.0000028610231
223,68,682,2,0,P|197:113|191:150,1,75.0000028610231
119,205,849,2,0,L|108:300,1,75.0000028610231
217,339,1015,1,0,0:0:0:0:
217,339,1099,1,0,0:0:0:0:
217,339,1182,2,0,B|254:292|254:292|346:296|346:296|307:356|307:356|387:356,1,300
474,312,1765,5,0,0:0:0:0:
474,312,1849,2,0,P|479:252|422:306,1,150
338,214,2182,1,0,0:0:0:0:
316,166,2265,1,0,0:0:0:0:
373,115,2349,1,0,0:0:0:0:
351,67,2432,1,0,0:0:0:0:
276,67,2515,2,0,B|242:54|242:54|217:17,1,75.0000028610231
115,136,2682,2,0,B|149:123|149:123|170:91,1,75.0000028610231
19,114,2849,1,0,0:0:0:0:
7,164,2932,1,0,0:0:0:0:
41,203,3015,1,0,0:0:0:0:
30,254,3099,1,0,0:0:0:0:
87,297,3182,6,0,P|140:295|159:243,1,100
294,117,3515,6,0,P|272:101|231:94,1,64.9999970245363
366,204,3682,2,0,P|397:198|424:180,1,64.9999970245363
266,207,3849,2,0,B|258:229|258:229|260:255|260:255|247:276,1,64.9999970245363
387,90,4015,1,0,0:0:0:0:
79,184,4349,5,0,0:0:0:0:
164,164,4432,1,0,0:0:0:0:
138,246,4515,2,0,L|140:322,1,64.9999970245363
175,293,4682,2,0,L|173:369,1,64.9999970245363
47,93,5015,6,0,P|65:73|101:94,1,64.9999970245363
203,96,5182,2,0,B|233:81|233:81|250:47,1,64.9999970245363
139,174,5349,2,0,B|153:202|153:202|183:217,1,64.9999970245363
277,167,5515,1,0,0:0:0:0:
363,175,5627,1,0,0:0:0:0:
421,238,5738,1,0,0:0:0:0:
433,323,5849,6,0,L|444:260,1,50
310,315,6015,2,0,L|318:364,1,50
197,298,6182,1,0,0:0:0:0:
295,190,6349,1,0,0:0:0:0:
295,190,6432,1,0,0:0:0:0:
295,190,6515,2,0,B|260:180|260:180|226:189|226:189|193:186,1,100
134,145,6765,1,0,0:0:0:0:
134,145,6849,2,0,L|142:62,1,75.0000028610231
127,228,7015,2,0,L|134:302,1,75.0000028610231
327,273,7182,6,0,L|212:261,1,100
271,364,7432,1,0,0:0:0:0:
300,344,7515,1,0,0:0:0:0:
304,378,7599,1,0,0:0:0:0:
335,363,7682,1,0,0:0:0:0:
364,343,7765,1,0,0:0:0:0:
368,377,7849,2,0,L|420:375,1,50
488,266,8015,2,0,P|469:240|436:262,1,75.0000028610231
293,184,8182,2,0,P|312:158|345:180,1,75.0000028610231
211,259,8349,2,0,P|192:233|159:255,1,75.0000028610231
37,138,8515,6,0,B|23:167|23:167|110:180|110:180|108:142,1,150.000005722046
94,25,8849,1,0,0:0:0:0:
53,257,9015,1,0,0:0:0:0:
94,25,9182,1,0,0:0:0:0:
57,89,9265,1,0,0:0:0:0:
108,150,9349,2,0,L|94:205,1,50
198,95,9515,2,0,L|212:150,1,50
238,250,9682,1,0,0:0:0:0:
238,250,10015,5,0,0:0:0:0:
260,283,10099,1,0,0:0:0:0:
279,248,10182,1,0,0:0:0:0:
238,250,10265,1,0,0:0:0:0:
260,283,10349,1,0,0:0:0:0:
279,248,10432,1,0,0:0:0:0:
238,250,10515,1,0,0:0:0:0:
260,283,10599,1,0,0:0:0:0:
279,248,10682,1,0,0:0:0:0:
238,250,10765,1,0,0:0:0:0:
260,283,10849,1,0,0:0:0:0:
279,248,10932,1,0,0:0:0:0:
260,283,11015,2,0,L|261:348,1,50
372,293,11182,6,0,B|399:335|399:335|402:283,1,100
263,156,11515,2,0,B|290:114|290:114|292:163,1,100
132,190,11849,1,0,0:0:0:0:
412,58,12015,2,0,B|349:94|349:94|216:62,1,200
442,153,12515,5,0,0:0:0:0:
271,212,12682,1,0,0:0:0:0:
381,283,12849,1,0,0:0:0:0:
409,273,12932,1,0,0:0:0:0:
409,243,13015,1,0,0:0:0:0:
381,234,13099,1,0,0:0:0:0:
363,258,13182,2,0,L|438:257,2,66.6666666666667
297,313,13515,1,0,0:0:0:0:
256,311,13599,1,0,0:0:0:0:
216,309,13682,2,0,L|132:305,1,50
67,353,13849,6,0,P|55:321|61:267,1,75.0000028610231
166,306,14015,2,0,P|178:274|172:220,1,75.0000028610231
56,280,14182,6,0,P|44:248|50:194,1,75.0000028610231
251,277,14349,2,0,P|263:245|257:191,1,75.0000028610231
45,207,14515,6,0,P|33:175|39:121,1,75.0000028610231
332,250,14682,2,0,P|344:218|338:164,1,75.0000028610231
176,137,14849,5,0,0:0:0:0:
253,360,15015,1,0,0:0:0:0:
474,315,15182,6,0,B|472:234|472:234|447:275,1,119.999996337891
254,242,15515,2,0,B|256:323|256:323|281:282,1,119.999996337891
361,222,15849,2,0,L|368:54,1,159.999995117188
306,10,16182,1,0,0:0:0:0:
226,17,16293,1,0,0:0:0:0:
173,77,16404,1,0,0:0:0:0:
105,34,16515,6,0,L|79:98,1,59.9999981689454
245,109,16682,2,0,L|219:173,1,59.9999981689454
173,77,16849,2,0,L|147:141,1,59.9999981689454
336,195,17015,1,0,0:0:0:0:
336,195,17099,1,0,0:0:0:0:
313,152,17182,2,0,L|287:216,1,59.9999981689454
431,230,17349,2,0,B|469:224|469:224|452:196|452:196|465:163|465:163|409:163,1,150.000005722046
204,261,17682,2,0,B|167:270|167:270|203:285,1,75.0000028610231
299,317,17849,5,0,0:0:0:0:
336,313,17932,1,0,0:0:0:0:
373,310,18015,1,0,0:0:0:0:
299,317,18182,1,0,0:0:0:0:
336,313,18265,1,0,0:0:0:0:
373,310,18348,1,0,0:0:0:0:
299,317,18515,2,0,B|344:326|344:326|389:302|389:302|455:312,1,150.000005722046
492,242,18765,1,0,0:0:0:0:
420,198,18849,1,0,0:0:0:0:
391,188,18932,1,0,0:0:0:0:
391,158,19015,1,0,0:0:0:0:
420,149,19099,1,0,0:0:0:0:
437,173,19182,6,0,P|360:168|333:157,1,85.0000016212464
204,261,19349,2,0,P|281:256|308:245,1,85.0000016212464
166,142,19515,2,0,P|89:137|62:126,1,85.0000016212464
266,68,19682,2,0,P|308:69|349:60,1,85.0000016212464
509,133,19849,6,0,B|474:125|474:125|466:89,1,69.9999978637696
434,207,20015,2,0,B|426:240|426:240|391:248,1,69.9999978637696
287,184,20182,2,0,B|294:150|294:150|329:142,1,69.9999978637696
258,284,20349,2,0,B|250:317|250:317|215:325,1,69.9999978637696
111,225,20515,6,0,P|146:210|174:246,1,85.0000016212464
71,135,20682,2,0,P|36:120|8:156,1,85.0000016212464
169,96,20849,2,0,P|204:81|232:117,1,85.0000016212464
339,202,21015,2,0,P|302:187|277:218,1,85.0000016212464
418,269,21182,6,0,L|508:265,1,85.0000016212464
211,288,21349,2,0,L|121:292,1,85.0000016212464
320,375,21515,1,0,0:0:0:0:
341,309,21599,1,0,0:0:0:0:
315,278,21682,1,0,0:0:0:0:
331,212,21765,1,0,0:0:0:0:
301,182,21849,6,0,L|317:124,2,50
102,119,22182,2,0,P|162:129|201:97,1,100
269,50,22432,1,0,0:0:0:0:
269,50,22515,1,0,0:0:0:0:
411,112,22682,1,0,0:0:0:0:
279,195,22849,1,0,0:0:0:0:
411,112,23015,1,0,0:0:0:0:
411,112,23099,1,0,0:0:0:0:
437,139,23182,5,0,0:0:0:0:
437,139,23265,1,0,0:0:0:0:
437,139,23349,2,0,L|420:218,1,75.0000028610231
265,241,23515,1,0,0:0:0:0:
265,241,23598,1,0,0:0:0:0:
265,241,23682,2,0,L|282:320,1,75.0000028610231
96,283,23849,2,0,B|169:301|169:301|107:357,1,150.000005722046
113,206,24099,2,0,B|185:224|185:224|157:145,1,150.000005722046
77,122,24349,1,0,0:0:0:0:
77,122,24432,1,0,0:0:0:0:
150,71,24515,5,0,0:0:0:0:
120,311,24682,1,0,0:0:0:0:
362,71,24849,1,0,0:0:0:0:
392,311,25016,1,0,0:0:0:0:
392,311,25099,1,0,0:0:0:0:
392,311,25182,2,0,P|419:278|412:239,1,75.0000028610231
260,204,25349,2,0,P|288:227|293:264,1,75.0000028610231
428,149,25515,2,0,P|385:148|359:178,1,75.0000028610231
139,247,25682,2,0,P|175:269|212:258,1,75.0000028610231
100,77,25849,6,0,B|61:72|61:72|85:103,1,75.0000028610231
123,112,26015,1,0,0:0:0:0:
123,112,26099,1,0,0:0:0:0:
142,143,26182,2,0,B|181:148|181:148|157:117,1,75.0000028610231
81,131,26349,2,0,B|76:170|76:170|107:146,1,75.0000028610231
160,82,26515,2,0,B|165:43|165:43|134:67,1,75.0000028610231
255,167,26682,1,0,0:0:0:0:
255,167,26765,1,0,0:0:0:0:
255,167,26849,2,0,P|300:160|342:132,1,75.0000028610231
453,253,27015,2,0,P|408:246|366:218,1,75.0000028610231
423,134,27182,5,0,0:0:0:0:
452,110,27265,1,0,0:0:0:0:
455,147,27349,1,0,0:0:0:0:
423,134,27432,1,0,0:0:0:0:
452,110,27515,1,0,0:0:0:0:
455,147,27599,1,0,0:0:0:0:
423,134,27682,1,0,0:0:0:0:
452,110,27765,1,0,0:0:0:0:
455,147,27849,2,0,P|418:91|413:66,1,75.0000028610231
339,170,28015,2,0,P|324:204|300:232,1,75.0000028610231
246,103,28182,2,0,P|209:47|204:22,1,89.9999972534181
130,126,28348,2,0,P|115:160|91:188,1,75.0000028610231
16,260,28515,6,0,B|73:243|119:283|119:283|79:304,1,150.000005722046
135,317,28765,1,0,0:0:0:0:
186,306,28849,2,0,B|151:287|151:287|197:247|254:264,1,150.000005722046
395,86,29182,2,0,L|381:176,1,75.0000028610231
418,111,29349,1,0,0:0:0:0:
418,111,29432,1,0,0:0:0:0:
418,111,29515,1,0,0:0:0:0:
418,111,29599,1,0,0:0:0:0:
418,111,29682,1,0,0:0:0:0:
418,111,29765,1,0,0:0:0:0:
418,111,29849,6,0,P|467:107|507:70,1,100
231,48,30182,1,0,0:0:0:0:
260,66,30265,1,0,0:0:0:0:
213,79,30349,1,0,0:0:0:0:
242,97,30432,1,0,0:0:0:0:
215,127,30515,1,0,0:0:0:0:
215,127,30599,1,0,0:0:0:0:
215,127,30682,2,0,P|154:114|121:95,1,75.0000028610231
282,197,30849,2,0,P|336:186|359:172,1,50
199,239,31015,2,0,P|145:228|122:214,1,64.9999970245363
274,352,31182,6,0,B|256:324|256:324|301:325|338:310|338:310|334:349,1,150.000005722046
412,357,31432,1,0,0:0:0:0:
412,357,31515,2,0,L|422:267,1,75.0000028610231
168,321,31682,2,0,L|208:384,1,75.0000028610231
292,162,31849,5,0,0:0:0:0:
249,175,31932,1,0,0:0:0:0:
249,220,32015,1,0,0:0:0:0:
292,234,32099,1,0,0:0:0:0:
318,198,32182,2,0,L|213:214,1,100
214,170,32349,2,0,L|319:154,1,100
477,129,32515,6,0,B|460:66|460:66|380:43|380:43|398:102|398:102|318:82|318:82|300:18,1,359.999989013672
74,103,33182,2,0,P|142:113|208:68,1,150.000005722046
352,187,33849,6,0,L|336:355,1,150
302,308,34182,2,0,L|312:194,1,112.500004291535
385,235,34515,6,0,L|378:303,1,59.9999981689454
280,121,34682,2,0,L|286:189,1,59.9999981689454
400,40,34849,2,0,L|393:108,1,59.9999981689454
490,181,35015,2,0,L|496:249,1,59.9999981689454
297,351,35182,6,0,P|249:343|208:321,1,75
292,220,35515,2,0,P|272:258|312:241,1,112.500004291535
178,256,35849,2,0,P|138:258|112:262,1,50
23,163,35932,1,0,0:0:0:0:
35,179,36015,1,0,0:0:0:0:
48,197,36099,2,0,P|81:197|109:192,1,50
283,62,36349,6,0,P|268:29|257:75,1,100
265,83,36682,6,0,L|270:146,1,50
188,170,36849,2,0,B|232:171|262:162|262:162|286:187|335:208,1,150
445,160,37182,2,0,L|465:76,1,75.0000028610231
379,92,37349,2,0,L|368:136,3,37.5000014305115
393,221,37515,1,0,0:0:0:0:
396,257,37599,1,0,0:0:0:0:
347,308,37682,1,0,0:0:0:0:
350,344,37766,1,0,0:0:0:0:
281,366,37849,6,0,B|250:312|250:312|220:364|220:364|188:313|188:313|161:367|161:367|131:318,1,300
154,169,38515,2,0,P|152:228|141:253,1,75.0000028610231
87,114,38682,2,0,P|175:86|226:122,2,150.000005722046
395,216,39182,6,0,P|307:188|256:224,1,150.000005722046
272,226,39682,1,0,0:0:0:0:
272,226,39765,1,0,0:0:0:0:
272,226,39849,2,0,P|220:244|180:240,1,75.0000028610231
326,317,40015,2,0,P|377:335|417:331,1,75.0000028610231
465,260,40182,2,0,L|476:149,1,100
298,18,40515,5,0,0:0:0:0:
151,152,40682,1,0,0:0:0:0:
344,199,40849,2,0,L|261:178,1,75.0000028610231
46,300,41182,2,0,L|156:287,1,100
154,27,41515,1,0,0:0:0:0:
145,66,41599,1,0,0:0:0:0:
180,83,41682,1,0,0:0:0:0:
171,121,41766,1,0,0:0:0:0:
205,142,41849,2,0,L|186:202,1,59.9999981689454
63,158,42015,6,0,P|53:124|63:74,1,75.0000028610231
182,271,42182,2,0,P|192:237|182:187,1,75.0000028610231
63,374,42349,2,0,P|53:340|63:290,1,75.0000028610231
248,383,42515,2,0,L|178:371,1,50
381,306,42682,2,0,P|419:301|464:277,1,75.0000028610231
291,123,42849,2,0,B|286:179|286:179|295:221|295:221|289:289,1,150
458,129,43182,6,0,P|412:107|358:173,1,150.000005722046
225,225,43432,2,0,P|157:242|125:180,1,150.000005722046
206,128,43682,1,0,0:0:0:0:
73,264,43849,6,0,L|57:371,1,100
439,264,44182,2,0,L|455:371,1,100
172,135,44515,2,0,L|156:242,1,100
340,135,44849,2,0,L|348:188,8,37.5000014305115
271,353,45349,5,0,0:0:0:0:
271,353,45432,1,0,0:0:0:0:
271,353,45515,2,0,P|255:302|260:261,1,75.0000028610231
435,228,45682,2,0,P|451:177|446:136,1,75.0000028610231
311,16,45849,2,0,P|293:67|301:125,1,100
118,200,46182,2,0,P|135:246|132:296,1,100
45,124,46515,6,0,B|16:97|16:97|23:56,1,75.0000028610231
230,141,46682,2,0,B|235:175|235:175|206:202,1,75.0000028610231
147,78,46849,1,0,0:0:0:0:
382,119,47015,2,0,P|343:135|350:95,1,100
490,209,47349,5,0,0:0:0:0:
379,280,47515,2,0,L|390:386,1,100
186,263,47849,2,0,L|260:271,1,75.0000028610231
120,348,48015,2,0,L|81:351,4,37.5000014305115
16,261,48349,1,0,0:0:0:0:
82,91,48515,6,0,B|106:136|106:136|96:183,1,100
284,127,48849,2,0,B|274:80|274:80|298:35,1,100
434,167,49182,2,0,B|458:212|458:212|448:259,1,100
390,323,49432,1,0,0:0:0:0:
320,277,49515,1,0,0:0:0:0:
280,270,49599,1,0,0:0:0:0:
218,315,49682,1,0,0:0:0:0:
178,322,49766,1,0,0:0:0:0:
115,272,49849,6,0,B|215:291|215:291|171:328,1,150
401,92,50432,2,0,B|301:111|301:111|345:148,1,150
451,181,50849,1,0,0:0:0:0:
275,224,51015,1,0,0:0:0:0:
369,359,51182,6,0,L|383:248,1,100
221,34,51515,2,0,L|233:133,1,100
48,358,51849,2,0,L|66:207,1,150.000005722046
329,263,52182,6,0,P|264:248|220:274,1,112.500004291535
281,327,52515,1,0,0:0:0:0:
431,215,52682,2,0,L|487:213,3,37.5000014305115
362,145,52849,2,0,L|438:142,3,75.0000028610231
229,92,53182,2,0,P|278:101|358:35,1,150
267,14,53515,1,0,0:0:0:0:
233,24,53599,1,0,0:0:0:0:
167,19,53682,1,0,0:0:0:0:
133,29,53766,1,0,0:0:0:0:
63,27,53849,5,0,0:0:0:0:
60,46,53932,1,0,0:0:0:0:
57,65,54015,1,0,0:0:0:0:
54,85,54099,1,0,0:0:0:0:
51,48,54349,5,0,0:0:0:0:
48,67,54432,1,0,0:0:0:0:
45,86,54515,1,0,0:0:0:0:
42,106,54599,1,0,0:0:0:0:
51,123,54682,2,0,P|91:132|129:123,1,50
177,90,54849,2,0,P|217:81|255:90,1,50
293,140,55015,2,0,L|293:204,1,50
355,251,55182,6,0,L|416:248,1,50
264,271,55349,2,0,L|203:268,1,50
146,312,55515,1,0,0:0:0:0:
52,240,55682,2,0,P|79:170|128:219,1,150
199,158,56015,2,0,P|223:174|253:185,2,50
307,101,56265,1,0,0:0:0:0:
327,85,56349,2,0,P|303:101|273:112,1,50
340,184,56515,5,0,0:0:0:0:
434,152,56682,1,0,0:0:0:0:
504,222,56849,1,0,0:0:0:0:
472,316,57015,1,0,0:0:0:0:
373,333,57182,1,0,0:0:0:0:
291,274,57349,1,0,0:0:0:0:
191,270,57515,1,0,0:0:0:0:
108,327,57682,1,0,0:0:0:0:
60,147,57849,5,0,0:0:0:0:
52,196,57932,1,0,0:0:0:0:
92,159,58015,1,0,0:0:0:0:
86,195,58099,1,0,0:0:0:0:
129,172,58182,5,0,0:0:0:0:
124,197,58265,1,0,0:0:0:0:
162,181,58349,1,0,0:0:0:0:
158,198,58432,1,0,0:0:0:0:
199,194,58515,5,0,0:0:0:0:
196,202,58598,1,0,0:0:0:0:
235,199,58682,1,0,0:0:0:0:
231,216,58765,1,0,0:0:0:0:
269,200,58849,5,0,0:0:0:0:
264,225,58932,1,0,0:0:0:0:
307,202,59016,1,0,0:0:0:0:
301,238,59099,1,0,0:0:0:0:
334,249,59182,6,0,P|391:236|336:204,1,150
278,132,59515,2,0,B|270:108|270:108|294:56,1,75.0000028610231
258,295,59682,2,0,B|266:319|266:319|242:371,1,75.0000028610231
109,297,59849,5,0,0:0:0:0:
86,281,59932,2,0,L|74:218,1,50
159,188,60099,1,0,0:0:0:0:
136,172,60182,2,0,L|124:109,1,50
89,105,60349,2,0,L|101:168,1,50
320,214,60515,6,0,P|368:210|416:190,1,75.0000028610231
232,175,60682,2,0,P|184:179|136:199,1,75.0000028610231
241,268,60849,1,0,0:0:0:0:
302,42,61015,2,0,B|311:116|311:116|244:59,2,150.000005722046
459,103,61515,2,0,P|440:163|454:253,1,150.000005722046
112,293,61849,6,0,L|219:311,1,100
281,228,62349,1,0,0:0:0:0:
192,106,62515,2,0,L|174:213,1,100
80,118,63015,1,0,0:0:0:0:
80,118,63099,1,0,0:0:0:0:
80,118,63182,6,0,P|53:81|70:134,1,150
124,179,63515,1,0,0:0:0:0:
167,154,63599,1,0,0:0:0:0:
216,148,63682,1,0,0:0:0:0:
265,156,63765,1,0,0:0:0:0:
309,179,63849,1,0,0:0:0:0:
264,197,63932,1,0,0:0:0:0:
215,189,64015,1,0,0:0:0:0:
166,195,64098,1,0,0:0:0:0:
123,220,64182,1,0,0:0:0:0:
446,286,64515,5,0,0:0:0:0:
450,266,64599,1,0,0:0:0:0:
454,246,64682,1,0,0:0:0:0:
458,226,64765,1,0,0:0:0:0:
425,263,65015,5,0,0:0:0:0:
429,243,65099,1,0,0:0:0:0:
433,223,65182,1,0,0:0:0:0:
437,203,65265,1,0,0:0:0:0:
424,187,65349,2,0,L|370:190,1,50
278,194,65515,1,0,0:0:0:0:
324,41,65682,2,0,L|325:129,1,75.0000028610231
476,88,65849,6,0,B|457:73|423:81|406:67,1,75.0000028610231
163,67,66015,2,0,B|182:82|216:74|233:88,1,75.0000028610231
320,286,66182,2,0,L|336:122,1,150.000005722046
396,327,66515,1,0,0:0:0:0:
365,293,66599,1,0,0:0:0:0:
320,286,66682,1,0,0:0:0:0:
275,279,66765,1,0,0:0:0:0:
240,308,66849,1,0,0:0:0:0:
311,377,67015,1,0,0:0:0:0:
101,239,67182,6,0,L|103:139,1,100
105,40,67515,2,0,L|103:140,1,100
276,85,67849,2,0,L|274:185,1,100
272,284,68182,2,0,L|274:184,1,100
503,176,68515,5,0,0:0:0:0:
488,202,68599,1,0,0:0:0:0:
466,181,68682,1,0,0:0:0:0:
446,158,68765,1,0,0:0:0:0:
423,177,68849,5,0,0:0:0:0:
393,184,68932,1,0,0:0:0:0:
363,178,69015,1,0,0:0:0:0:
338,195,69099,1,0,0:0:0:0:
319,171,69182,5,0,0:0:0:0:
292,183,69265,1,0,0:0:0:0:
266,167,69349,1,0,0:0:0:0:
259,137,69432,1,0,0:0:0:0:
229,135,69515,5,0,0:0:0:0:
220,164,69599,1,0,0:0:0:0:
193,177,69682,1,0,0:0:0:0:
163,173,69765,1,0,0:0:0:0:
145,148,69849,6,0,P|100:127|39:203,1,150
9,195,70182,2,0,P|68:106|171:132,1,225.000008583069
121,220,70515,1,0,0:0:0:0:
105,245,70599,2,0,L|114:303,1,50
241,258,70765,1,0,0:0:0:0:
225,283,70849,2,0,L|234:341,1,50
203,363,71015,2,0,L|194:305,1,50
396,117,71182,6,0,L|388:190,1,59.9999981689454
378,257,71349,2,0,L|370:330,1,59.9999981689454
306,105,71515,6,0,L|298:178,1,59.9999981689454
288,245,71682,2,0,L|280:318,1,59.9999981689454
211,95,71849,6,0,L|203:168,1,59.9999981689454
193,235,72016,2,0,L|185:308,1,59.9999981689454
121,83,72182,6,0,L|113:156,1,59.9999981689454
103,223,72349,2,0,L|95:296,1,59.9999981689454
20,77,72515,6,0,P|77:78|148:4,1,150.000005722046
242,202,73015,1,0,0:0:0:0:
211,107,73182,2,0,P|268:106|339:180,1,150.000005722046
102,302,73682,1,0,0:0:0:0:
102,302,73765,1,0,0:0:0:0:
102,302,73849,6,0,B|96:237|96:237|187:224|187:224|168:375,1,300.000011444092
253,350,74265,1,0,0:0:0:0:
297,340,74349,1,0,0:0:0:0:
340,330,74432,1,0,0:0:0:0:
299,310,74515,1,0,0:0:0:0:
258,289,74599,1,0,0:0:0:0:
300,275,74682,1,0,0:0:0:0:
424,90,74849,1,0,0:0:0:0:
424,134,74932,1,0,0:0:0:0:
424,178,75015,1,0,0:0:0:0:
393,144,75099,1,0,0:0:0:0:
362,111,75182,6,0,P|359:139|349:165,2,50
356,103,75849,6,0,P|355:132|346:158,1,50
273,252,76182,2,0,P|266:227|266:203,1,50
406,256,76515,2,0,L|380:250,2,25
195,106,76849,2,0,L|221:100,2,25
121,295,77182,2,0,L|110:239,3,50
194,343,77849,6,0,L|287:329,1,75
333,315,78182,2,0,L|280:304,2,33.3333333333333
404,281,78515,2,0,L|348:286,1,50
249,236,79015,1,0,0:0:0:0:
483,257,79182,6,0,L|427:252,1,50
331,161,79515,2,0,L|387:156,1,50
233,255,79849,1,0,0:0:0:0:
120,231,80015,1,0,0:0:0:0:
310,346,80182,1,0,0:0:0:0:
36,139,80515,5,0,0:0:0:0:
76,120,80599,1,0,0:0:0:0:
115,102,80682,1,0,0:0:0:0:
154,120,80765,1,0,0:0:0:0:
193,138,80849,1,0,0:0:0:0:
369,59,81015,1,0,0:0:0:0:
343,95,81099,1,0,0:0:0:0:
318,130,81182,2,0,L|341:196,1,62.5
195,360,81432,1,0,0:0:0:0:
180,373,81515,2,0,L|186:301,1,62.5
180,190,81682,1,0,0:0:0:0:
137,199,81765,1,0,0:0:0:0:
94,209,81849,5,0,0:0:0:0:
135,221,81932,1,0,0:0:0:0:
176,234,82015,1,0,0:0:0:0:
218,247,82099,1,0,0:0:0:0:
259,260,82182,1,0,0:0:0:0:
470,124,82349,1,0,0:0:0:0:
427,115,82432,1,0,0:0:0:0:
383,121,82515,1,0,0:0:0:0:
344,142,82599,1,0,0:0:0:0:
319,177,82682,2,0,L|330:242,1,62.5
388,89,82849,2,0,L|398:27,1,62.5
236,14,83015,1,0,0:0:0:0:
250,55,83099,1,0,0:0:0:0:
264,96,83182,5,0,0:0:0:0:
224,78,83265,1,0,0:0:0:0:
179,76,83349,1,0,0:0:0:0:
137,90,83432,1,0,0:0:0:0:
106,120,83515,2,0,L|94:187,1,62.5
173,266,83682,1,0,0:0:0:0:
184,224,83765,1,0,0:0:0:0:
196,181,83849,1,0,0:0:0:0:
227,210,83932,1,0,0:0:0:0:
389,142,84099,1,0,0:0:0:0:
408,129,84182,2,0,P|422:97|426:63,1,62.5
318,193,84349,2,0,P|323:223|335:252,1,62.5
475,294,84515,5,0,0:0:0:0:
440,278,84599,1,0,0:0:0:0:
404,290,84682,1,0,0:0:0:0:
270,297,84849,1,0,0:0:0:0:
235,313,84933,1,0,0:0:0:0:
199,301,85016,1,0,0:0:0:0:
90,284,85182,1,0,0:0:0:0:
55,268,85266,1,0,0:0:0:0:
19,280,85349,1,0,0:0:0:0:
225,381,85515,1,0,0:0:0:0:
233,331,85599,1,0,0:0:0:0:
241,281,85682,1,0,0:0:0:0:
249,231,85765,1,0,0:0:0:0:
258,181,85849,1,0,0:0:0:0:
141,60,86015,5,0,0:0:0:0:
123,81,86099,2,0,L|138:143,1,62.5
371,226,86349,1,0,0:0:0:0:
353,205,86433,2,0,L|368:143,1,62.5
399,129,86599,1,0,0:0:0:0:
245,19,86765,2,0,P|268:92|254:145,1,125
234,160,87015,2,0,L|207:97,1,62.5
115,166,87182,5,0,0:0:0:0:
90,201,87265,1,0,0:0:0:0:
82,244,87349,1,0,0:0:0:0:
91,286,87432,1,0,0:0:0:0:
116,321,87515,1,0,0:0:0:0:
133,280,87599,1,0,0:0:0:0:
164,249,87682,1,0,0:0:0:0:
205,236,87765,1,0,0:0:0:0:
249,235,87849,1,0,0:0:0:0:
256,277,87932,1,0,0:0:0:0:
283,310,88015,1,0,0:0:0:0:
323,326,88099,1,0,0:0:0:0:
366,326,88182,2,0,L|387:254,1,62.5
376,78,88349,1,0,0:0:0:0:
364,120,88432,1,0,0:0:0:0:
353,162,88516,5,0,0:0:0:0:
400,146,88599,1,0,0:0:0:0:
400,96,88682,1,0,0:0:0:0:
353,81,88766,1,0,0:0:0:0:
323,121,88849,2,0,P|285:127|254:120,1,62.5
146,31,89015,1,0,0:0:0:0:
189,23,89099,1,0,0:0:0:0:
198,65,89182,1,0,0:0:0:0:
155,73,89266,1,0,0:0:0:0:
188,174,89432,2,0,P|120:165|61:184,1,125
35,207,89682,2,0,L|22:277,1,62.5
54,343,89849,5,0,0:0:0:0:
96,334,89932,1,0,0:0:0:0:
138,325,90015,1,0,0:0:0:0:
239,350,90182,1,0,0:0:0:0:
281,341,90265,1,0,0:0:0:0:
323,332,90348,1,0,0:0:0:0:
428,357,90515,1,0,0:0:0:0:
470,348,90598,1,0,0:0:0:0:
512,339,90681,1,0,0:0:0:0:
417,93,90849,1,0,0:0:0:0:
394,137,90932,1,0,0:0:0:0:
417,181,91015,1,0,0:0:0:0:
406,230,91099,1,0,0:0:0:0:
396,278,91182,1,0,0:0:0:0:
283,166,91349,5,0,0:0:0:0:
272,123,91432,1,0,0:0:0:0:
284,81,91515,1,0,0:0:0:0:
495,163,91682,1,0,0:0:0:0:
505,205,91765,1,0,0:0:0:0:
489,246,91849,1,0,0:0:0:0:
473,286,91932,1,0,0:0:0:0:
276,293,92099,1,0,0:0:0:0:
295,270,92182,2,0,L|362:257,1,62.5
221,347,92349,2,0,L|159:335,1,62.5
66,256,92515,5,0,0:0:0:0:
108,245,92599,1,0,0:0:0:0:
150,234,92682,1,0,0:0:0:0:
116,206,92765,1,0,0:0:0:0:
81,178,92849,1,0,0:0:0:0:
226,174,93015,1,0,0:0:0:0:
191,146,93099,1,0,0:0:0:0:
157,118,93182,1,0,0:0:0:0:
199,107,93265,1,0,0:0:0:0:
368,263,93432,1,0,0:0:0:0:
400,241,93515,1,0,0:0:0:0:
358,227,93599,1,0,0:0:0:0:
358,183,93682,1,0,0:0:0:0:
400,170,93765,1,0,0:0:0:0:
425,205,93849,5,0,0:0:0:0:
464,186,93932,1,0,0:0:0:0:
485,148,94015,1,0,0:0:0:0:
486,103,94099,1,0,0:0:0:0:
462,66,94182,2,0,L|400:54,1,62.5
261,26,94349,2,0,L|323:38,1,62.5
342,124,94515,1,0,0:0:0:0:
342,124,94599,2,0,P|307:122|279:110,1,62.5
143,168,94765,2,0,P|178:166|206:154,1,62.5
314,201,94932,1,0,0:0:0:0:
324,223,95015,2,0,P|294:211|263:210,1,62.5
188,289,95182,6,0,L|175:356,2,62.5
205,84,95515,2,0,L|154:39,2,62.5
374,202,95849,2,0,L|438:180,2,62.5
80,183,96182,1,0,0:0:0:0:
147,215,96293,1,0,0:0:0:0:
221,207,96404,1,0,0:0:0:0:
279,160,96515,6,0,P|287:119|286:90,2,62.5
320,229,96765,1,0,0:0:0:0:
320,229,96849,2,0,P|317:276|324:312,1,62.5
448,240,97015,1,0,0:0:0:0:
464,198,97099,1,0,0:0:0:0:
460,154,97182,2,0,L|472:116,4,31.25
402,88,97432,2,0,P|327:89|271:62,1,125
211,86,97682,2,0,L|275:93,1,62.5
179,157,97849,5,0,0:0:0:0:
148,162,97932,1,0,0:0:0:0:
117,168,98015,1,0,0:0:0:0:
86,174,98099,1,0,0:0:0:0:
55,180,98182,1,0,0:0:0:0:
95,195,98265,1,0,0:0:0:0:
136,210,98349,1,0,0:0:0:0:
176,225,98432,1,0,0:0:0:0:
216,240,98515,1,0,0:0:0:0:
171,264,98599,1,0,0:0:0:0:
127,288,98682,2,0,L|116:354,1,62.5
208,325,98849,1,0,0:0:0:0:
239,313,98932,2,0,L|228:379,1,62.5
322,333,99099,1,0,0:0:0:0:
345,369,99182,5,0,0:0:0:0:
379,342,99265,1,0,0:0:0:0:
396,301,99349,1,0,0:0:0:0:
398,257,99432,1,0,0:0:0:0:
382,216,99515,2,0,P|371:177|373:144,1,62.5
407,94,99682,1,0,0:0:0:0:
448,80,99765,1,0,0:0:0:0:
329,61,99932,2,0,L|186:38,2,125
299,95,100349,2,0,L|304:176,1,62.5
200,248,100515,5,0,0:0:0:0:
120,223,100598,1,0,0:0:0:0:
120,138,100681,1,0,0:0:0:0:
200,112,100765,1,0,0:0:0:0:
229,181,100848,1,0,0:0:0:0:
194,229,100932,5,0,0:0:0:0:
136,211,101015,1,0,0:0:0:0:
136,150,101098,1,0,0:0:0:0:
194,131,101182,1,0,0:0:0:0:
215,180,101265,1,0,0:0:0:0:
190,215,101349,5,0,0:0:0:0:
148,202,101432,1,0,0:0:0:0:
148,158,101515,1,0,0:0:0:0:
190,144,101599,1,0,0:0:0:0:
268,181,101849,6,0,B|304:188|304:188|347:163,1,75.0000028610231
362,29,102015,2,0,B|337:56|337:56|338:106,1,75.0000028610231
453,191,102182,2,0,B|441:156|441:156|397:131,1,75.0000028610231
357,278,102349,1,0,0:0:0:0:
357,278,102432,1,0,0:0:0:0:
357,278,102515,2,0,B|369:215|369:215|304:209|304:209|336:376,1,300
434,355,103099,5,0,0:0:0:0:
434,355,103182,2,0,B|448:357|448:357|464:354|464:354|475:348|475:348|482:338|482:338|487:326|487:326|487:311|487:311|484:298|484:298|475:287|475:287|461:278|461:278|445:275|445:275|435:278,1,150
306,303,103515,1,0,0:0:0:0:
272,315,103599,1,0,0:0:0:0:
203,294,103682,1,0,0:0:0:0:
169,306,103766,1,0,0:0:0:0:
101,271,103849,2,0,P|86:239|80:196,1,75.0000028610231
188,190,104015,2,0,P|203:158|209:115,1,75.0000028610231
315,27,104182,1,0,0:0:0:0:
296,75,104265,1,0,0:0:0:0:
327,117,104349,1,0,0:0:0:0:
306,165,104432,1,0,0:0:0:0:
358,216,104515,6,0,L|471:208,1,100
134,124,104849,6,0,L|218:118,1,75.0000028610231
40,203,105015,2,0,L|124:197,1,75.0000028610231
228,261,105182,2,0,L|143:266,2,75.0000028610231
283,181,105432,1,0,0:0:0:0:
283,181,105515,2,0,P|371:184|445:242,1,150.000005722046
481,267,105765,1,0,0:0:0:0:
481,267,105849,6,0,B|461:235|461:235|503:219,1,75.0000028610231
447,85,106015,2,0,B|467:117|467:117|432:130,1,75.0000028610231
260,65,106182,2,0,P|335:58|369:43,1,100
388,27,106432,1,0,0:0:0:0:
267,152,106515,2,0,P|192:145|125:108,1,150
286,227,106849,5,0,0:0:0:0:
364,242,106960,1,0,0:0:0:0:
441,222,107071,1,0,0:0:0:0:
490,159,107182,2,0,L|497:78,1,75.0000028610231
447,296,107349,2,0,L|440:215,1,75.0000028610231
379,46,107515,2,0,L|366:195,1,150.000005722046
314,266,107765,5,0,0:0:0:0:
314,266,107849,2,0,P|254:259|291:192,1,150
182,181,108182,2,0,L|108:172,1,75.0000028610231
300,114,108349,2,0,L|374:105,1,75.0000028610231
212,95,108515,5,0,0:0:0:0:
481,144,108682,1,0,0:0:0:0:
482,158,108765,1,0,0:0:0:0:
483,173,108849,1,0,0:0:0:0:
484,187,108932,1,0,0:0:0:0:
453,186,109015,1,0,0:0:0:0:
454,200,109098,1,0,0:0:0:0:
455,215,109182,1,0,0:0:0:0:
456,229,109265,1,0,0:0:0:0:
415,225,109349,5,0,0:0:0:0:
373,241,109432,1,0,0:0:0:0:
332,222,109515,1,0,0:0:0:0:
290,202,109599,1,0,0:0:0:0:
252,227,109682,1,0,0:0:0:0:
215,252,109765,1,0,0:0:0:0:
177,226,109849,1,0,0:0:0:0:
177,226,110015,6,0,P|179:166|163:118,2,100
47,190,110515,1,0,0:0:0:0:
68,168,110599,1,0,0:0:0:0:
75,197,110682,1,0,0:0:0:0:
8,113,110849,2,0,L|12:57,1,50
111,269,111015,2,0,L|107:325,1,50
188,352,111182,5,0,0:0:0:0:
348,263,111349,5,0,0:0:0:0:
374,225,111432,5,0,0:0:0:0:
359,266,111515,5,0,0:0:0:0:
361,221,111598,5,0,0:0:0:0:
371,264,111682,5,0,0:0:0:0:
350,223,111765,5,0,0:0:0:0:
380,256,111848,5,0,0:0:0:0:
341,231,111931,5,0,0:0:0:0:
383,244,112015,5,0,0:0:0:0:
337,244,112098,5,0,0:0:0:0:
380,232,112181,5,0,0:0:0:0:
341,255,112264,5,0,0:0:0:0:
383,244,112349,5,0,0:0:0:0:
337,244,112432,5,0,0:0:0:0:
380,232,112515,5,0,0:0:0:0:
