osu file format v14

[General]
AudioFilename: diagram.mp3
AudioLeadIn: 0
PreviewTime: 38535
Countdown: 1
SampleSet: Normal
StackLeniency: 0.7
Mode: 0
LetterboxInBreaks: 1
WidescreenStoryboard: 0

[Editor]
Bookmarks: 14830
DistanceSpacing: 1.4
BeatDivisor: 8
GridSize: 4
TimelineZoom: 3.499999

[Metadata]
Title:diagram
TitleUnicode:diagram
Artist:Expander
ArtistUnicode:Expander
Creator:Michi
Version:Insane
Source:
Tags:
BeatmapID:377528
BeatmapSetID:153632

[Difficulty]
HPDrainRate:7
CircleSize:4
OverallDifficulty:8
ApproachRate:9.5
SliderMultiplier:2.4
SliderTickRate:1

[Events]
//Background and Video events
0,0,"playfield.png",0,0
//Break Periods
//Storyboard Layer 0 (Background)
//Storyboard Layer 1 (Fail)
//Storyboard Layer 2 (Pass)
//Storyboard Layer 3 (Foreground)
//Storyboard Sound Samples

[TimingPoints]
500,535.714285714286,4,1,0,100,1,0
1571,-66.6666666666667,4,1,0,100,0,0
2375,-133.333333333333,4,1,0,100,0,0
2910,-100,4,1,0,100,0,0
3982,-66.6666666666667,4,1,0,100,0,0
4250,-100,4,1,0,100,0,0
4517,-66.6666666666667,4,1,0,100,0,0
4785,-100,4,1,0,100,0,0
5857,-133.333333333333,4,1,0,100,0,0
6125,-66.6666666666667,4,1,0,100,0,0
6392,-100,4,1,0,100,0,0
6928,-66.6666666666667,4,1,0,100,0,0
7732,-100,4,1,0,100,0,0
8357,-80,4,1,0,100,0,0
8535,-66.6666666666667,4,1,0,100,0,0
9071,-100,4,1,0,100,0,0
9607,-80,4,1,0,100,0,0
11214,-100,4,1,0,100,0,0
12553,-66.6666666666667,4,1,0,100,0,0
12910,-100,4,1,0,100,0,0
13357,-66.6666666666667,4,1,0,100,0,0
14875,-57.1428571428571,4,1,0,100,0,0
15500,-133.333333333333,4,1,0,100,0,0
15767,-100,4,1,0,100,0,0
16035,-80,4,1,0,100,0,0
16303,-66.6666666666667,4,1,0,100,0,0
16571,-100,4,1,0,100,0,0
22196,-66.6666666666667,4,1,0,100,0,0
22464,-80,4,1,0,100,0,0
22732,-57.1428571428571,4,1,0,100,0,0
23000,-50,4,1,0,100,0,0
23535,-100,4,1,0,100,0,0
25410,-66.6666666666667,4,1,0,100,0,0
25946,-50,4,1,0,100,0,0
26214,-100,4,1,0,100,0,0
27821,-66.6666666666667,4,1,0,100,0,0
28357,-80,4,1,0,100,0,0
29428,-100,4,1,0,100,0,0
31048,-66.6666666666667,4,1,0,100,0,0
34250,-80,4,1,0,100,0,0
34517,-50,4,1,0,100,0,0
34785,-100,4,1,0,100,0,0
35321,-80,4,1,0,100,0,0
35857,-66.6666666666667,4,1,0,100,0,0
36392,-57.1428571428571,4,1,0,100,0,0
36928,-100,4,1,0,100,0,0
38535,-50,4,1,0,100,0,0
39071,-100,4,1,0,100,0,0
40142,-66.6666666666667,4,1,0,100,0,0
40678,-50,4,1,0,100,0,0
41214,-100,4,1,0,100,0,0
41482,-50,4,1,0,100,0,0
41750,-100,4,1,0,100,0,0
42017,-50,4,1,0,100,0,0
42285,-80,4,1,0,100,0,0
43625,-50,4,1,0,100,0,0
44160,-66.6666666666667,4,1,0,100,0,0
46571,-80,4,1,0,100,0,0
46839,-66.6666666666667,4,1,0,100,0,0
47107,-57.1428571428571,4,1,0,100,0,0
47375,-50,4,1,0,100,0,0
49785,-100,4,1,0,100,0,0
50589,-133.333333333333,4,1,0,100,0,1
50678,-133.333333333333,4,1,0,100,0,0
50857,-100,4,1,0,100,0,0
51125,-57.1428571428571,4,1,0,100,0,1
51214,-57.1428571428571,4,1,0,100,0,0
51392,-80,4,1,0,100,0,0
51660,-50,4,1,0,100,0,1
51750,-50,4,1,0,100,0,0

[HitObjects]
100,64,500,6,0,L|180:72,1,80
144,144,767,2,0,L|224:152,1,80
188,224,1035,2,0,L|268:232,1,80
228,304,1303,2,0,L|308:312,1,80
416,100,1571,6,0,P|368:168|268:156,1,180.000006866455
188,44,2017,1,0,0:0:0:0:
164,100,2107,2,0,L|96:240,1,120.000004577637
328,352,2375,6,0,L|240:324,1,90.0000034332277
180,288,2910,1,0,0:0:0:0:
216,272,3000,1,0,0:0:0:0:
252,256,3089,1,0,0:0:0:0:
288,240,3178,2,0,L|364:208,1,80
372,120,3446,2,0,L|296:152,1,80
72,84,3714,5,0,0:0:0:0:
100,112,3803,1,0,0:0:0:0:
128,140,3892,1,0,0:0:0:0:
156,168,3982,2,0,P|204:192|260:160,1,120.000004577637
260,92,4250,6,0,L|340:72,1,80
416,32,4517,6,0,L|412:152,1,120.000004577637
428,240,4785,6,0,L|352:264,1,80
312,276,5053,1,0,0:0:0:0:
76,328,5232,1,0,0:0:0:0:
96,292,5321,1,0,0:0:0:0:
436,328,5500,1,0,0:0:0:0:
416,292,5589,1,0,0:0:0:0:
256,44,5767,1,0,0:0:0:0:
256,76,5857,6,0,L|256:140,1,60.0000022888185
256,328,6125,6,0,L|256:204,1,120.000004577637
256,208,6571,1,0,0:0:0:0:
208,28,6660,6,0,L|155:87,1,80
56,184,6928,6,0,P|144:196|220:148,1,180.000006866455
264,112,7285,2,0,L|312:72,2,60.0000022888184
160,312,7642,1,0,0:0:0:0:
200,304,7732,6,0,L|320:276,1,120
396,256,8178,1,0,0:0:0:0:
380,220,8267,1,0,0:0:0:0:
360,176,8357,2,0,L|296:164,1,50
205,61,8535,6,0,P|151:87|131:141,1,120.000004577637
306,322,8803,2,0,P|360:296|380:242,1,120.000004577637
340,216,9071,6,0,L|340:136,1,80
172,168,9339,2,0,L|172:248,1,80
472,240,9607,6,0,L|472:140,1,100
40,144,9875,2,0,L|40:244,1,100
256,192,10142,5,0,0:0:0:0:
180,44,10321,1,0,0:0:0:0:
136,68,10410,1,0,0:0:0:0:
332,340,10589,1,0,0:0:0:0:
396,300,10678,1,0,0:0:0:0:
180,340,10857,1,0,0:0:0:0:
116,284,10946,2,0,L|44:216,1,100
328,76,11214,6,0,L|248:104,1,80
184,308,11482,2,0,L|264:280,1,80
84,136,11750,5,0,0:0:0:0:
120,156,11839,1,0,0:0:0:0:
148,176,11928,1,0,0:0:0:0:
184,188,12017,1,0,0:0:0:0:
224,192,12107,1,0,0:0:0:0:
264,180,12196,1,0,0:0:0:0:
320,160,12285,5,0,0:0:0:0:
320,160,12553,2,0,P|352:236|280:296,1,180.000006866455
244,288,12910,6,0,L|204:276,1,40
164,268,13089,2,0,L|136:192,1,80
124,156,13357,5,0,0:0:0:0:
236,44,13535,1,0,0:0:0:0:
268,72,13625,2,0,L|164:136,1,120.000004577637
124,156,13892,1,0,0:0:0:0:
356,56,14071,1,0,0:0:0:0:
388,84,14161,2,0,L|288:152,1,120.000004577637
240,188,14428,5,0,0:0:0:0:
240,188,14607,1,0,0:0:0:0:
240,188,14696,2,0,L|284:228,1,60.0000022888184
356,216,14875,6,0,P|232:324|120:216,1,350.00000333786
80,88,15500,6,0,L|128:52,1,60.0000022888184
168,160,15767,2,0,L|168:248,1,80
340,344,16035,2,0,L|264:272,1,100
384,52,16303,2,0,L|304:144,1,120.000004577637
280,176,16571,5,0,0:0:0:0:
196,272,16750,1,0,0:0:0:0:
172,240,16839,1,0,0:0:0:0:
160,200,16928,1,0,0:0:0:0:
164,160,17017,1,0,0:0:0:0:
184,124,17107,1,0,0:0:0:0:
95,301,17285,5,0,0:0:0:0:
61,256,17374,1,0,0:0:0:0:
44,200,17463,1,0,0:0:0:0:
50,143,17552,1,0,0:0:0:0:
56,100,17642,6,0,L|88:48,2,60
235,48,18044,2,0,L|176:56,1,60
436,36,18312,1,0,0:0:0:0:
376,168,18446,6,0,L|392:200,3,30
376,240,18714,2,0,L|320:276,1,60
248,240,18982,2,0,L|212:224,3,30
192,216,19250,5,0,0:0:0:0:
20,236,19383,1,0,0:0:0:0:
88,88,19517,1,0,0:0:0:0:
128,344,19651,1,0,0:0:0:0:
192,216,19785,6,0,P|224:164|284:156,1,120
328,188,20142,1,0,0:0:0:0:
356,240,20232,1,0,0:0:0:0:
380,296,20321,2,0,P|436:260|444:204,1,120
412,116,20723,1,0,0:0:0:0:
312,56,20857,6,0,L|192:56,1,120
256,192,21258,1,0,0:0:0:0:
200,328,21392,2,0,L|320:328,1,120
256,192,21794,1,0,0:0:0:0:
140,104,21928,6,0,L|120:184,1,80
256,328,22196,2,0,L|228:208,1,120.000004577637
32,296,22464,6,0,L|124:256,1,100
424,136,22732,2,0,L|292:188,1,140.000001335144
184,240,23000,6,0,P|107:141|296:108,1,400
312,176,23535,6,0,L|336:304,2,120
96,80,24250,5,0,0:0:0:0:
88,124,24339,2,0,L|76:208,1,80
180,328,24607,2,0,L|160:248,1,80
256,36,24875,2,0,L|256:124,1,80
424,260,25142,2,0,L|436:176,1,80
256,36,25410,6,0,L|256:164,1,120.000004577637
256,348,25678,2,0,L|256:220,1,120.000004577637
184,116,25946,6,0,P|256:144|332:112,1,160
376,80,26214,5,0,0:0:0:0:
376,80,26482,1,0,0:0:0:0:
356,120,26549,1,0,0:0:0:0:
336,160,26616,1,0,0:0:0:0:
316,200,26683,1,0,0:0:0:0:
296,240,26750,6,0,L|280:276,2,40
240,216,27017,2,0,L|168:180,1,80
116,152,27285,5,0,0:0:0:0:
48,240,27419,1,0,0:0:0:0:
88,264,27486,1,0,0:0:0:0:
132,280,27553,1,0,0:0:0:0:
176,292,27620,1,0,0:0:0:0:
220,300,27687,1,0,0:0:0:0:
264,300,27754,1,0,0:0:0:0:
308,292,27821,6,0,L|364:272,1,60.0000022888184
420,200,28000,2,0,L|360:192,2,60.0000022888184
476,208,28267,1,0,0:0:0:0:
480,152,28357,6,0,L|452:56,1,100
404,72,28625,1,0,0:0:0:0:
356,92,28714,1,0,0:0:0:0:
312,112,28803,1,0,0:0:0:0:
268,136,28892,2,0,L|180:88,1,100
48,104,29160,2,0,L|140:160,1,100
240,216,29428,6,0,P|196:248|120:240,1,120
56,184,29875,1,0,0:0:0:0:
40,236,29964,2,0,L|8:352,2,120
140,60,30678,5,0,0:0:0:0:
156,96,30767,1,0,0:0:0:0:
172,132,30857,1,0,0:0:0:0:
188,168,30946,1,0,0:0:0:0:
204,204,31035,2,0,L|232:256,1,60
232,256,31236,5,0,0:0:0:0:
232,256,31303,2,0,L|352:280,1,120.000004577637
464,224,31571,2,0,L|344:200,1,120.000004577637
288,184,31839,5,0,0:0:0:0:
232,164,31928,1,0,0:0:0:0:
180,140,32017,1,0,0:0:0:0:
124,116,32107,2,0,L|64:220,1,120.000004577637
132,352,32375,2,0,L|188:244,1,120.000004577637
212,192,32642,5,0,0:0:0:0:
212,192,32822,1,0,0:0:0:0:
252,148,32911,1,0,0:0:0:0:
304,120,33000,1,0,0:0:0:0:
364,124,33090,1,0,0:0:0:0:
420,148,33178,2,0,P|468:184|500:236,1,120.000004577637
212,192,33446,2,0,P|176:240|168:304,1,120.000004577637
72,344,33714,6,0,P|212:360|288:232,1,300.000011444092
208,116,34250,6,0,L|208:216,1,100
420,296,34517,6,0,L|260:288,1,160
148,268,34785,6,0,L|224:240,1,80
260,224,35053,1,0,0:0:0:0:
296,208,35142,1,0,0:0:0:0:
332,192,35232,1,0,0:0:0:0:
380,212,35321,6,0,L|312:140,1,100
276,104,35589,1,0,0:0:0:0:
240,68,35678,1,0,0:0:0:0:
204,32,35767,1,0,0:0:0:0:
144,40,35857,6,0,L|104:160,1,120.000004577637
88,212,36125,1,0,0:0:0:0:
72,268,36214,1,0,0:0:0:0:
52,324,36303,1,0,0:0:0:0:
112,356,36392,6,0,L|220:268,1,140.000001335144
268,216,36660,1,0,0:0:0:0:
320,168,36750,1,0,0:0:0:0:
372,120,36839,1,0,0:0:0:0:
416,68,36928,6,0,L|296:56,1,120
256,164,37330,5,0,0:0:0:0:
256,336,37464,2,0,L|256:268,1,60
364,192,37732,5,0,0:0:0:0:
148,192,37866,1,0,0:0:0:0:
256,48,38000,2,0,L|256:12,3,30
256,48,38267,6,0,L|256:116,1,60
256,240,38535,6,0,P|443:236|450:54,1,400
404,52,39071,6,0,L|316:136,1,120
256,192,39473,1,0,0:0:0:0:
108,332,39607,2,0,L|196:248,1,120
256,192,40008,1,0,0:0:0:0:
448,164,40142,6,0,P|416:240|320:244,1,180.000006866455
256,192,40544,1,0,0:0:0:0:
276,32,40678,6,0,P|100:91|190:226,1,400
192,164,41214,6,0,L|244:136,1,60
364,64,41482,2,0,L|480:100,1,120
72,228,41750,2,0,L|128:200,1,60
364,64,42017,2,0,L|480:100,1,120
72,228,42285,6,0,P|104:296|176:304,1,150
256,276,42687,1,0,0:0:0:0:
440,228,42821,2,0,P|408:296|336:304,1,150
256,276,43223,1,0,0:0:0:0:
256,72,43357,5,0,0:0:0:0:
256,72,43625,2,0,L|256:320,1,240
64,300,44160,6,0,L|160:224,1,120.000004577637
400,156,44428,2,0,L|208:176,1,180.000006866455
220,174,44875,1,0,0:0:0:0:
72,76,45142,1,0,0:0:0:0:
39,25,45232,2,0,P|19:85|47:133,1,120.000004577637
256,300,45500,5,0,0:0:0:0:
444,184,45678,5,0,0:0:0:0:
368,200,45767,1,0,0:0:0:0:
152,36,45946,5,0,0:0:0:0:
164,120,46035,1,0,0:0:0:0:
104,328,46214,5,0,0:0:0:0:
168,264,46303,2,0,L|256:176,1,120.000004577637
256,56,46571,6,0,L|152:56,1,100
256,152,46839,2,0,L|380:152,1,120.000004577637
256,244,47107,2,0,L|112:244,1,140.000001335144
256,336,47375,2,0,L|424:336,1,160
256,336,47642,6,0,L|256:92,2,240
256,336,48357,1,0,0:0:0:0:
396,224,48714,6,0,L|416:168,3,60
256,212,48982,2,0,L|228:136,2,80
208,56,49250,2,0,L|64:128,1,160
304,56,49517,2,0,L|448:128,1,160
468,216,49785,6,0,L|432:332,1,120
392,332,50142,2,0,L|360:308,2,40
140,128,50455,5,0,0:0:0:0:
140,128,50522,1,0,0:0:0:0:
140,128,50589,2,0,L|200:120,1,60.0000022888184
408,104,50857,6,0,L|344:152,1,80
135,268,51125,2,0,P|107:192|143:124,1,157.500001502037
456,312,51392,6,0,L|376:252,1,100
124,48,51660,2,0,P|90:135|125:208,1,180
