osu file format v12

[General]
AudioFilename: move that body.mp3
AudioLeadIn: 0
PreviewTime: 84135
Countdown: 0
SampleSet: Normal
StackLeniency: 0.4
Mode: 0
LetterboxInBreaks: 0
WidescreenStoryboard: 1

[Editor]
DistanceSpacing: 1
BeatDivisor: 4
GridSize: 4

[Metadata]
Title:Move That Body
TitleUnicode:Move That Body
Artist:Expander
ArtistUnicode:Expander
Creator:fanzhen0019
Version:MEDIUM
Source:jubeat saucer
Tags:sionKotori
BeatmapID:347009
BeatmapSetID:132586

[Difficulty]
HPDrainRate:4
CircleSize:4
OverallDifficulty:4
ApproachRate:6
SliderMultiplier:0.799999999999999
SliderTickRate:1

[Events]
//Background and Video events
0,0,"123.jpg",0,0
//Break Periods
//Storyboard Layer 0 (Background)
//Storyboard Layer 1 (Fail)
//Storyboard Layer 2 (Pass)
//Storyboard Layer 3 (Foreground)
//Storyboard Sound Samples
//Background Colour Transformations
3,100,163,162,255

[TimingPoints]
870,306.122448979592,4,1,0,76,1,0
84135,-100,4,1,0,80,0,1
93625,-66.6666666666667,4,1,0,80,0,1
93778,-66.6666666666667,4,1,0,80,0,0
93931,-100,4,1,0,80,0,1
103727,-100,4,1,0,80,0,0

[Colours]
Combo1 : 7,220,204
Combo2 : 82,125,239
Combo3 : 84,206,252
Combo4 : 74,240,133

[HitObjects]
472,304,869,6,0,B|396:272|396:272|308:296,1,160,4|8,0:0|0:0,0:0:0:0:
256,240,1788,1,0,0:0:0:0:
190,292,2094,2,0,B|116:272|116:272|40:304,1,160,0|8,0:0|0:0,0:0:0:0:
48,144,3318,6,0,P|88:152|136:148,1,79.9999999999999,2|0,0:0|0:0,0:0:0:0:
204,124,3931,2,0,P|244:116|292:120,1,79.9999999999999,10|0,0:0|0:0,0:0:0:0:
360,140,4543,2,0,L|456:136,2,79.9999999999999,2|0|8,0:0|0:0|0:0,0:0:0:0:
344,60,5461,5,4,0:2:0:0:
360,140,5767,6,0,B|360:228|360:228|296:280,1,160,4|8,0:0|0:0,0:0:0:0:
256,208,6686,1,0,0:0:0:0:
207,273,6992,2,0,B|152:228|152:228|152:140,1,160,0|8,0:0|0:0,0:0:0:0:
20,228,8216,6,0,P|28:276|52:308,1,79.9999999999999,2|0,0:0|0:0,0:0:0:0:
112,344,8829,2,0,L|168:352,2,40,8|2|0,0:0|0:0|0:0,0:0:0:0:
128,264,9441,2,0,L|208:276,2,79.9999999999999,2|0|8,0:0|0:0|0:0,0:0:0:0:
148,104,10665,6,0,B|240:100|240:100|284:72|284:72|388:68,1,240,4|0,0:0|0:0,0:0:0:0:
448,112,11890,2,4,P|468:172|448:240,2,120,4|0|4,0:2|0:2|0:2,0:2:0:0:
372,132,13114,1,0,0:0:0:0:
308,188,13421,1,0,0:0:0:0:
232,212,13727,2,0,L|224:128,1,79.9999999999999
300,104,14339,5,0,0:0:0:0:
308,224,14798,1,0,0:0:0:0:
320,344,15257,1,0,0:0:0:0:
364,280,15563,6,0,B|272:284|272:284|228:312|228:312|124:316,1,240
64,272,16788,2,4,P|44:212|64:144,2,120,4|0|4,0:2|0:2|0:2,0:2:0:0:
140,252,18012,1,0,0:0:0:0:
204,196,18319,5,0,0:0:0:0:
280,172,18625,2,0,L|288:256,1,79.9999999999999
368,260,19237,2,0,L|424:264,1,40,0|4,0:0|0:0,0:0:0:0:
428,184,19696,2,0,L|372:180,1,40,0|4,0:0|0:0,0:0:0:0:
364,104,20155,1,0,0:0:0:0:
364,104,20461,6,0,B|272:100|272:100|228:72|228:72|124:68,1,240,4|0,0:0|0:0,0:0:0:0:
64,112,21686,2,4,P|44:172|64:240,2,120,4|0|4,0:2|0:2|0:2,0:2:0:0:
140,132,22910,1,0,0:0:0:0:
204,188,23216,5,0,0:0:0:0:
280,212,23523,2,0,L|288:128,1,79.9999999999999
212,104,24135,5,0,0:0:0:0:
200,224,24594,1,0,0:0:0:0:
188,344,25053,1,0,0:0:0:0:
148,280,25359,6,0,B|240:284|240:284|284:312|284:312|388:316,1,240
448,272,26584,2,4,P|468:212|448:144,2,120,4|0|4,0:2|0:2|0:2,0:2:0:0:
308,196,28115,5,0,0:0:0:0:
232,172,28421,2,0,L|224:256,1,79.9999999999999
144,260,29033,2,0,L|88:264,1,40,0|4,0:0|0:0,0:0:0:0:
84,184,29492,2,0,L|140:180,1,40,0|4,0:0|0:0,0:0:0:0:
148,104,29951,1,0,0:0:0:0:
148,104,30257,6,0,B|192:152|192:152|284:156|300:36,1,240,4|8,0:0|0:0,0:0:0:0:
212,38,31482,2,0,B|228:156|320:152|320:152|364:104,1,240,0|8,0:0|0:0,0:0:0:0:
424,156,32706,6,0,L|368:224,1,79.9999999999999,0|8,0:0|0:0,0:0:0:0:
316,276,33318,2,0,B|256:332|256:332|196:276,1,160,8|0,0:0|0:0,0:0:0:0:
138,217,34237,2,0,L|88:156,1,79.9999999999999,8|8,0:0|0:0,0:0:0:0:
364,104,35155,6,0,B|320:152|320:152|228:156|212:36,1,240,4|8,0:0|0:0,0:0:0:0:
299,38,36380,2,0,B|284:156|192:152|192:152|148:104,1,240,0|8,0:0|0:0,0:0:0:0:
88,156,37604,6,0,L|144:224,1,79.9999999999999
172,292,38216,1,8,0:0:0:0:
332,292,38829,5,8,0:0:0:0:
373,217,39135,2,0,L|424:156,1,79.9999999999999,0|8,0:0|0:0,0:0:0:0:
476,96,39747,1,8,0:0:0:0:
396,80,40053,6,0,B|318:80|318:80|216:80|208:188,1,240,6|8,0:0|0:0,0:0:0:0:
302,176,41278,2,0,B|296:80|193:80|193:80|116:80,1,240,2|8,0:0|0:0,0:0:0:0:
56,132,42502,6,0,P|44:192|76:296,1,160
144,316,43421,1,8,0:0:0:0:
208,268,43727,2,0,P|220:208|188:104,1,160,0|8,0:0|0:0,0:0:0:0:
116,80,44645,1,8,0:0:0:0:
116,80,44951,6,0,B|193:80|193:80|296:80|304:188,1,240,2|8,0:0|0:0,0:0:0:0:
209,176,46176,2,0,B|216:80|318:80|318:80|396:80,1,240,2|8,0:0|0:0,0:0:0:0:
456,132,47400,6,0,P|468:192|436:296,1,160
368,316,48319,1,8,0:0:0:0:
332,240,48625,5,10,0:0:0:0:
256,284,48931,1,2,0:0:0:0:
180,240,49237,1,10,0:0:0:0:
180,80,49849,5,4,0:0:0:0:
336,112,50461,2,0,L|456:108,1,120,8|8,0:0|0:0,0:0:0:0:
444,188,51227,2,0,L|324:192,1,120,8|8,0:0|0:0,0:0:0:0:
244,196,51992,1,8,0:0:0:0:
136,252,52451,6,0,L|16:240,2,120,8|0|8,0:0|0:0|0:0,0:0:0:0:
216,272,53676,2,0,P|312:244|344:152,1,200,8|8,0:0|0:0,0:0:0:0:
332,80,54747,5,4,0:0:0:0:
176,112,55359,2,0,L|56:108,1,120,8|8,0:0|0:0,0:0:0:0:
68,188,56125,2,0,L|188:192,1,120,8|8,0:0|0:0,0:0:0:0:
268,196,56890,1,8,0:0:0:0:
376,252,57349,6,0,L|496:240,2,120,8|0|8,0:0|0:0|0:0,0:0:0:0:
324,316,58574,2,0,P|264:336|168:248,1,200,8|8,0:0|0:0,0:0:0:0:
152,176,59645,6,0,L|144:88,1,79.9999999999999,4|0,0:0|0:0,0:0:0:0:
220,64,60257,2,0,P|264:116|316:112,1,120,8|8,0:0|0:0,0:0:0:0:
388,84,61023,2,8,P|344:32|292:36,1,120
220,64,61788,1,8,0:0:0:0:
152,176,62247,6,0,P|96:208|68:264,2,120,8|0|8,0:0|0:0|0:0,0:0:0:0:
208,236,63472,2,0,B|324:212|280:284|408:252,1,200,8|8,0:0|0:0,0:0:0:0:
360,176,64543,6,0,L|368:88,1,79.9999999999999,4|0,0:0|0:0,0:0:0:0:
292,64,65155,2,0,P|248:116|196:112,1,120,8|8,0:0|0:0,0:0:0:0:
124,84,65921,2,8,P|168:32|220:36,1,120
292,64,66686,1,8,0:0:0:0:
360,176,67145,6,0,P|416:208|444:264,2,120,8|0|8,0:0|0:0|0:0,0:0:0:0:
308,236,68370,2,0,P|257:305|204:236,1,200,2|2,0:0|0:0,0:0:0:0:
152,176,69441,6,0,P|96:208|68:264,2,120,4|0|0,0:2|0:0|0:0,0:0:0:0:
216,128,70665,2,0,L|160:16,2,120,4|0|0,0:0|0:0|0:0,0:0:0:0:
296,128,71890,2,0,L|349:20,2,120,4|0|4,0:2|0:0|0:2,0:0:0:0:
360,176,73114,2,0,P|412:204|442:255,2,120,4|0|4,0:0|0:0|0:0,0:0:0:0:
304,232,74339,6,0,P|333:283|386:311,2,120,4|0|0,0:2|0:0|0:0,0:0:0:0:
256,168,75563,2,0,L|256:36,2,120,4|0|0,0:0|0:0|0:0,0:0:0:0:
208,232,76788,2,0,P|178:283|125:311,2,120,4|0|4,0:2|0:0|0:2,0:0:0:0:
256,168,78012,2,0,P|220:92|88:120,1,240,4|0,0:0|0:0,0:0:0:0:
92,200,79237,5,4,0:2:0:0:
200,316,79849,2,0,L|116:332,1,79.9999999999999,8|2,0:0|0:0,0:0:0:0:
256,248,80767,1,2,0:0:0:0:
312,316,81074,2,0,L|396:332,1,79.9999999999999,8|2,0:0|0:0,0:0:0:0:
440,268,81686,6,0,P|400:216|372:212,1,79.9999999999999,0|2,0:0|0:0,0:0:0:0:
316,184,82298,2,0,L|328:92,1,79.9999999999999,8|2,0:0|0:0,0:0:0:0:
256,248,83216,5,2,0:0:0:0:
196,184,83523,2,2,L|184:92,1,79.9999999999999,8|2,0:0|0:0,0:0:0:0:
120,56,84135,6,0,P|64:64|44:84,1,79.9999999999999,4|8,0:0|0:0,0:0:0:0:
72,156,84747,2,0,P|82:229|76:328,1,160
156,340,85665,1,8,0:0:0:0:
228,304,85972,1,0,0:0:0:0:
304,332,86278,1,8,0:0:0:0:
376,296,86584,6,0,B|388:268|388:268|417:259|417:259|424:228|424:228|400:200|400:200|408:164,2,160,4|2|0,0:0|0:0|0:0,0:0:0:0:
304,332,88114,1,8,0:0:0:0:
228,304,88421,2,0,L|224:216,1,79.9999999999999,0|8,0:0|0:0,0:0:0:0:
196,148,89033,6,0,P|108:140|52:192,1,160,4|0,0:0|0:0,0:0:0:0:
60,264,89951,1,0,0:0:0:0:
108,328,90257,6,2,B|188:328|188:328|228:344|228:344|264:328|264:328|356:328,1,240,2|2,0:0|0:0,0:0:0:0:
420,328,91482,1,4,0:0:0:0:
304,220,92094,6,0,P|280:184|280:136,1,79.9999999999999
304,68,92706,2,0,P|244:72|168:60,2,120,0|0|4,0:0|0:0|0:2,0:0:0:0:
392,56,93931,6,0,P|448:64|468:84,1,79.9999999999999,4|8,0:0|0:0,0:0:0:0:
440,156,94543,2,0,P|429:229|436:328,1,160
356,340,95461,1,8,0:0:0:0:
284,304,95768,1,0,0:0:0:0:
208,332,96074,1,8,0:0:0:0:
136,296,96380,6,0,B|124:268|124:268|94:259|94:259|88:228|88:228|112:200|112:200|104:164,2,160,4|2|0,0:0|0:0|0:0,0:0:0:0:
208,332,97910,1,8,0:0:0:0:
284,304,98217,2,0,L|288:216,1,79.9999999999999,0|8,0:0|0:0,0:0:0:0:
316,148,98829,6,0,P|404:140|460:192,1,160,4|0,0:0|0:0,0:0:0:0:
452,264,99747,1,0,0:0:0:0:
404,328,100053,6,2,B|324:328|324:328|284:344|284:344|248:328|248:328|156:328,1,240
92,328,101278,1,2,0:0:0:0:
208,220,101890,6,0,P|232:184|232:136,1,79.9999999999999,2|0,0:0|0:0,0:0:0:0:
208,68,102502,2,0,B|324:72|324:72|336:200,1,240,4|0,0:2|0:0,0:0:0:0:
348,276,103727,5,4,0:0:0:0:
40,304,104951,6,0,B|116:272|116:272|204:296,1,160,4|8,0:0|0:0,0:0:0:0:
256,240,105870,1,0,0:0:0:0:
322,292,106176,2,0,B|396:272|396:272|472:304,1,160,0|8,0:0|0:0,0:0:0:0:
464,144,107400,6,0,P|424:152|376:148,1,79.9999999999999,2|0,0:0|0:0,0:0:0:0:
308,124,108013,2,0,P|268:116|220:120,1,79.9999999999999,10|0,0:0|0:0,0:0:0:0:
152,140,108625,5,2,0:0:0:0:
84,184,108931,1,2,0:0:0:0:
80,104,109237,1,6,0:0:0:0:
