osu file format v7

[General]
AudioFilename: Life Game.mp3
AudioLeadIn: 0
PreviewTime: -1
Countdown: 1
SampleSet: Soft
StackLeniency: 0.7
Mode: 0
LetterboxInBreaks: 1

[Editor]
DistanceSpacing: 0.800000011920929
BeatDivisor: 4
GridSize: 32

[Metadata]
Title:lifegame
Artist:Exilia
Creator:macponpon
Version:Normal
Source:
Tags:game

[Difficulty]
HPDrainRate:6
CircleSize:6
OverallDifficulty:6
SliderMultiplier:1.4
SliderTickRate:1

[Events]
//Background and Video events
0,0,"roz_gin004.jpg"
//Break Periods
2,22497,26441
2,42897,46842
2,72365,78387
2,131819,132835
2,162372,173589
2,244446,245746
//Storyboard Layer 0 (Background)
//Storyboard Layer 1 (Fail)
//Storyboard Layer 2 (Pass)
//Storyboard Layer 3 (Foreground)
//Storyboard Sound Samples
//Background Colour Transformations
3,100,163,162,255

[TimingPoints]
8,566.679259539101,4,2,0,100,1,0

[Colours]
Combo1 : 255,255,0
Combo2 : 128,255,0
Combo3 : 0,255,255
Combo4 : 255,128,255

[HitObjects]
64,64,2746,1,0
256,320,4919,1,0
416,64,7374,1,0
256,192,9358,1,0
96,288,10208,1,0
416,288,11058,1,0
64,128,11530,1,0
448,128,12380,1,0
256,64,13324,1,0
256,192,13797,1,0
64,192,18425,1,0
256,96,19180,1,0
448,192,20030,1,0
128,320,20691,1,0
384,320,21541,1,0
256,192,22297,1,0
256,192,27491,5,0
256,64,28341,1,0
256,192,29758,1,0
128,192,30608,1,0
256,192,32025,1,0
384,192,32875,1,0
256,192,34292,1,0
256,320,35142,1,0
64,64,36936,5,0
64,192,37597,1,0
64,320,38258,1,0
416,320,39769,1,0
416,192,40431,1,0
416,64,40997,1,0
256,192,41375,2,0,B|256:224,2,23.3333333333333
192,64,42131,2,0,B|128:96,2,70
256,64,47892,5,0
64,320,50017,1,0
448,320,51292,1,0
256,192,52331,1,0
224,192,52803,1,0
288,192,53181,1,0
416,96,54598,2,0,B|416:256,1,140
320,256,55637,2,0,B|320:64,1,186.666666666667
224,160,56864,1,0
128,160,57525,1,0
64,160,57998,1,0
64,320,58564,1,0
256,320,59131,2,0,B|416:320,1,140
256,192,60737,12,0,62626
128,128,63759,6,0,B|128:288,3,140
256,128,65931,2,0,B|256:288,1,140
384,128,67065,2,0,B|384:288,1,140
384,352,68198,2,0,B|224:352,1,140
128,352,69331,1,0
64,352,69803,1,0
64,224,70465,2,0,B|64:64,3,140
256,192,79437,12,0,81137
32,64,81798,6,0,B|32:192,1,116.666666666667
128,192,82743,2,0,B|128:64,1,116.666666666667
224,192,84159,2,0,B|224:64,2,116.666666666667
288,192,85765,1,0
416,320,87182,5,0
416,288,87465,1,0
416,192,88032,1,0
416,96,88598,1,0
384,96,88976,1,0
288,96,89354,1,0
32,96,90771,2,0,B|32:256,2,140
32,96,92565,1,0
96,96,94171,6,0,B|96:256,1,140
160,96,95493,2,0,B|160:256,1,140
256,224,96532,2,0,B|256:64,1,140
256,192,97618,12,0,99318
256,64,99837,5,0
96,352,101160,1,0
416,352,102293,1,0
96,96,103332,1,0
416,96,103899,1,0
256,320,104465,5,0
256,64,105032,1,0
64,192,105599,1,0
448,192,106165,1,0
256,320,106732,1,0
384,64,108810,6,0,B|448:128|384:192,2,140
288,64,110604,2,0,B|256:224|320:288|352:352,3,280
96,352,115516,2,0,B|64:96,1,233.333333333333
160,96,116743,2,0,B|192:320,1,210
448,192,118538,1,0
256,192,119671,1,0
64,192,120805,1,0
256,192,121938,1,0
256,32,123071,1,0
256,192,124299,1,0
256,192,125102,12,0,126660
256,192,129352,5,0
256,192,131619,1,0
256,192,133885,5,0
256,96,136199,6,0,B|256:64,3,23.3333333333333
256,192,138372,2,0,B|256:160,3,23.3333333333333
96,288,139505,2,0,B|64:320,4,23.3333333333333
384,288,140638,2,0,B|416:320,4,23.3333333333333
256,192,141866,1,0
64,64,142905,5,0
64,96,143472,1,0
64,128,143944,1,0
448,320,145266,1,0
448,288,145739,1,0
448,256,146305,1,0
448,64,147439,6,0,B|384:128,2,70
352,64,148477,2,0,B|288:128,2,70
224,192,149705,2,0,B|160:256,2,70
128,192,150839,2,0,B|64:256,2,70
256,192,152066,1,0
160,128,154144,6,0,B|64:128|64:224,2,140
224,128,156505,6,0,B|320:128|320:32,2,140
416,64,158867,2,0,B|416:224,2,140
352,64,161039,2,0,B|352:224,2,140
160,192,174639,5,0
160,192,174922,1,0
160,192,175206,1,0
352,192,175678,5,0
352,192,175961,1,0
352,192,176245,1,0
288,32,176906,6,0,B|192:128,1,116.666666666667
256,192,178039,2,0,B|352:288,1,116.666666666667
384,192,179173,1,0
384,64,181439,5,0
320,64,181817,2,0,B|224:64,1,93.3333333333333
128,64,182478,1,0
96,64,183045,1,0
96,128,183423,1,0
96,192,183706,1,0
160,192,184084,2,0,B|256:192,1,93.3333333333333
352,192,184934,2,0,B|352:224,11,23.3333333333333
256,64,187106,6,0,B|160:128,1,93.3333333333333
256,192,187862,1,0
256,288,188239,2,0,B|160:352,1,93.3333333333333
256,288,189089,1,0
320,64,190506,2,0,B|416:64|416:160,3,140
416,192,192773,1,0
352,192,193151,1,0
320,256,193528,1,0
288,192,193812,1,0
256,256,194473,1,0
32,320,195040,6,0,B|64:192,1,116.666666666667
128,256,196173,2,0,B|160:128,1,116.666666666667
224,32,197212,2,0,B|384:32,1,140
320,96,198345,2,0,B|480:96,1,140
320,96,199479,1,0
352,224,200706,6,0,B|256:320,1,116.666666666667
256,224,201840,2,0,B|160:320,1,116.666666666667
256,224,202973,2,0,B|96:224,2,140
384,192,204673,1,0
448,192,205240,1,0
448,192,205523,1,0
448,192,205807,1,0
448,64,206373,5,0
352,64,206940,1,0
352,64,207223,1,0
256,64,207790,1,0
160,64,208357,1,0
96,64,208923,2,0,B|0:64|0:128|0:160,2,140
96,64,210812,5,0
192,64,211379,2,0,B|320:64,1,116.666666666667
416,64,212418,2,0,B|416:224,1,140
352,256,213646,2,0,B|192:288,1,140
64,224,214779,2,0,B|192:128,1,140
256,128,216479,1,0
256,192,217235,1,0
256,192,217518,1,0
448,160,218179,6,0,B|352:256,1,116.666666666667
288,288,219312,2,0,B|160:192,1,140
160,256,220446,2,0,B|64:352,1,116.666666666667
32,256,221579,2,0,B|32:96,1,140
96,32,222712,2,0,B|256:32,1,140
352,32,223940,2,0,B|352:128,1,93.3333333333333
480,128,224979,2,0,B|416:128,1,46.6666666666667
480,224,225735,2,0,B|352:224,1,116.666666666667
256,192,226679,1,0
256,192,229135,1,0
256,192,231307,1,0
256,192,233574,1,0
256,192,234424,1,0
256,192,235179,1,0
256,192,235463,1,0
256,192,236785,12,0,239524
256,192,240657,5,0
256,192,241791,1,0
256,192,242452,12,0,244246
256,192,246796,5,0
256,192,246891,1,0
256,192,246985,1,0
256,64,247788,1,0
64,64,248921,2,0,B|64:192|128:192,2,140
64,192,250763,1,0
64,64,251471,1,0
160,64,252038,6,0,B|320:64,1,140
160,192,253171,2,0,B|320:192,1,140
160,320,254446,2,0,B|320:320,1,140
160,224,255580,1,0
416,224,256288,1,0
256,224,256855,1,0
256,128,257422,1,0
416,160,257988,1,0
416,96,258555,5,0
416,96,258697,1,0
416,96,258838,1,0
416,96,259122,1,0
256,96,259830,1,0
96,96,260397,1,0
96,224,260963,5,0
96,224,261105,1,0
96,224,261247,1,0
96,224,261672,1,0
256,320,262238,1,0
416,224,262805,1,0
416,32,263513,2,0,B|320:128,1,105
416,32,264505,2,0,B|256:32,1,140
288,32,265780,5,0
352,128,266347,2,0,B|384:96,1,35
416,160,267055,1,0
352,192,267763,2,0,B|64:192,1,280
96,256,269180,2,0,B|224:256,1,105
256,256,270030,2,0,B|256:320|192:320|192:320,5,70
160,96,272439,6,0,B|192:224|288:0|384:224|416:64,3,280
256,192,276689,1,0
352,224,277255,2,0,B|480:224,1,105
448,288,278247,1,0
352,288,278530,2,0,B|288:320,1,70
192,320,279380,1,0
64,320,279664,2,0,B|96:160,1,140
192,192,280514,2,0,B|192:288,3,70
192,192,282072,5,0
288,192,282355,2,0,B|352:320,2,140
256,128,284055,1,0
96,128,284480,2,0,B|96:288,1,140
160,288,285614,2,0,B|320:288,1,140
416,288,286747,2,0,B|416:128,1,140
416,32,287881,2,0,B|256:32,1,140
64,32,289156,2,0,B|64:192,1,140
160,192,290289,2,0,B|224:192,10,35
256,192,292131,5,0
256,288,292697,1,0
384,288,293406,1,0
384,160,294114,1,0
256,224,294539,1,0
256,224,294681,1,0
256,96,295106,5,0
160,96,295814,1,0
160,224,296381,1,0
96,320,296947,1,0
96,320,297089,1,0
96,224,297514,1,0
96,128,298222,1,0
288,128,298789,5,0
288,128,298931,1,0
288,128,299072,1,0
256,192,299497,1,0
256,256,300064,1,0
320,192,300631,1,0
160,64,301339,2,0,B|32:64|32:192,5,175
192,160,305448,5,0
256,192,306014,1,0
448,320,306581,2,0,B|448:192|288:192|288:224,2,210
352,320,308848,1,0
256,320,309698,1,0
256,224,310973,5,0
256,224,311114,1,0
256,192,311681,1,0
256,128,312389,1,0
256,128,312531,1,0
160,128,312956,1,0
128,192,313381,2,0,B|128:256,16,35
256,192,316781,5,0
256,288,318056,1,0
192,288,318340,1,0
96,288,319190,1,0
96,32,320323,5,0
160,32,320606,1,0
480,32,321456,1,0
480,288,322731,1,0
416,288,323015,1,0
256,288,324006,1,0
256,192,325281,5,0
416,128,326273,1,0
352,192,326698,1,0
352,128,326981,1,0
288,192,327265,1,0
288,128,327690,1,0
224,288,328823,6,0,B|224:160,2,105
224,192,330240,1,0
128,192,331232,1,0
64,192,332507,1,0
64,224,332790,1,0
64,192,333073,1,0
256,192,334348,5,0
256,192,334915,12,0,336757
256,192,337465,12,0,339165
256,192,339732,12,0,342140
256,192,342707,5,0
480,192,343840,6,0,B|480:32,1,140
352,64,344973,2,0,B|160:64,1,175
64,96,346249,2,0,B|64:256,1,140
128,352,347382,2,0,B|320:352,1,175
480,352,348657,2,0,B|480:192,1,140
192,192,349790,2,0,B|256:128,2,70
256,192,350924,1,0
320,192,351632,2,0,B|352:128,4,70
256,192,353332,1,0
