osu file format v7

[General]
AudioFilename: Life Game.mp3
AudioLeadIn: 0
PreviewTime: -1
Countdown: 1
SampleSet: Soft
StackLeniency: 0.7
Mode: 0
LetterboxInBreaks: 1

[Editor]
DistanceSpacing: 0.800000011920929
BeatDivisor: 4
GridSize: 32

[Metadata]
Title:lifegame
Artist:Exilia
Creator:macponpon
Version:Easy
Source:
Tags:game

[Difficulty]
HPDrainRate:5
CircleSize:4
OverallDifficulty:4
SliderMultiplier:1.4
SliderTickRate:1

[Events]
//Background and Video events
0,0,"roz_gin004.jpg"
//Break Periods
2,23150,26163
2,41425,44297
2,126852,134824
//Storyboard Layer 0 (Background)
//Storyboard Layer 1 (Fail)
//Storyboard Layer 2 (Pass)
//Storyboard Layer 3 (Foreground)
//Storyboard Sound Samples
//Background Colour Transformations
3,100,163,162,255

[TimingPoints]
0,566.679259539101,4,2,0,100,1,0

[Colours]
Combo1 : 255,255,0
Combo2 : 128,255,0
Combo3 : 0,255,255
Combo4 : 255,128,255

[HitObjects]
96,64,7083,1,0
96,192,9350,1,0
96,320,11616,1,0
96,192,13883,1,0
96,64,16150,1,0
192,96,18417,5,0
192,160,20683,1,0
192,256,22950,1,0
192,288,27483,5,0
192,128,28192,1,0
96,288,29750,1,0
96,128,30600,1,0
224,128,32017,1,0
224,288,34284,6,0,B|384:288,2,140
416,192,36975,1,0
416,64,37684,1,0
416,128,38250,1,0
64,256,39950,1,0
64,128,40659,1,0
64,192,41225,1,0
416,96,45617,5,0
256,96,47884,1,0
64,256,50009,1,0
64,96,51142,1,0
192,256,52417,1,0
192,192,52842,1,0
192,128,53267,1,0
416,192,54684,1,0
352,192,55109,1,0
96,160,56951,1,0
96,224,57376,1,0
96,288,57942,5,0
320,320,59217,1,0
384,320,59784,1,0
448,320,60351,1,0
256,192,61343,1,0
256,192,62476,1,0
256,192,63751,1,0
96,96,65876,2,0,B|416:96,2,315
96,256,69418,1,0
224,256,70409,1,0
352,256,71543,1,0
352,160,72676,1,0
288,160,73668,1,0
224,160,74376,1,0
64,160,76785,5,0
64,320,79051,1,0
416,320,81885,1,0
416,288,82310,1,0
416,256,82735,1,0
416,96,84010,5,0
256,96,85143,1,0
96,96,86276,1,0
96,320,88543,1,0
128,320,88968,1,0
160,320,89393,1,0
352,320,91943,1,0
352,192,94210,1,0
352,64,96477,1,0
256,192,97610,12,0,99310
64,192,102285,5,0
64,64,104410,1,0
192,64,105544,1,0
320,64,106677,1,0
256,192,108944,1,0
256,224,109510,1,0
64,320,111352,1,0
160,320,112344,1,0
256,320,113477,1,0
256,192,115602,5,0
256,192,116877,1,0
256,192,118152,1,0
480,32,120277,5,0
256,32,121411,1,0
32,32,122544,1,0
256,192,124669,1,0
256,192,125094,12,0,126652
256,192,136144,5,0
64,192,138411,1,0
64,32,140678,1,0
256,32,142944,1,0
480,32,145211,1,0
480,192,146344,1,0
256,192,147478,1,0
32,192,149744,1,0
32,352,150878,1,0
256,352,152011,1,0
480,352,154278,1,0
256,192,155411,1,0
64,64,156545,1,0
128,192,158811,2,0,B|416:192,1,280
256,192,162211,1,0
256,192,163203,12,0,165045
96,192,166178,5,0
416,192,167170,1,0
256,64,168303,1,0
256,320,169437,1,0
160,192,170570,1,0
320,192,171845,1,0
256,32,174537,5,0
224,32,175103,1,0
192,32,175670,1,0
160,32,176237,1,0
160,320,179212,1,0
192,320,179778,1,0
224,320,180345,1,0
256,320,180912,1,0
384,320,181479,1,0
384,192,181762,1,0
384,64,182187,1,0
256,64,182612,1,0
96,64,183604,1,0
96,192,184029,1,0
96,320,184454,1,0
256,320,185162,2,0,B|256:64,1,245
256,192,187004,12,0,189270
96,64,190404,5,0
96,192,191112,1,0
96,320,191679,1,0
256,192,192670,1,0
416,64,193945,1,0
416,192,194512,1,0
416,320,195079,1,0
256,320,195646,1,0
64,320,196921,2,0,B|64:128,2,175
128,320,199046,5,0
128,192,200179,1,0
128,96,201312,1,0
256,96,202446,1,0
384,96,203579,1,0
256,192,204712,1,0
384,192,205704,1,0
384,288,206271,2,0,B|32:288,1,315
64,192,208537,5,0
64,96,209812,1,0
160,96,210946,1,0
256,96,212079,1,0
352,96,213213,1,0
448,96,214346,1,0
448,192,215479,1,0
448,256,216613,1,0
352,256,217179,1,0
320,256,217463,1,0
256,192,218738,5,0
256,352,219871,5,0
32,352,221004,1,0
32,192,222279,1,0
128,192,222846,1,0
224,192,223413,1,0
320,192,223979,1,0
416,192,224546,1,0
416,320,225396,2,0,B|32:320,1,350
64,192,227805,5,0
256,192,229080,1,0
448,192,230213,1,0
448,32,231346,1,0
256,32,232338,1,0
256,192,233613,1,0
256,192,234463,1,0
256,192,235313,1,0
256,192,236871,1,0
256,192,237721,12,0,241830
256,192,242538,5,0
256,192,243530,12,0,247213
256,192,249197,5,0
192,192,250755,1,0
128,192,253163,1,0
64,192,253872,1,0
64,256,254438,1,0
128,256,255005,1,0
192,256,255714,5,0
256,256,256280,1,0
256,192,256847,1,0
256,128,257555,1,0
256,64,258122,1,0
320,64,258689,1,0
320,128,259255,1,0
320,192,259822,1,0
320,256,260530,1,0
320,320,261097,2,0,B|160:320,2,140
320,256,262939,5,0
320,192,264072,1,0
256,192,265347,1,0
32,192,266622,2,0,B|32:320,2,105
32,96,268039,6,0,B|288:128|64:288|96:256,4,245
224,64,273139,2,0,B|96:192,5,175
192,192,277389,2,0,B|320:64,5,175
416,64,281639,2,0,B|288:192,5,175
288,256,285889,5,0
192,256,286598,1,0
96,256,287164,1,0
96,160,287873,1,0
96,64,288581,1,0
224,64,289289,1,0
384,64,289998,1,0
384,160,290564,1,0
384,256,291556,1,0
256,256,292831,6,0,B|32:256,1,210
32,192,294248,2,0,B|256:192,1,210
352,192,295806,1,0
352,64,296514,1,0
256,64,297223,1,0
256,192,297789,1,0
128,192,298498,1,0
128,64,299064,1,0
32,192,300198,5,0
480,192,301331,1,0
256,192,301898,1,2
256,288,302465,1,0
256,96,303173,1,0
96,96,304165,2,0,B|96:320,1,210
192,320,305440,2,0,B|416:320,1,210
448,320,307848,5,0
448,288,308415,1,0
448,256,308981,1,0
448,224,309690,1,0
448,192,310256,1,0
384,192,310823,2,0,B|256:192,4,105
384,128,313373,2,0,B|256:128,3,105
160,128,315782,2,0,B|160:352,3,210
64,352,319182,5,0
64,288,320457,1,0
64,128,321590,1,0
64,32,322865,1,0
256,32,324140,1,0
256,192,325273,1,0
256,192,326407,1,0
256,192,327682,1,0
64,192,330374,5,0
64,352,332357,1,0
256,352,333490,1,0
256,192,334907,1,0
256,192,337174,12,0,339015
256,192,339724,12,0,341565
256,192,343265,5,0
256,64,344399,1,0
96,64,345674,1,0
96,192,346949,5,0
96,320,348082,1,0
256,320,349357,1,0
416,320,350491,1,0
416,192,351766,1,0
416,64,352899,1,0
256,64,354032,1,0
