osu file format v14

[General]
AudioFilename: btm-noisestorm-remix.mp3
AudioLeadIn: 0
PreviewTime: 56250
Countdown: 1
SampleSet: Soft
StackLeniency: 0.7
Mode: 0
LetterboxInBreaks: 1
WidescreenStoryboard: 0

[Editor]
Bookmarks: 76800,96000,115200,134400,153600,172800,192000,211200,230400
DistanceSpacing: 1.2
BeatDivisor: 8
GridSize: 4
TimelineZoom: 2.7

[Metadata]
Title:Bring the Madness (Noisestorm Remix)
TitleUnicode:Bring the Madness (Noisestorm Remix)
Artist:Excision, Pegboard Nerds & Mayor Apeshit
ArtistUnicode:Excision, Pegboard Nerds & Mayor Apeshit
Creator:Maeglwn
Version:9 STAR HYPE
Source:
Tags:
BeatmapID:688348
BeatmapSetID:307717

[Difficulty]
HPDrainRate:5.1
CircleSize:4.9
OverallDifficulty:8.1
ApproachRate:9.9
SliderMultiplier:3.59999990463257
SliderTickRate:1

[Events]
//Background and Video events
0,0,"maxresdefault.jpg",0,0
//Break Periods
//Storyboard Layer 0 (Background)
//Storyboard Layer 1 (Fail)
//Storyboard Layer 2 (Pass)
//Storyboard Layer 3 (Foreground)
//Storyboard Sound Samples

[TimingPoints]
0,600,4,2,0,80,1,0
57600,-100,4,2,0,90,0,1
76800,-100,4,2,0,80,0,0
96000,-100,4,2,0,90,0,1
115200,-100,4,2,0,80,0,0
172800,-100,4,2,0,90,0,1
192000,-100,4,2,0,80,0,0
211200,-100,4,2,0,90,0,1
230400,-100,4,2,0,80,0,0

[HitObjects]
88,288,0,6,0,B|68:172|68:172|212:184|244:24,1,359.999990463257,2|0,0:0|0:0,0:0:0:0:
104,36,900,1,2,0:0:0:0:
264,220,1050,1,2,0:0:0:0:
104,36,1200,1,2,0:0:0:0:
384,16,1500,1,0,0:0:0:0:
480,200,1800,2,0,P|464:344|320:360,1,269.999992847443,2|0,0:0|0:0,0:0:0:0:
184,152,2400,2,0,B|244:192|244:192|284:280|284:280|360:224|420:288,1,269.999992847443,2|0,0:0|0:0,0:0:0:0:
160,252,3000,5,0,0:0:0:0:
444,40,3300,1,2,0:0:0:0:
68,40,3450,1,0,0:0:0:0:
256,324,3600,1,2,0:0:0:0:
252,40,3900,2,0,P|208:120|244:172,1,89.9999976158143,2|0,0:0|0:0,0:0:0:0:
428,208,4200,2,0,P|416:165|383:136,1,89.9999976158143,2|0,0:0|0:0,0:0:0:0:
256,324,4500,1,0,0:0:0:0:
36,116,4800,6,0,B|108:176|108:176|40:248|40:248|144:276|136:376,1,359.999990463257,2|0,0:0|0:0,0:0:0:0:
32,352,5700,1,2,0:0:0:0:
424,224,5850,1,0,0:0:0:0:
40,348,6000,1,2,0:0:0:0:
168,40,6300,1,0,0:0:0:0:
416,304,6600,2,0,B|316:260|368:172|368:172|316:132|352:56,1,269.999992847443,2|0,0:0|0:0,0:0:0:0:
512,8,7200,6,0,B|432:60|432:60|344:-40|236:68,1,269.999992847443,2|0,0:0|0:0,0:0:0:0:
76,328,7800,1,0,0:0:0:0:
336,176,8100,2,0,L|272:208,1,44.9999988079071,2|0,0:0|0:0,0:0:0:0:
76,208,8250,2,0,L|140:176,1,44.9999988079071
216,24,8400,1,2,0:0:0:0:
208,348,8700,1,0,0:0:0:0:
440,40,9000,2,0,L|380:116,1,89.9999976158143,2|0,0:0|0:0,0:0:0:0:
304,360,9300,2,0,L|364:284,1,89.9999976158143
440,40,9600,6,0,B|384:112|384:112|308:24|212:72,1,269.999992847443,2|0,0:0|0:0,0:0:0:0:
272,192,10200,2,0,L|296:124,1,44.9999988079071
128,156,10500,2,0,L|104:224,1,44.9999988079071,2|0,0:0|0:0,0:0:0:0:
404,264,10650,2,0,L|428:196,1,44.9999988079071
232,296,10800,2,0,P|136:336|80:304,1,89.9999976158143,2|0,0:0|0:0,0:0:0:0:
48,104,11100,2,0,P|144:64|200:96,1,89.9999976158143
232,296,11400,2,0,L|168:208,1,89.9999976158143,2|0,0:0|0:0,0:0:0:0:
448,20,11700,2,0,L|512:108,1,89.9999976158143
232,296,12000,6,0,B|180:220|180:220|248:160|216:32,1,269.999992847443,2|0,0:0|0:0,0:0:0:0:
96,120,12600,2,0,L|168:136,1,44.9999988079071,2|0,0:0|0:0,0:0:0:0:
416,192,12750,2,0,L|344:208,1,44.9999988079071
72,248,12900,2,0,L|144:264,1,44.9999988079071,2|0,0:0|0:0,0:0:0:0:
392,320,13050,2,0,L|320:336,1,44.9999988079071
204,76,13200,2,0,L|252:168,1,89.9999976158143,2|0,0:0|0:0,0:0:0:0:
457,271,13500,2,0,L|409:179,1,89.9999976158143,2|0,0:0|0:0,0:0:0:0:
144,40,13800,2,0,P|140:108|192:144,1,134.999996423721,2|0,0:0|0:0,0:0:0:0:
392,64,14100,2,0,L|328:96,1,44.9999988079071
300,224,14250,2,0,L|364:192,1,44.9999988079071
392,64,14400,6,0,B|348:84|348:84|252:-4|144:40,1,269.999992847443,2|0,0:0|0:0,0:0:0:0:
36,264,15000,2,0,L|56:216,1,44.9999988079071,2|0,0:0|0:0,0:0:0:0:
120,332,15150,2,0,L|137:373,1,44.9999988079071
196,260,15300,2,0,L|216:212,1,44.9999988079071,2|0,0:0|0:0,0:0:0:0:
276,332,15450,2,0,L|293:373,1,44.9999988079071
440,120,15600,2,0,P|460:44|436:0,1,89.9999976158143,2|0,0:0|0:0,0:0:0:0:
136,72,15900,2,2,P|116:148|140:192,1,89.9999976158143,0|0,0:0|0:0,0:0:0:0:
440,120,16200,2,0,L|320:120,1,89.9999976158143,2|0,0:0|0:0,0:0:0:0:
112,228,16500,2,0,L|132:272,1,44.9999988079071
276,332,16650,2,0,L|256:288,1,44.9999988079071
136,72,16800,5,0,0:0:0:0:
256,192,16875,12,0,18600,0:0:0:0:
448,56,18900,6,0,L|388:96,1,44.9999988079071
64,328,19050,2,0,L|124:288,1,44.9999988079071
410,80,19200,5,4,1:0:0:0:
256,328,19350,1,0,0:0:0:0:
101,80,19500,1,0,0:0:0:0:
260,336,19650,1,0,0:0:0:0:
352,20,19800,2,0,L|328:108,1,89.9999976158143,0|0,1:0|0:0,0:0:0:0:
64,328,20100,2,0,L|88:240,1,89.9999976158143,0|0,3:0|3:0,0:0:0:0:
452,180,20400,2,0,L|404:148,1,44.9999988079071,0|0,3:0|0:0,0:0:0:0:
276,200,20550,2,0,L|313:224,1,44.9999988079071
272,84,20700,2,0,L|234:59,1,44.9999988079071,0|0,3:0|0:0,0:0:0:0:
40,168,20850,1,0,0:0:0:0:
336,312,21000,2,0,L|416:364,1,89.9999976158143,0|0,1:0|0:0,0:0:0:0:
416,76,21300,2,0,L|336:24,1,89.9999976158143
108,304,21600,5,0,1:0:0:0:
272,84,21750,1,0,0:0:0:0:
424,296,21900,1,0,0:0:0:0:
92,96,22050,1,0,0:0:0:0:
264,360,22200,1,0,1:0:0:0:
420,96,22350,1,0,0:0:0:0:
264,360,22500,1,0,0:0:0:0:
12,208,22650,1,0,0:0:0:0:
200,24,22800,1,0,0:0:0:0:
260,260,22950,1,0,0:0:0:0:
364,48,23100,2,0,L|328:120,1,44.9999988079071
448,216,23250,2,0,L|427:175,1,44.9999988079071
260,260,23400,2,0,P|200:300|144:304,1,89.9999976158143
12,124,23700,2,0,P|72:84|128:80,1,89.9999976158143
356,352,24000,5,0,0:0:0:0:
399,152,24150,1,0,0:0:0:0:
179,267,24300,1,0,0:0:0:0:
484,279,24450,1,0,0:0:0:0:
207,138,24600,1,0,0:0:0:0:
488,288,24750,1,0,0:0:0:0:
208,128,24900,1,0,0:0:0:0:
32,360,25050,2,0,L|76:332,1,44.9999988079071
244,316,25200,2,0,L|200:344,1,44.9999988079071
264,184,25350,2,0,L|308:156,1,44.9999988079071
476,140,25500,2,0,L|432:168,1,44.9999988079071
508,8,25650,1,0,0:0:0:0:
176,64,25800,2,0,L|72:88,1,89.9999976158143
244,316,26100,2,0,L|312:296,1,44.9999988079071
444,152,26250,2,0,L|400:139,1,44.9999988079071
176,64,26400,5,0,0:0:0:0:
332,320,26550,1,0,0:0:0:0:
440,64,26700,1,0,0:0:0:0:
160,60,26850,1,0,0:0:0:0:
347,323,27000,1,0,0:0:0:0:
444,40,27150,1,0,0:0:0:0:
72,308,27300,1,0,0:0:0:0:
444,40,27450,1,0,0:0:0:0:
72,308,27600,2,0,P|144:264|188:260,1,89.9999976158143
328,24,27900,2,0,P|256:68|212:72,1,89.9999976158143
342,323,28200,2,0,L|342:211,1,89.9999976158143
160,60,28500,2,0,L|185:96,1,44.9999988079071
342,322,28650,2,0,L|316:285,1,44.9999988079071
160,60,28800,6,0,P|192:100|188:156,1,89.9999976158143
36,160,29100,1,0,0:0:0:0:
358,42,29250,1,0,0:0:0:0:
460,252,29400,1,0,0:0:0:0:
138,384,29550,1,0,0:0:0:0:
364,32,29700,1,0,0:0:0:0:
138,384,29850,1,0,0:0:0:0:
248,40,30000,2,0,L|216:132,1,89.9999976158143
388,336,30300,2,0,L|356:244,1,89.9999976158143
56,248,30600,2,0,L|85:333,1,89.9999976158143
400,234,30900,2,0,L|340:258,1,44.9999988079071
168,150,31050,2,0,L|228:174,1,44.9999988079071
464,196,31200,6,0,P|430:167|385:163,1,89.9999976158143
98,186,31500,2,0,P|131:215|176:220,1,89.9999976158143
392,40,31800,1,0,0:0:0:0:
176,340,31950,2,0,L|220:284,1,44.9999988079071
400,234,32100,2,0,L|356:290,1,44.9999988079071
364,75,32250,2,0,L|391:39,1,44.9999988079071
154,109,32400,2,0,L|188:80,1,44.9999988079071
337,193,32550,2,0,L|304:164,1,44.9999988079071
138,261,32700,2,0,L|172:232,1,44.9999988079071
321,345,32850,2,0,L|288:316,1,44.9999988079071
80,112,33000,2,0,P|104:164|164:180,1,89.9999976158143
312,16,33300,1,0,0:0:0:0:
504,336,33450,1,0,0:0:0:0:
220,80,33600,6,0,P|168:36|116:48,1,89.9999976158143
88,224,33900,1,0,0:0:0:0:
404,60,34050,1,0,0:0:0:0:
456,192,34200,2,0,L|404:264,1,44.9999988079071
276,252,34350,2,0,L|328:180,1,44.9999988079071
152,288,34500,1,0,0:0:0:0:
152,88,34650,2,0,P|176:24|216:16,1,89.9999976158143
480,24,34950,1,0,0:0:0:0:
240,160,35100,1,0,0:0:0:0:
484,20,35250,1,0,0:0:0:0:
232,164,35400,2,0,L|144:216,1,89.9999976158143
432,344,35700,2,0,L|520:292,1,89.9999976158143
224,168,36000,6,0,L|180:196,1,44.9999988079071
376,216,36150,2,0,L|420:244,1,44.9999988079071
242,271,36300,2,0,L|198:299,1,44.9999988079071
394,319,36450,2,0,L|438:347,1,44.9999988079071
344,116,36600,2,0,L|312:20,1,89.9999976158143
164,264,36900,2,0,L|196:360,1,89.9999976158143
456,148,37200,1,0,0:0:0:0:
272,28,37350,1,0,0:0:0:0:
320,264,37500,1,0,0:0:0:0:
424,8,37650,1,0,0:0:0:0:
200,200,37800,1,0,0:0:0:0:
420,16,37950,1,0,0:0:0:0:
192,208,38100,1,0,0:0:0:0:
464,144,38250,1,0,0:0:0:0:
128,300,38400,6,0,L|44:344,1,89.9999976158143
384,84,38700,2,0,L|468:40,1,89.9999976158143
256,360,39000,2,0,L|256:244,1,89.9999976158143
256,20,39300,2,0,L|256:136,1,89.9999976158143
336,328,39600,1,0,0:0:0:0:
320,144,39750,1,0,0:0:0:0:
156,256,39900,1,0,0:0:0:0:
428,240,40050,1,0,0:0:0:0:
196,120,40200,1,0,0:0:0:0:
200,380,40350,1,0,0:0:0:0:
440,64,40500,1,0,0:0:0:0:
76,344,40650,1,0,0:0:0:0:
224,52,40800,6,0,P|260:92|260:152,1,89.9999976158143
287,331,41100,2,0,P|256:300|246:257,1,89.9999976158143
372,36,41400,1,0,0:0:0:0:
152,272,41550,1,0,0:0:0:0:
372,348,41700,1,0,0:0:0:0:
152,112,41850,1,0,0:0:0:0:
428,264,42000,2,0,L|360:224,1,44.9999988079071
348,112,42150,2,0,L|416:152,1,44.9999988079071
260,176,42300,2,0,L|192:136,1,44.9999988079071
180,24,42450,2,0,L|248:64,1,44.9999988079071
372,348,42600,2,0,L|372:240,1,89.9999976158143
56,36,42900,2,0,L|56:144,1,89.9999976158143
432,120,43200,6,0,L|396:180,1,44.9999988079071
360,4,43350,2,0,L|324:64,1,44.9999988079071
218,255,43500,2,0,P|236:212|266:161,1,89.9999976158143
484,16,43800,1,0,0:0:0:0:
176,96,43950,1,0,0:0:0:0:
400,300,44100,2,0,P|448:272|476:224,1,89.9999976158143
236,32,44400,1,0,0:0:0:0:
164,340,44550,1,0,0:0:0:0:
467,244,44700,1,0,0:0:0:0:
48,168,44850,1,0,0:0:0:0:
236,32,45000,2,0,L|336:32,1,89.9999976158143
254,340,45300,2,0,L|154:340,1,89.9999976158143
340,268,45600,6,0,L|292:268,1,44.9999988079071
148,208,45750,2,0,L|196:208,1,44.9999988079071
344,160,45900,2,0,L|296:160,1,44.9999988079071
152,100,46050,2,0,L|200:100,1,44.9999988079071
432,228,46200,1,0,0:0:0:0:
160,280,46350,2,0,P|88:252|76:208,1,89.9999976158143
264,36,46650,1,0,0:0:0:0:
152,100,46800,6,0,L|200:100,1,44.9999988079071
344,160,46950,2,0,L|296:160,1,44.9999988079071
148,208,47100,2,0,L|196:208,1,44.9999988079071
340,268,47250,2,0,L|292:268,1,44.9999988079071
60,140,47400,1,0,0:0:0:0:
412,32,47550,1,0,0:0:0:0:
376,352,47700,1,0,0:0:0:0:
180,16,47850,1,0,0:0:0:0:
376,352,48000,6,0,L|320:252,1,89.9999976158143
136,32,48300,2,0,L|192:132,1,89.9999976158143
256,368,48600,2,0,L|269:254,1,89.9999976158143
260,16,48900,2,0,L|246:129,1,89.9999976158143
96,312,49200,2,0,L|196:256,1,89.9999976158143
416,72,49500,2,0,L|316:128,1,89.9999976158143
80,192,49800,2,0,L|193:205,1,89.9999976158143
432,196,50100,2,0,L|318:182,1,89.9999976158143
184,128,50400,5,0,0:0:0:0:
328,128,50550,1,0,0:0:0:0:
328,256,50700,1,0,0:0:0:0:
184,256,50850,1,0,0:0:0:0:
191,90,51000,1,0,0:0:0:0:
364,139,51150,1,0,0:0:0:0:
320,293,51300,1,0,0:0:0:0:
147,244,51450,1,0,0:0:0:0:
200,50,51600,1,0,0:0:0:0:
403,153,51750,1,0,0:0:0:0:
311,333,51900,1,0,0:0:0:0:
108,230,52050,1,0,0:0:0:0:
220,0,52200,1,0,0:0:0:0:
451,179,52350,1,0,0:0:0:0:
291,385,52500,1,0,0:0:0:0:
60,204,52650,1,0,0:0:0:0:
304,48,52800,6,0,L|312:80,1,22.4999994039536
252,124,52875,2,0,L|244:92,1,22.4999994039536
200,184,52950,2,0,L|208:216,1,22.4999994039536
148,260,53025,2,0,L|140:228,1,22.4999994039536
224,272,53100,2,0,L|229:293,1,22.4999994039536
286,239,53175,2,0,L|280:217,1,22.4999994039536
327,136,53250,2,0,L|332:157,1,22.4999994039536
390,103,53325,2,0,L|384:81,1,22.4999994039536
273,11,53400,2,0,L|291:46,1,22.4999994039536
233,113,53475,2,0,L|215:78,1,22.4999994039536
188,197,53550,2,0,L|206:232,1,22.4999994039536
148,300,53625,2,0,L|130:265,1,22.4999994039536
240,293,53700,2,0,L|252:317,1,22.4999994039536
303,238,53775,2,0,L|291:214,1,22.4999994039536
323,107,53850,2,0,L|335:131,1,22.4999994039536
388,52,53925,2,0,L|376:28,1,22.4999994039536
272,12,54000,6,0,L|232:24,1,22.4999994039536
160,24,54075,2,0,L|200:36,1,22.4999994039536
232,88,54150,2,0,L|192:100,1,22.4999994039536
120,100,54225,2,0,L|160:112,1,22.4999994039536
188,164,54300,2,0,L|148:176,1,22.4999994039536
76,176,54375,2,0,L|116:188,1,22.4999994039536
148,240,54450,2,0,L|108:252,1,22.4999994039536
36,252,54525,2,0,L|76:264,1,22.4999994039536
188,328,54600,2,0,L|168:317,1,22.4999994039536
258,329,54675,2,0,L|280:326,1,22.4999994039536
241,261,54750,2,0,L|221:250,1,22.4999994039536
311,262,54825,2,0,L|333:259,1,22.4999994039536
299,194,54900,2,0,L|279:183,1,22.4999994039536
369,196,54975,2,0,L|391:193,1,22.4999994039536
353,127,55050,2,0,L|333:116,1,22.4999994039536
423,129,55125,2,0,L|445:126,1,22.4999994039536
388,52,55200,6,0,P|328:40|280:48,1,89.9999976158143
124,332,55500,2,0,P|184:344|232:336,1,89.9999976158143
116,60,55800,2,0,P|104:120|112:168,1,89.9999976158143
396,324,56100,2,0,P|408:264|400:216,1,89.9999976158143
256,192,56400,1,0,0:0:0:0:
256,192,56475,12,0,57300,0:0:0:0:
384,60,57600,6,0,P|336:36|264:52,1,89.9999976158143
272,304,57900,2,0,L|284:248,1,44.9999988079071
136,168,58050,2,0,L|124:224,1,44.9999988079071
440,128,58200,2,0,P|480:64|464:16,1,89.9999976158143
168,72,58500,2,0,L|248:76,1,44.9999988079071
56,120,58650,2,0,P|48:196|64:232,1,89.9999976158143
216,352,58950,2,0,L|260:376,1,44.9999988079071
400,276,59100,2,0,L|356:252,1,44.9999988079071
300,96,59250,2,0,L|344:120,1,44.9999988079071
400,276,59400,2,0,B|360:252|360:252|296:304|216:280,1,179.999995231629
324,364,59850,1,0,0:0:0:0:
280,192,60000,6,0,L|264:92,1,89.9999976158143
168,136,60300,2,0,L|104:148,1,44.9999988079071
368,108,60450,2,0,L|432:96,1,44.9999988079071
162,145,60600,2,0,L|100:164,1,44.9999988079071
358,96,60750,2,0,L|421:78,1,44.9999988079071
156,160,60900,2,0,P|128:216|136:264,1,89.9999976158143
300,260,61200,2,0,L|240:232,1,44.9999988079071
48,344,61350,2,0,L|88:324,1,44.9999988079071
376,256,61500,2,0,P|340:196|284:184,1,89.9999976158143
112,92,61800,2,0,P|176:68|236:108,1,134.999996423721
288,340,62100,2,0,P|224:364|164:324,1,134.999996423721
112,92,62400,6,0,B|140:64|168:68|168:68|204:100|248:88,1,134.999996423721
432,88,62700,2,0,L|372:100,1,44.9999988079071
304,224,62850,2,0,L|364:236,1,44.9999988079071
456,344,63000,2,0,P|408:372|364:380,1,89.9999976158143
128,264,63300,2,0,L|184:292,1,44.9999988079071
152,112,63450,2,0,P|112:92|88:48,1,89.9999976158143
344,284,63750,2,0,L|384:263,1,44.9999988079071
422,54,63900,2,0,P|399:92|360:112,1,89.9999976158143
76,144,64200,2,0,B|100:184|100:184|8:260|84:328,1,179.999995231629
424,336,64650,1,0,0:0:0:0:
304,232,64800,6,0,B|268:234|268:234|244:232|244:232|200:244,1,89.9999976158143
272,156,65100,2,0,L|288:84,1,44.9999988079071
244,312,65250,2,0,L|228:384,1,44.9999988079071
277,158,65400,2,0,L|304:90,1,44.9999988079071
225,308,65550,2,0,L|198:377,1,44.9999988079071
196,148,65700,2,0,L|172:80,1,44.9999988079071
332,320,65850,2,0,L|356:388,1,44.9999988079071
144,224,66000,2,0,L|192:224,1,44.9999988079071
464,232,66150,2,0,L|416:232,1,44.9999988079071
116,320,66300,2,0,L|168:284,1,44.9999988079071
400,128,66450,2,0,L|348:164,1,44.9999988079071
44,244,66600,2,0,P|24:184|72:112,1,134.999996423721
456,60,66900,2,0,P|486:118|466:180,1,134.999996423721
128,324,67200,6,0,P|176:348|248:332,1,89.9999976158143
240,80,67500,2,0,L|228:136,1,44.9999988079071
376,216,67650,2,0,L|388:160,1,44.9999988079071
72,256,67800,2,0,P|32:320|48:368,1,89.9999976158143
344,312,68100,2,0,L|264:308,1,44.9999988079071
456,264,68250,2,0,P|464:188|448:152,1,89.9999976158143
296,32,68550,2,0,L|252:8,1,44.9999988079071
112,108,68700,2,0,L|156:132,1,44.9999988079071
212,288,68850,2,0,L|168:264,1,44.9999988079071
112,108,69000,2,0,B|152:132|152:132|216:80|296:104,1,179.999995231629
188,20,69450,1,0,0:0:0:0:
232,192,69600,6,0,L|248:292,1,89.9999976158143
344,248,69900,2,0,L|408:236,1,44.9999988079071
144,276,70050,2,0,L|80:288,1,44.9999988079071
350,239,70200,2,0,L|412:220,1,44.9999988079071
154,288,70350,2,0,L|91:306,1,44.9999988079071
356,224,70500,2,0,P|384:168|376:120,1,89.9999976158143
212,124,70800,2,0,L|272:152,1,44.9999988079071
464,40,70950,2,0,L|424:60,1,44.9999988079071
136,128,71100,2,0,P|172:188|228:200,1,89.9999976158143
400,292,71400,2,0,P|336:316|276:276,1,134.999996423721
224,44,71700,2,0,P|288:20|348:60,1,134.999996423721
400,292,72000,6,0,B|372:320|344:316|344:316|308:284|264:296,1,134.999996423721
80,296,72300,2,0,L|140:284,1,44.9999988079071
208,160,72450,2,0,L|148:148,1,44.9999988079071
56,40,72600,2,0,P|104:12|148:4,1,89.9999976158143
384,120,72900,2,0,L|328:92,1,44.9999988079071
360,272,73050,2,0,P|400:292|424:336,1,89.9999976158143
168,100,73350,2,0,L|128:121,1,44.9999988079071
90,330,73500,2,0,P|113:292|152:272,1,89.9999976158143
436,240,73800,2,0,B|412:200|412:200|504:124|428:56,1,179.999995231629
88,48,74250,1,0,0:0:0:0:
208,152,74400,6,0,B|244:150|244:150|268:152|268:152|312:140,1,89.9999976158143
240,228,74700,2,0,L|224:300,1,44.9999988079071
268,72,74850,2,0,L|284:0,1,44.9999988079071
235,226,75000,2,0,L|208:294,1,44.9999988079071
287,76,75150,2,0,L|314:7,1,44.9999988079071
316,236,75300,2,0,L|340:304,1,44.9999988079071
180,64,75450,2,0,L|156:-4,1,44.9999988079071
368,160,75600,2,0,L|320:160,1,44.9999988079071
48,152,75750,2,0,L|96:152,1,44.9999988079071
396,64,75900,2,0,L|344:100,1,44.9999988079071
112,256,76050,2,0,L|164:220,1,44.9999988079071
256,20,76200,2,0,L|256:88,1,44.9999988079071
256,364,76350,2,0,L|256:296,1,44.9999988079071
282,22,76500,2,0,L|272:89,1,44.9999988079071
229,361,76650,2,0,L|239:294,1,44.9999988079071
396,64,76800,5,0,0:0:0:0:
216,276,76950,1,0,0:0:0:0:
452,196,77100,1,0,0:0:0:0:
256,116,77250,1,0,0:0:0:0:
360,324,77400,1,0,0:0:0:0:
396,64,77550,1,0,0:0:0:0:
92,216,77700,1,0,0:0:0:0:
492,368,77850,1,0,0:0:0:0:
108,64,78000,1,0,0:0:0:0:
232,360,78150,1,0,0:0:0:0:
396,64,78300,1,0,0:0:0:0:
232,360,78450,1,0,0:0:0:0:
176,32,78600,2,0,L|188:132,1,89.9999976158143
360,324,78900,2,0,L|348:224,1,89.9999976158143
80,136,79200,5,0,0:0:0:0:
156,292,79350,1,0,0:0:0:0:
248,136,79500,1,0,0:0:0:0:
36,276,79650,1,0,0:0:0:0:
176,32,79800,1,0,0:0:0:0:
284,296,79950,1,0,0:0:0:0:
456,36,80100,1,0,0:0:0:0:
284,296,80250,1,0,0:0:0:0:
92,44,80400,1,0,0:0:0:0:
456,36,80550,1,0,0:0:0:0:
92,44,80700,1,0,0:0:0:0:
284,296,80850,1,0,0:0:0:0:
316,36,81000,2,0,L|304:136,1,89.9999976158143
160,352,81300,2,0,L|172:252,1,89.9999976158143
204,24,81600,5,0,0:0:0:0:
384,324,81750,1,0,0:0:0:0:
92,188,81900,1,0,0:0:0:0:
404,48,82050,1,0,0:0:0:0:
220,336,82200,1,0,0:0:0:0:
404,48,82350,1,0,0:0:0:0:
156,224,82500,2,0,P|108:256|60:256,1,89.9999976158143
352,136,82800,2,0,P|400:104|448:104,1,89.9999976158143
504,328,83100,1,0,0:0:0:0:
304,24,83250,1,0,0:0:0:0:
106,298,83400,2,0,L|170:202,1,89.9999976158143
401,61,83700,2,0,L|337:157,1,89.9999976158143
168,344,84000,5,0,0:0:0:0:
348,344,84150,1,0,0:0:0:0:
344,192,84300,1,0,0:0:0:0:
168,192,84450,1,0,0:0:0:0:
168,344,84600,1,0,0:0:0:0:
345,236,84750,1,0,0:0:0:0:
251,88,84900,1,0,0:0:0:0:
76,192,85050,1,0,0:0:0:0:
440,104,85200,1,0,0:0:0:0:
76,192,85350,1,0,0:0:0:0:
499,187,85500,1,0,0:0:0:0:
56,294,85650,1,0,0:0:0:0:
424,28,85800,2,0,P|320:84|316:96,1,89.9999976158143
116,356,86100,2,0,P|220:300|224:288,1,89.9999976158143
341,52,86400,6,0,P|336:120|300:176,1,89.9999976158143
116,356,86700,1,0,0:0:0:0:
224,80,86850,1,0,0:0:0:0:
392,332,87000,1,0,0:0:0:0:
116,356,87150,1,0,0:0:0:0:
416,152,87300,1,0,0:0:0:0:
64,200,87450,1,0,0:0:0:0:
256,364,87600,1,0,0:0:0:0:
80,56,87750,1,0,0:0:0:0:
256,364,87900,1,0,0:0:0:0:
368,48,88050,1,0,0:0:0:0:
328,360,88200,2,0,P|288:300|260:292,1,89.9999976158143
184,24,88500,2,0,P|224:84|252:92,1,89.9999976158143
392,296,88800,5,0,0:0:0:0:
136,296,88950,1,0,0:0:0:0:
136,88,89100,1,0,0:0:0:0:
392,88,89250,1,0,0:0:0:0:
374,315,89400,1,0,0:0:0:0:
121,275,89550,1,0,0:0:0:0:
153,70,89700,1,0,0:0:0:0:
406,110,89850,1,0,0:0:0:0:
209,356,90000,1,0,0:0:0:0:
303,130,90150,1,0,0:0:0:0:
177,361,90300,1,0,0:0:0:0:
315,133,90450,1,0,0:0:0:0:
151,365,90600,1,0,0:0:0:0:
327,135,90750,1,0,0:0:0:0:
105,370,90900,1,0,0:0:0:0:
348,137,91050,1,0,0:0:0:0:
172,280,91200,5,0,0:0:0:0:
168,108,91350,1,0,0:0:0:0:
344,108,91500,1,0,0:0:0:0:
340,280,91650,1,0,0:0:0:0:
145,270,91800,1,0,0:0:0:0:
177,81,91950,1,0,0:0:0:0:
370,118,92100,1,0,0:0:0:0:
329,306,92250,1,0,0:0:0:0:
110,257,92400,1,0,0:0:0:0:
190,46,92550,1,0,0:0:0:0:
404,133,92700,1,0,0:0:0:0:
314,340,92850,1,0,0:0:0:0:
75,228,93000,1,0,0:0:0:0:
219,11,93150,1,0,0:0:0:0:
438,164,93300,1,0,0:0:0:0:
283,374,93450,1,0,0:0:0:0:
444,32,93600,5,0,0:0:0:0:
366,340,93750,1,0,0:0:0:0:
320,32,93900,1,0,0:0:0:0:
242,340,94050,1,0,0:0:0:0:
196,24,94200,1,0,0:0:0:0:
118,332,94350,1,0,0:0:0:0:
80,20,94500,1,0,0:0:0:0:
2,328,94650,1,0,0:0:0:0:
444,32,94800,2,0,L|360:92,1,89.9999976158143
2,328,95100,2,0,L|86:268,1,89.9999976158143
370,84,95400,2,0,P|416:136|416:216,1,134.999996423721
142,300,95700,2,0,P|96:248|96:168,1,134.999996423721
320,24,96000,6,0,P|288:84|316:148,1,134.999996423721
484,100,96300,2,0,L|420:92,1,44.9999988079071
232,224,96450,2,0,L|296:216,1,44.9999988079071
488,328,96600,2,0,B|440:348|440:348|400:348|400:348|332:376,1,134.999996423721
428,236,96900,2,0,L|464:160,1,44.9999988079071
161,259,97050,2,0,L|125:335,1,44.9999988079071
336,88,97200,2,0,L|375:110,1,44.9999988079071
88,108,97350,2,0,L|48:85,1,44.9999988079071
248,296,97500,2,0,P|300:344|368:316,1,134.999996423721
336,88,97800,2,0,B|380:128|380:128|308:152|308:152|368:232|300:288,1,269.999992847443
76,216,98400,6,0,L|180:216,1,89.9999976158143
480,216,98700,2,0,L|420:216,1,44.9999988079071
308,152,98850,2,0,L|368:152,1,44.9999988079071
488,200,99000,2,0,L|425:212,1,44.9999988079071
296,164,99150,2,0,L|358:151,1,44.9999988079071
500,168,99300,2,0,B|492:192|492:192|468:248|468:248|472:328,1,134.999996423721
304,344,99600,2,0,L|252:356,1,44.9999988079071
140,244,99750,2,0,L|192:256,1,44.9999988079071
308,152,99900,2,0,B|280:112|280:112|224:128|184:88,1,134.999996423721
260,28,100200,2,0,P|236:96|228:200,1,134.999996423721
392,360,100500,2,0,P|416:292|424:188,1,134.999996423721
88,44,100800,6,0,P|152:72|184:108,1,89.9999976158143
276,336,101100,2,0,L|244:276,1,44.9999988079071
329,112,101250,2,0,L|307:151,1,44.9999988079071
452,288,101400,2,0,P|496:252|516:180,1,89.9999976158143
329,112,101700,2,0,P|285:148|265:220,1,89.9999976158143
172,360,102000,2,0,L|196:308,1,44.9999988079071
124,156,102150,2,0,L|100:208,1,44.9999988079071
348,284,102300,2,0,P|400:236|416:192,1,89.9999976158143
256,28,102600,2,0,B|280:56|280:56|224:132|304:196,1,179.999995231629
448,112,103050,1,0,0:0:0:0:
60,112,103200,6,0,L|116:112,1,44.9999988079071
264,244,103350,2,0,L|208:244,1,44.9999988079071
64,88,103500,2,0,L|125:97,1,44.9999988079071
264,268,103650,2,0,L|202:258,1,44.9999988079071
152,16,103800,2,0,L|172:84,1,44.9999988079071
240,368,103950,2,0,L|220:300,1,44.9999988079071
216,8,104100,2,0,L|210:78,1,44.9999988079071
172,368,104250,2,0,L|177:297,1,44.9999988079071
400,88,104400,2,0,L|356:140,1,44.9999988079071
172,292,104550,2,0,L|224:248,1,44.9999988079071
448,320,104700,2,0,L|408:280,1,44.9999988079071
192,72,104850,2,0,L|232:112,1,44.9999988079071
448,320,105000,2,0,P|484:272|460:192,1,134.999996423721
192,72,105300,2,0,P|156:120|180:200,1,134.999996423721
200,360,105600,6,0,P|232:300|204:236,1,134.999996423721
36,284,105900,2,0,L|100:292,1,44.9999988079071
288,160,106050,2,0,L|224:168,1,44.9999988079071
32,56,106200,2,0,B|80:36|80:36|120:36|120:36|188:8,1,134.999996423721
92,148,106500,2,0,L|56:224,1,44.9999988079071
359,125,106650,2,0,L|395:49,1,44.9999988079071
184,296,106800,2,0,L|145:274,1,44.9999988079071
432,276,106950,2,0,L|472:299,1,44.9999988079071
272,88,107100,2,0,P|220:40|152:68,1,134.999996423721
184,296,107400,2,0,B|140:256|140:256|212:232|212:232|152:152|220:96,1,269.999992847443
444,168,108000,6,0,L|340:168,1,89.9999976158143
40,168,108300,2,0,L|100:168,1,44.9999988079071
212,232,108450,2,0,L|152:232,1,44.9999988079071
32,184,108600,2,0,L|95:172,1,44.9999988079071
224,220,108750,2,0,L|162:233,1,44.9999988079071
20,216,108900,2,0,B|28:192|28:192|52:136|52:136|48:56,1,134.999996423721
216,40,109200,2,0,L|268:28,1,44.9999988079071
380,140,109350,2,0,L|328:128,1,44.9999988079071
212,232,109500,2,0,B|240:272|240:272|296:256|336:296,1,134.999996423721
260,356,109800,2,0,P|284:288|292:184,1,134.999996423721
128,24,110100,2,0,P|104:92|96:196,1,134.999996423721
432,340,110400,6,0,P|368:312|336:276,1,89.9999976158143
244,48,110700,2,0,L|276:108,1,44.9999988079071
191,272,110850,2,0,L|212:232,1,44.9999988079071
68,96,111000,2,0,P|24:132|4:204,1,89.9999976158143
191,272,111300,2,0,P|235:236|255:164,1,89.9999976158143
348,24,111600,2,0,L|324:76,1,44.9999988079071
396,228,111750,2,0,L|420:176,1,44.9999988079071
172,100,111900,2,0,P|120:148|104:192,1,89.9999976158143
264,356,112200,2,0,B|240:328|240:328|296:252|216:188,1,179.999995231629
72,272,112650,1,0,0:0:0:0:
460,272,112800,6,0,L|404:272,1,44.9999988079071
256,140,112950,2,0,L|312:140,1,44.9999988079071
456,296,113100,2,0,L|394:286,1,44.9999988079071
256,116,113250,2,0,L|317:125,1,44.9999988079071
368,368,113400,2,0,L|348:300,1,44.9999988079071
280,16,113550,2,0,L|300:84,1,44.9999988079071
304,376,113700,2,0,L|309:305,1,44.9999988079071
348,16,113850,2,0,L|342:86,1,44.9999988079071
120,296,114000,2,0,L|164:244,1,44.9999988079071
348,92,114150,2,0,L|296:136,1,44.9999988079071
72,64,114300,2,0,L|112:104,1,44.9999988079071
328,312,114450,2,0,L|288:272,1,44.9999988079071
72,64,114600,1,0,0:0:0:0:
240,324,114750,1,0,0:0:0:0:
232,4,114900,1,0,0:0:0:0:
76,288,115050,1,0,0:0:0:0:
348,92,115200,5,0,0:0:0:0:
