osu file format v14

[General]
AudioFilename: Wubs.mp3
AudioLeadIn: 0
PreviewTime: 87382
Countdown: 0
SampleSet: None
StackLeniency: 0.7
Mode: 1
LetterboxInBreaks: 1
WidescreenStoryboard: 0

[Editor]
Bookmarks: 17564,69382,104837,122291,138200,213683
DistanceSpacing: 0.5
BeatDivisor: 3
GridSize: 8
TimelineZoom: 3.099999

[Metadata]
Title:Live Wire
TitleUnicode:Live Wire
Artist:Excision
ArtistUnicode:Excision
Creator:-Kriston-
Version:Taiko UltraPls
Source:
Tags:Dubstep
BeatmapID:667989
BeatmapSetID:297577

[Difficulty]
HPDrainRate:8
CircleSize:4
OverallDifficulty:5
ApproachRate:5
SliderMultiplier:1.4
SliderTickRate:1

[Events]
//Background and Video events
0,0,"exreited.jpg",0,0
//Break Periods
//Storyboard Layer 0 (Background)
//Storyboard Layer 1 (Fail)
//Storyboard Layer 2 (Pass)
//Storyboard Layer 3 (Foreground)
//Storyboard Sound Samples

[TimingPoints]
110,272.727272727273,4,1,0,100,1,0
124473,266.666666666667,4,1,0,80,1,0
125540,260.869565217391,4,1,0,80,1,0
126583,255.31914893617,4,1,0,80,1,0
127604,250,4,1,0,80,1,0
128604,244.897959183673,4,1,0,80,1,0
129583,240,4,1,0,80,1,0
130580,240,4,1,0,80,1,0
138200,233.918128654971,4,1,0,80,1,0
138200,-100,4,1,0,80,0,1
153170,-100,4,1,0,80,0,0
169077,230.769230769231,4,1,0,80,1,0
170000,222.222222222222,4,1,0,80,1,0
170888,214.285714285714,4,1,0,80,1,0
171745,206.896551724138,4,1,0,80,1,0
172572,200,4,1,0,80,1,0
173372,193.548387096774,4,1,0,80,1,0
174146,187.5,4,1,0,80,1,0
174896,184.615384615385,4,1,0,80,1,0
180580,172.413793103448,4,1,0,80,1,0
180580,-125,4,1,0,80,0,1
191614,-133.333333333333,4,1,0,80,0,0

[HitObjects]
320,136,16746,5,0,0:0:0:0:
320,136,16882,1,0,0:0:0:0:
320,136,17019,1,0,0:0:0:0:
208,184,17156,1,8,0:0:0:0:
272,184,17292,1,8,0:0:0:0:
272,184,17428,1,8,0:0:0:0:
272,184,17564,1,4,0:0:0:0:
288,144,18110,1,12,0:0:0:0:
288,144,18655,1,8,0:0:0:0:
288,144,18928,1,0,0:0:0:0:
288,144,19200,1,8,0:0:0:0:
288,144,19746,1,0,0:0:0:0:
288,144,20291,1,8,0:0:0:0:
288,144,20837,1,8,0:0:0:0:
296,144,21110,1,0,0:0:0:0:
296,144,21382,1,8,0:0:0:0:
296,152,21928,1,0,0:0:0:0:
296,152,22473,1,8,0:0:0:0:
304,160,23019,1,8,0:0:0:0:
304,160,23291,1,0,0:0:0:0:
304,160,23564,1,8,0:0:0:0:
304,160,24110,1,0,0:0:0:0:
312,160,24655,1,8,0:0:0:0:
360,168,25200,1,0,0:0:0:0:
360,168,25337,1,0,0:0:0:0:
360,168,25473,1,0,0:0:0:0:
360,168,25610,1,0,0:0:0:0:
304,112,25746,1,8,0:0:0:0:
352,176,25882,1,8,0:0:0:0:
352,176,26019,1,8,0:0:0:0:
352,176,26155,1,8,0:0:0:0:
352,176,26291,1,0,0:0:0:0:
352,176,26564,1,8,0:0:0:0:
352,176,26700,1,0,0:0:0:0:
352,176,26769,1,0,0:0:0:0:
352,176,26837,1,0,0:0:0:0:
352,176,26973,1,0,0:0:0:0:
352,176,27110,1,8,0:0:0:0:
272,152,27382,1,0,0:0:0:0:
272,152,27519,1,8,0:0:0:0:
272,152,27655,1,8,0:0:0:0:
272,152,27791,1,8,0:0:0:0:
272,152,27860,1,8,0:0:0:0:
272,152,27928,1,0,0:0:0:0:
272,152,28064,1,0,0:0:0:0:
272,152,28200,1,8,0:0:0:0:
304,152,28337,1,8,0:0:0:0:
304,88,28473,1,0,0:0:0:0:
343,163,28610,1,0,0:0:0:0:
296,120,28746,1,0,0:0:0:0:
296,128,28882,1,0,0:0:0:0:
296,128,29019,1,8,0:0:0:0:
320,224,29291,1,8,0:0:0:0:
352,224,29564,1,0,0:0:0:0:
352,224,29700,1,0,0:0:0:0:
352,224,29837,1,0,0:0:0:0:
352,224,29973,1,0,0:0:0:0:
352,208,30041,1,0,0:0:0:0:
352,224,30110,1,8,0:0:0:0:
352,224,30246,1,0,0:0:0:0:
352,216,30314,1,0,0:0:0:0:
352,216,30382,1,8,0:0:0:0:
352,216,30450,1,8,0:0:0:0:
352,216,30519,1,0,0:0:0:0:
352,216,30655,1,0,0:0:0:0:
286,267,30791,1,0,0:0:0:0:
224,216,30928,1,0,0:0:0:0:
352,208,31064,1,0,0:0:0:0:
352,208,31132,1,0,0:0:0:0:
352,208,31200,1,8,0:0:0:0:
352,208,31337,1,0,0:0:0:0:
352,208,31473,1,8,0:0:0:0:
336,200,31610,1,8,0:0:0:0:
320,160,31746,1,0,0:0:0:0:
312,144,31882,1,0,0:0:0:0:
328,144,32019,1,8,0:0:0:0:
360,136,32155,1,0,0:0:0:0:
360,144,32291,1,8,0:0:0:0:
360,144,32428,1,8,0:0:0:0:
360,144,32564,1,8,0:0:0:0:
304,208,32700,1,8,0:0:0:0:
304,192,32837,1,0,0:0:0:0:
352,168,33110,1,0,0:0:0:0:
352,168,33246,1,0,0:0:0:0:
352,168,33382,1,8,0:0:0:0:
352,168,33519,1,8,0:0:0:0:
352,176,33655,1,8,0:0:0:0:
294,168,33791,1,8,0:0:0:0:
352,160,33928,1,0,0:0:0:0:
389,203,34200,1,0,0:0:0:0:
352,160,34337,1,0,0:0:0:0:
352,160,34473,1,8,0:0:0:0:
352,160,34541,1,8,0:0:0:0:
352,160,34610,1,0,0:0:0:0:
352,160,34678,1,0,0:0:0:0:
352,160,34746,1,8,0:0:0:0:
352,160,34882,1,8,0:0:0:0:
328,184,35019,1,4,0:0:0:0:
256,192,35087,12,0,51996,0:0:0:0:
238,223,52473,5,4,0:0:0:0:
300,187,53019,1,0,0:0:0:0:
300,187,53564,1,4,0:0:0:0:
300,187,54110,1,8,0:0:0:0:
300,187,54655,1,4,0:0:0:0:
300,187,55200,1,0,0:0:0:0:
300,187,55746,1,4,0:0:0:0:
300,187,56291,1,8,0:0:0:0:
270,194,56837,1,4,0:0:0:0:
286,113,57110,1,8,0:0:0:0:
354,169,57382,1,8,0:0:0:0:
292,144,57655,1,8,0:0:0:0:
292,144,57928,1,4,0:0:0:0:
279,194,58473,1,0,0:0:0:0:
290,183,59019,1,4,0:0:0:0:
289,182,59291,1,0,0:0:0:0:
288,181,59564,1,8,0:0:0:0:
286,179,59837,1,8,0:0:0:0:
286,181,60110,1,4,0:0:0:0:
290,183,60655,1,0,0:0:0:0:
288,181,61200,1,4,0:0:0:0:
286,179,61473,1,0,0:0:0:0:
286,181,61746,1,8,0:0:0:0:
290,183,62019,1,8,0:0:0:0:
290,183,62291,1,4,0:0:0:0:
288,181,62564,1,8,0:0:0:0:
288,181,62837,1,8,0:0:0:0:
266,122,63110,1,8,0:0:0:0:
264,127,63382,1,4,0:0:0:0:
271,144,63655,1,0,0:0:0:0:
274,144,63928,1,8,0:0:0:0:
221,87,64200,1,8,0:0:0:0:
348,188,64473,1,4,0:0:0:0:
322,127,64746,1,8,0:0:0:0:
337,157,65019,1,8,0:0:0:0:
337,157,65291,1,8,0:0:0:0:
337,157,65564,1,12,0:0:0:0:
315,201,65700,1,0,0:0:0:0:
315,201,65837,1,0,0:0:0:0:
315,201,65973,1,0,0:0:0:0:
315,201,66110,1,12,0:0:0:0:
291,119,66246,1,8,0:0:0:0:
291,119,66382,1,4,0:0:0:0:
291,119,66519,1,0,0:0:0:0:
291,119,66655,1,12,0:0:0:0:
297,129,66791,1,8,0:0:0:0:
297,128,66928,1,4,0:0:0:0:
295,127,67064,1,0,0:0:0:0:
295,125,67200,1,12,0:0:0:0:
293,124,67337,1,8,0:0:0:0:
293,124,67473,1,12,0:0:0:0:
292,124,67610,1,4,0:0:0:0:
340,134,67746,2,4,L|241:129,8,70
265,148,69382,1,4,0:0:0:0:
265,148,69655,1,0,0:0:0:0:
251,143,69928,1,4,0:0:0:0:
278,215,70200,1,4,0:0:0:0:
278,215,70337,1,0,0:0:0:0:
278,215,70405,1,0,0:0:0:0:
326,198,70473,1,8,0:0:0:0:
302,185,70610,1,8,0:0:0:0:
197,193,70655,1,8,0:0:0:0:
314,218,70746,1,8,0:0:0:0:
314,218,70791,1,8,0:0:0:0:
314,218,70882,1,8,0:0:0:0:
314,218,70928,1,8,0:0:0:0:
314,218,71019,1,4,0:0:0:0:
346,158,71155,1,0,0:0:0:0:
363,197,71223,1,0,0:0:0:0:
344,156,71291,1,8,0:0:0:0:
342,155,71428,1,0,0:0:0:0:
369,153,71496,1,0,0:0:0:0:
360,176,71564,1,8,0:0:0:0:
294,174,71632,1,8,0:0:0:0:
295,124,71700,1,0,0:0:0:0:
346,153,71837,1,0,0:0:0:0:
295,124,71973,1,0,0:0:0:0:
295,124,72110,1,4,0:0:0:0:
271,172,72246,1,8,0:0:0:0:
268,167,72382,1,8,0:0:0:0:
269,166,72519,1,8,0:0:0:0:
271,172,72655,1,4,0:0:0:0:
396,166,72791,1,8,0:0:0:0:
303,119,72837,1,8,0:0:0:0:
313,137,72928,1,8,0:0:0:0:
311,138,72973,1,8,0:0:0:0:
314,139,73064,1,8,0:0:0:0:
314,141,73110,1,8,0:0:0:0:
316,143,73200,1,4,0:0:0:0:
309,171,73337,1,0,0:0:0:0:
308,169,73405,1,0,0:0:0:0:
309,171,73473,1,8,0:0:0:0:
256,174,73610,1,0,0:0:0:0:
256,174,73678,1,0,0:0:0:0:
258,174,73746,1,8,0:0:0:0:
259,174,73814,1,8,0:0:0:0:
259,176,73882,1,0,0:0:0:0:
372,216,74019,1,0,0:0:0:0:
372,216,74155,1,8,0:0:0:0:
372,216,74223,1,8,0:0:0:0:
372,216,74291,1,0,0:0:0:0:
336,240,74428,1,0,0:0:0:0:
268,193,74564,1,0,0:0:0:0:
301,198,74700,1,0,0:0:0:0:
301,198,74837,1,0,0:0:0:0:
343,129,74882,1,0,0:0:0:0:
338,130,74973,1,8,0:0:0:0:
336,128,75019,1,8,0:0:0:0:
337,129,75110,1,8,0:0:0:0:
338,130,75155,1,8,0:0:0:0:
289,138,75246,1,8,0:0:0:0:
256,120,75291,1,8,0:0:0:0:
334,173,75382,1,4,0:0:0:0:
322,199,75519,1,0,0:0:0:0:
321,198,75587,1,0,0:0:0:0:
316,192,75655,1,8,0:0:0:0:
316,193,75791,1,8,0:0:0:0:
318,194,75928,1,0,0:0:0:0:
319,195,76064,1,0,0:0:0:0:
321,197,76200,1,8,0:0:0:0:
313,209,76337,1,8,0:0:0:0:
310,196,76473,1,4,0:0:0:0:
282,170,76610,1,8,0:0:0:0:
282,170,76678,1,0,0:0:0:0:
282,170,76746,1,8,0:0:0:0:
286,174,76814,1,0,0:0:0:0:
287,174,76882,1,8,0:0:0:0:
216,84,77019,1,4,0:0:0:0:
301,165,77155,1,8,0:0:0:0:
321,159,77223,1,0,0:0:0:0:
321,159,77291,1,8,0:0:0:0:
299,162,77360,1,0,0:0:0:0:
300,162,77428,1,8,0:0:0:0:
302,163,77564,1,4,0:0:0:0:
287,159,77700,1,0,0:0:0:0:
288,159,77769,1,0,0:0:0:0:
289,161,77837,1,8,0:0:0:0:
292,157,77973,1,8,0:0:0:0:
293,158,78110,1,4,0:0:0:0:
346,175,78246,1,8,0:0:0:0:
255,171,78382,1,8,0:0:0:0:
255,171,78519,1,8,0:0:0:0:
255,171,78655,1,4,0:0:0:0:
311,205,78928,1,0,0:0:0:0:
311,205,79064,1,8,0:0:0:0:
308,135,79200,1,8,0:0:0:0:
255,210,79337,1,0,0:0:0:0:
255,210,79382,1,0,0:0:0:0:
255,210,79473,1,8,0:0:0:0:
255,210,79519,1,8,0:0:0:0:
255,210,79610,1,8,0:0:0:0:
255,210,79655,1,8,0:0:0:0:
327,155,79746,1,4,0:0:0:0:
248,104,79882,1,0,0:0:0:0:
248,104,79950,1,0,0:0:0:0:
248,104,80019,1,0,0:0:0:0:
266,108,80155,1,0,0:0:0:0:
296,182,80223,1,0,0:0:0:0:
319,150,80291,1,8,0:0:0:0:
318,149,80360,1,8,0:0:0:0:
318,148,80428,1,0,0:0:0:0:
318,148,80564,1,4,0:0:0:0:
338,183,80700,1,0,0:0:0:0:
368,160,80746,1,0,0:0:0:0:
272,208,80837,1,0,0:0:0:0:
344,112,80882,1,0,0:0:0:0:
252,134,80973,1,8,0:0:0:0:
323,136,81019,1,8,0:0:0:0:
312,157,81110,1,8,0:0:0:0:
311,154,81155,1,8,0:0:0:0:
321,142,81246,1,8,0:0:0:0:
322,142,81291,1,8,0:0:0:0:
326,137,81382,1,4,0:0:0:0:
322,193,81519,1,0,0:0:0:0:
322,193,81587,1,0,0:0:0:0:
321,193,81655,1,8,0:0:0:0:
323,193,81723,1,8,0:0:0:0:
323,194,81791,1,0,0:0:0:0:
326,196,81928,1,4,0:0:0:0:
328,137,82064,1,0,0:0:0:0:
323,136,82200,1,8,0:0:0:0:
336,233,82337,1,0,0:0:0:0:
331,225,82382,1,0,0:0:0:0:
329,224,82428,1,0,0:0:0:0:
331,225,82473,1,0,0:0:0:0:
321,198,82610,1,8,0:0:0:0:
323,199,82655,1,8,0:0:0:0:
321,199,82700,1,8,0:0:0:0:
344,176,82746,1,8,0:0:0:0:
296,158,82882,1,8,0:0:0:0:
303,173,83019,1,4,0:0:0:0:
290,193,83564,1,4,0:0:0:0:
374,113,83700,1,8,0:0:0:0:
328,139,83746,1,8,0:0:0:0:
291,181,83837,1,8,0:0:0:0:
284,178,83882,1,8,0:0:0:0:
281,175,83973,1,8,0:0:0:0:
281,177,84019,1,8,0:0:0:0:
284,178,84110,1,4,0:0:0:0:
329,138,84246,1,0,0:0:0:0:
330,138,84382,1,4,0:0:0:0:
314,133,84519,1,0,0:0:0:0:
316,134,84587,1,0,0:0:0:0:
316,134,84655,1,8,0:0:0:0:
316,136,84791,1,8,0:0:0:0:
318,136,84928,1,8,0:0:0:0:
321,138,85064,1,8,0:0:0:0:
323,140,85200,1,4,0:0:0:0:
305,173,85337,1,8,0:0:0:0:
311,165,85405,1,0,0:0:0:0:
306,175,85473,1,8,0:0:0:0:
311,165,85541,1,0,0:0:0:0:
315,166,85610,1,8,0:0:0:0:
313,167,85678,1,0,0:0:0:0:
313,167,85746,1,8,0:0:0:0:
325,202,85814,1,8,0:0:0:0:
313,168,85882,1,0,0:0:0:0:
312,166,85950,1,0,0:0:0:0:
313,166,86019,1,8,0:0:0:0:
303,140,86155,1,8,0:0:0:0:
313,167,86291,1,4,0:0:0:0:
297,156,86428,1,0,0:0:0:0:
314,168,86564,1,4,0:0:0:0:
314,168,86837,1,12,0:0:0:0:
319,193,87110,1,12,0:0:0:0:
316,188,87382,1,4,0:0:0:0:
306,155,87928,1,4,0:0:0:0:
307,148,88064,1,8,0:0:0:0:
307,148,88132,1,8,0:0:0:0:
307,148,88200,1,8,0:0:0:0:
312,153,88337,1,8,0:0:0:0:
313,153,88473,1,0,0:0:0:0:
271,95,88610,1,0,0:0:0:0:
271,95,88678,1,0,0:0:0:0:
271,95,88746,1,8,0:0:0:0:
271,95,88882,1,8,0:0:0:0:
271,95,88950,1,8,0:0:0:0:
270,103,89019,1,8,0:0:0:0:
346,178,89155,1,0,0:0:0:0:
346,178,89223,1,0,0:0:0:0:
346,178,89291,1,8,0:0:0:0:
335,231,89360,1,8,0:0:0:0:
335,231,89428,1,0,0:0:0:0:
335,231,89564,1,4,0:0:0:0:
266,153,89837,1,4,0:0:0:0:
236,221,89973,1,0,0:0:0:0:
242,233,90110,1,4,0:0:0:0:
240,175,90382,1,4,0:0:0:0:
240,175,90519,1,0,0:0:0:0:
240,175,90655,1,12,0:0:0:0:
240,175,90791,1,8,0:0:0:0:
240,175,90928,1,4,0:0:0:0:
282,213,91200,1,4,0:0:0:0:
312,200,91337,1,0,0:0:0:0:
328,184,91405,1,0,0:0:0:0:
272,120,91473,1,0,0:0:0:0:
272,120,91610,1,0,0:0:0:0:
272,120,91746,1,4,0:0:0:0:
264,104,92291,1,8,0:0:0:0:
272,96,92428,1,8,0:0:0:0:
280,104,92496,1,0,0:0:0:0:
304,168,92564,1,8,0:0:0:0:
264,104,92632,1,0,0:0:0:0:
264,104,92700,1,8,0:0:0:0:
288,128,92769,1,0,0:0:0:0:
264,104,92837,1,8,0:0:0:0:
264,104,92905,1,8,0:0:0:0:
264,104,92973,1,0,0:0:0:0:
264,104,93041,1,0,0:0:0:0:
272,112,93110,1,8,0:0:0:0:
288,104,93178,1,8,0:0:0:0:
280,104,93246,1,0,0:0:0:0:
288,112,93314,1,0,0:0:0:0:
288,112,93382,1,8,0:0:0:0:
320,128,93450,1,8,0:0:0:0:
288,176,93519,1,8,0:0:0:0:
288,176,93587,1,8,0:0:0:0:
288,176,93655,1,0,0:0:0:0:
288,176,93791,1,0,0:0:0:0:
296,176,93928,1,4,0:0:0:0:
280,200,94064,1,0,0:0:0:0:
280,192,94110,1,0,0:0:0:0:
320,160,94200,1,8,0:0:0:0:
320,160,94246,1,8,0:0:0:0:
320,160,94337,1,0,0:0:0:0:
336,176,94382,1,0,0:0:0:0:
264,96,94473,1,4,0:0:0:0:
288,112,94610,1,0,0:0:0:0:
288,112,94655,1,0,0:0:0:0:
288,112,94745,1,8,0:0:0:0:
288,112,94791,1,8,0:0:0:0:
288,112,94882,1,0,0:0:0:0:
248,104,94928,1,0,0:0:0:0:
296,144,95019,1,4,0:0:0:0:
248,168,95155,1,0,0:0:0:0:
248,168,95291,1,8,0:0:0:0:
248,168,95428,1,8,0:0:0:0:
248,168,95564,1,4,0:0:0:0:
224,128,95837,1,4,0:0:0:0:
224,128,96110,1,4,0:0:0:0:
256,184,96246,1,8,0:0:0:0:
256,184,96382,1,8,0:0:0:0:
256,184,96519,1,8,0:0:0:0:
320,160,96655,1,4,0:0:0:0:
320,168,96791,1,8,0:0:0:0:
320,160,96860,1,0,0:0:0:0:
320,160,96928,1,8,0:0:0:0:
376,232,96996,1,0,0:0:0:0:
328,184,97064,1,8,0:0:0:0:
320,160,97200,1,4,0:0:0:0:
240,200,97337,1,0,0:0:0:0:
240,200,97405,1,0,0:0:0:0:
240,200,97473,1,8,0:0:0:0:
272,232,97541,1,0,0:0:0:0:
240,200,97610,1,8,0:0:0:0:
304,160,97678,1,0,0:0:0:0:
240,200,97746,1,8,0:0:0:0:
264,144,97814,1,8,0:0:0:0:
264,144,97882,1,0,0:0:0:0:
320,192,97950,1,0,0:0:0:0:
272,128,98019,1,8,0:0:0:0:
272,152,98087,1,8,0:0:0:0:
272,128,98155,1,0,0:0:0:0:
272,128,98291,1,4,0:0:0:0:
240,112,98428,1,0,0:0:0:0:
240,112,98564,1,12,0:0:0:0:
240,112,98700,1,8,0:0:0:0:
240,112,98837,1,4,0:0:0:0:
232,136,99110,1,12,0:0:0:0:
232,136,99246,1,0,0:0:0:0:
248,128,99382,1,0,0:0:0:0:
208,96,99519,1,12,0:0:0:0:
208,96,99791,1,4,0:0:0:0:
208,96,99928,1,8,0:0:0:0:
264,104,100064,1,8,0:0:0:0:
248,120,100200,1,4,0:0:0:0:
248,128,100473,1,4,0:0:0:0:
288,176,100610,1,8,0:0:0:0:
320,224,100678,1,8,0:0:0:0:
280,176,100746,1,8,0:0:0:0:
288,144,100882,1,8,0:0:0:0:
288,144,101019,1,4,0:0:0:0:
392,208,101155,1,8,0:0:0:0:
312,168,101223,1,0,0:0:0:0:
368,192,101291,1,8,0:0:0:0:
288,144,101360,1,0,0:0:0:0:
280,120,101428,1,8,0:0:0:0:
240,128,101564,1,8,0:0:0:0:
240,128,101632,1,8,0:0:0:0:
240,128,101700,1,8,0:0:0:0:
248,120,101837,1,0,0:0:0:0:
256,112,101905,1,0,0:0:0:0:
256,112,101973,1,0,0:0:0:0:
256,112,102110,1,8,0:0:0:0:
256,120,102178,1,8,0:0:0:0:
256,120,102246,1,0,0:0:0:0:
336,200,102314,1,0,0:0:0:0:
336,200,102382,1,8,0:0:0:0:
336,200,102450,1,8,0:0:0:0:
328,200,102519,1,0,0:0:0:0:
328,200,102587,1,0,0:0:0:0:
328,200,102655,1,8,0:0:0:0:
336,160,102700,1,8,0:0:0:0:
248,136,102746,1,8,0:0:0:0:
240,128,102791,1,0,0:0:0:0:
256,176,102928,1,0,0:0:0:0:
344,128,102973,1,0,0:0:0:0:
344,128,103019,1,0,0:0:0:0:
384,216,103064,1,0,0:0:0:0:
352,168,103200,1,8,0:0:0:0:
360,136,103246,1,8,0:0:0:0:
360,136,103291,1,8,0:0:0:0:
360,136,103337,1,8,0:0:0:0:
352,152,103473,1,0,0:0:0:0:
360,136,103519,1,0,0:0:0:0:
360,136,103564,1,0,0:0:0:0:
360,136,103610,1,0,0:0:0:0:
288,200,103746,2,4,L|64:192,2,210
264,184,104837,1,4,0:0:0:0:
248,128,104973,1,0,0:0:0:0:
248,128,105041,1,0,0:0:0:0:
248,128,105110,1,8,0:0:0:0:
392,200,105178,1,8,0:0:0:0:
248,128,105246,1,0,0:0:0:0:
248,128,105382,1,8,0:0:0:0:
248,128,105450,1,8,0:0:0:0:
256,128,105519,1,0,0:0:0:0:
256,128,105587,1,0,0:0:0:0:
256,128,105655,1,8,0:0:0:0:
256,128,105791,1,8,0:0:0:0:
256,128,105928,1,0,0:0:0:0:
256,128,106064,1,0,0:0:0:0:
256,128,106132,1,0,0:0:0:0:
256,128,106200,1,8,0:0:0:0:
256,128,106269,1,8,0:0:0:0:
256,136,106337,1,0,0:0:0:0:
256,136,106473,1,8,0:0:0:0:
256,136,106541,1,8,0:0:0:0:
256,136,106610,1,0,0:0:0:0:
336,192,106678,1,0,0:0:0:0:
256,136,106746,1,8,0:0:0:0:
256,136,106882,1,8,0:0:0:0:
368,240,107019,1,0,0:0:0:0:
280,168,107155,1,0,0:0:0:0:
280,168,107223,1,0,0:0:0:0:
280,168,107291,1,8,0:0:0:0:
280,168,107428,1,8,0:0:0:0:
280,168,107496,1,8,0:0:0:0:
280,168,107564,1,0,0:0:0:0:
280,168,107700,1,0,0:0:0:0:
280,168,107769,1,0,0:0:0:0:
280,168,107837,1,8,0:0:0:0:
280,168,107973,1,0,0:0:0:0:
280,168,108041,1,0,0:0:0:0:
280,168,108110,1,8,0:0:0:0:
288,136,108178,1,8,0:0:0:0:
288,136,108246,1,0,0:0:0:0:
288,136,108314,1,0,0:0:0:0:
288,136,108382,1,8,0:0:0:0:
288,136,108450,1,0,0:0:0:0:
288,136,108519,1,8,0:0:0:0:
288,136,108587,1,0,0:0:0:0:
288,136,108655,1,8,0:0:0:0:
288,216,108723,1,8,0:0:0:0:
288,216,108791,1,8,0:0:0:0:
272,128,108860,1,8,0:0:0:0:
288,216,108928,1,0,0:0:0:0:
328,176,109064,1,0,0:0:0:0:
328,176,109200,1,4,0:0:0:0:
336,176,109337,1,0,0:0:0:0:
336,176,109405,1,0,0:0:0:0:
336,176,109473,1,8,0:0:0:0:
336,176,109541,1,8,0:0:0:0:
336,176,109610,1,0,0:0:0:0:
336,176,109746,1,8,0:0:0:0:
336,176,109814,1,0,0:0:0:0:
336,176,109882,1,8,0:0:0:0:
336,176,109950,1,0,0:0:0:0:
336,176,110019,1,8,0:0:0:0:
344,192,110155,1,8,0:0:0:0:
344,192,110291,1,0,0:0:0:0:
280,224,110428,1,0,0:0:0:0:
280,224,110496,1,0,0:0:0:0:
280,224,110564,1,8,0:0:0:0:
280,224,110632,1,8,0:0:0:0:
280,224,110700,1,0,0:0:0:0:
280,216,110837,1,8,0:0:0:0:
280,216,110905,1,0,0:0:0:0:
280,216,110973,1,8,0:0:0:0:
280,216,111041,1,0,0:0:0:0:
288,216,111110,1,8,0:0:0:0:
320,152,111178,1,0,0:0:0:0:
288,216,111246,1,8,0:0:0:0:
288,224,111314,1,8,0:0:0:0:
288,224,111382,1,0,0:0:0:0:
288,168,111519,1,0,0:0:0:0:
288,168,111587,1,0,0:0:0:0:
288,168,111655,1,8,0:0:0:0:
288,168,111791,1,8,0:0:0:0:
288,168,111860,1,8,0:0:0:0:
288,168,111928,1,0,0:0:0:0:
288,168,112064,1,0,0:0:0:0:
288,168,112132,1,0,0:0:0:0:
288,168,112200,1,8,0:0:0:0:
288,168,112269,1,8,0:0:0:0:
288,168,112337,1,0,0:0:0:0:
296,160,112473,1,4,0:0:0:0:
288,192,112610,1,12,0:0:0:0:
296,184,112746,1,8,0:0:0:0:
344,160,112814,1,0,0:0:0:0:
296,176,112882,1,8,0:0:0:0:
344,160,112950,1,0,0:0:0:0:
296,184,113019,1,8,0:0:0:0:
296,184,113087,1,0,0:0:0:0:
296,184,113155,1,8,0:0:0:0:
296,184,113223,1,0,0:0:0:0:
296,184,113291,1,8,0:0:0:0:
240,200,113428,1,12,0:0:0:0:
240,200,113564,1,4,0:0:0:0:
336,240,113700,1,0,0:0:0:0:
336,240,113769,1,0,0:0:0:0:
336,224,113837,1,8,0:0:0:0:
336,224,113973,1,8,0:0:0:0:
336,224,114110,1,0,0:0:0:0:
344,200,114246,1,8,0:0:0:0:
288,216,114314,1,0,0:0:0:0:
344,200,114382,1,8,0:0:0:0:
336,208,114450,1,0,0:0:0:0:
344,200,114519,1,8,0:0:0:0:
272,152,114587,1,0,0:0:0:0:
344,200,114655,1,8,0:0:0:0:
408,216,114723,1,8,0:0:0:0:
336,176,114791,1,0,0:0:0:0:
336,176,114860,1,0,0:0:0:0:
336,176,114928,1,0,0:0:0:0:
328,200,114996,1,0,0:0:0:0:
248,216,115064,1,8,0:0:0:0:
336,96,115132,1,0,0:0:0:0:
256,216,115200,1,8,0:0:0:0:
336,96,115269,1,8,0:0:0:0:
256,216,115337,1,8,0:0:0:0:
416,248,115405,1,8,0:0:0:0:
256,216,115473,1,0,0:0:0:0:
256,216,115610,1,0,0:0:0:0:
256,208,115746,1,4,0:0:0:0:
288,200,115882,1,0,0:0:0:0:
288,200,115950,1,0,0:0:0:0:
288,200,116019,1,8,0:0:0:0:
288,200,116087,1,8,0:0:0:0:
288,200,116155,1,0,0:0:0:0:
296,184,116291,1,4,0:0:0:0:
296,184,116428,1,8,0:0:0:0:
304,192,116496,1,0,0:0:0:0:
296,184,116564,1,8,0:0:0:0:
304,192,116632,1,0,0:0:0:0:
296,184,116700,1,8,0:0:0:0:
296,168,116769,1,0,0:0:0:0:
296,184,116837,1,8,0:0:0:0:
432,200,116905,1,8,0:0:0:0:
360,208,116973,1,8,0:0:0:0:
304,184,117041,1,8,0:0:0:0:
352,216,117110,1,0,0:0:0:0:
352,216,117178,1,0,0:0:0:0:
352,216,117246,1,0,0:0:0:0:
336,144,117314,1,0,0:0:0:0:
392,160,117382,1,8,0:0:0:0:
408,224,117450,1,8,0:0:0:0:
392,176,117519,1,8,0:0:0:0:
320,192,117587,1,8,0:0:0:0:
392,176,117655,1,0,0:0:0:0:
392,184,117791,1,0,0:0:0:0:
392,176,117928,1,4,0:0:0:0:
288,176,118064,1,0,0:0:0:0:
288,184,118200,1,8,0:0:0:0:
288,160,118269,1,8,0:0:0:0:
288,160,118337,1,8,0:0:0:0:
280,160,118473,1,0,0:0:0:0:
280,160,118610,1,0,0:0:0:0:
280,160,118678,1,0,0:0:0:0:
280,160,118746,1,8,0:0:0:0:
280,160,118814,1,8,0:0:0:0:
280,168,118882,1,0,0:0:0:0:
280,168,119019,1,4,0:0:0:0:
328,144,119155,1,8,0:0:0:0:
320,160,119223,1,0,0:0:0:0:
320,160,119291,1,8,0:0:0:0:
328,160,119360,1,0,0:0:0:0:
328,160,119428,1,8,0:0:0:0:
328,160,119496,1,0,0:0:0:0:
328,160,119564,1,8,0:0:0:0:
304,176,119632,1,8,0:0:0:0:
328,160,119700,1,8,0:0:0:0:
328,168,119769,1,8,0:0:0:0:
328,160,119837,1,0,0:0:0:0:
328,160,119973,1,0,0:0:0:0:
328,160,120110,1,4,0:0:0:0:
344,160,120246,1,0,0:0:0:0:
344,160,120382,1,8,0:0:0:0:
368,240,120450,1,8,0:0:0:0:
344,168,120519,1,8,0:0:0:0:
344,168,120655,1,4,0:0:0:0:
376,192,120791,1,0,0:0:0:0:
304,96,120860,1,0,0:0:0:0:
336,200,120928,1,8,0:0:0:0:
344,168,121064,1,8,0:0:0:0:
344,176,121200,1,4,0:0:0:0:
336,160,121337,1,8,0:0:0:0:
336,160,121473,1,8,0:0:0:0:
272,128,121610,1,0,0:0:0:0:
272,128,121746,1,8,0:0:0:0:
296,128,121882,1,8,0:0:0:0:
296,128,122019,1,8,0:0:0:0:
296,128,122155,1,8,0:0:0:0:
296,128,122291,1,4,0:0:0:0:
272,216,122837,1,4,0:0:0:0:
288,208,122973,1,8,0:0:0:0:
208,176,123110,1,8,0:0:0:0:
216,240,123246,1,8,0:0:0:0:
248,168,123382,1,4,0:0:0:0:
320,184,123928,1,4,0:0:0:0:
320,184,124064,1,0,0:0:0:0:
320,184,124200,1,8,0:0:0:0:
320,184,124337,1,8,0:0:0:0:
320,184,124473,1,4,0:0:0:0:
320,184,125006,1,4,0:0:0:0:
320,184,125139,1,8,0:0:0:0:
320,184,125273,1,8,0:0:0:0:
320,184,125406,1,8,0:0:0:0:
320,184,125540,1,4,0:0:0:0:
320,184,126061,1,4,0:0:0:0:
320,184,126192,1,0,0:0:0:0:
320,184,126322,1,8,0:0:0:0:
320,184,126453,1,0,0:0:0:0:
320,184,126583,1,12,0:0:0:0:
328,144,126710,1,8,0:0:0:0:
328,144,126838,1,8,0:0:0:0:
328,144,126965,1,8,0:0:0:0:
320,184,127093,1,4,0:0:0:0:
320,184,127221,1,0,0:0:0:0:
320,184,127348,1,12,0:0:0:0:
272,152,127476,1,0,0:0:0:0:
272,160,127604,1,8,0:0:0:0:
312,176,127729,1,8,0:0:0:0:
312,168,127854,1,4,0:0:0:0:
280,216,128104,1,4,0:0:0:0:
280,216,128229,1,0,0:0:0:0:
280,216,128354,1,8,0:0:0:0:
280,216,128479,1,0,0:0:0:0:
280,216,128604,1,12,0:0:0:0:
392,152,128726,1,8,0:0:0:0:
376,176,128848,1,8,0:0:0:0:
376,176,128971,1,8,0:0:0:0:
376,176,129093,1,4,0:0:0:0:
368,168,129216,1,0,0:0:0:0:
376,176,129338,1,8,0:0:0:0:
376,176,129461,1,0,0:0:0:0:
376,176,129583,1,12,0:0:0:0:
368,160,129703,1,8,0:0:0:0:
368,160,129823,1,4,0:0:0:0:
344,208,130063,1,4,0:0:0:0:
232,120,130303,1,4,0:0:0:0:
240,120,130580,1,4,0:0:0:0:
240,120,130700,1,8,0:0:0:0:
248,112,130820,1,8,0:0:0:0:
248,112,130940,1,8,0:0:0:0:
248,112,131060,1,4,0:0:0:0:
256,112,131300,1,0,0:0:0:0:
256,112,131540,1,4,0:0:0:0:
320,200,131660,1,8,0:0:0:0:
256,112,131780,1,8,0:0:0:0:
256,112,131900,1,8,0:0:0:0:
256,112,132020,1,4,0:0:0:0:
208,192,132140,1,0,0:0:0:0:
256,112,132260,1,4,0:0:0:0:
256,120,132500,1,4,0:0:0:0:
336,272,132620,1,8,0:0:0:0:
336,264,132740,1,8,0:0:0:0:
336,264,132860,1,8,0:0:0:0:
336,264,132980,1,4,0:0:0:0:
344,240,133220,1,4,0:0:0:0:
344,240,133460,1,4,0:0:0:0:
224,192,133580,1,8,0:0:0:0:
360,224,133700,1,8,0:0:0:0:
344,240,133820,1,8,0:0:0:0:
344,240,133940,1,4,0:0:0:0:
344,240,134060,1,0,0:0:0:0:
344,240,134180,1,4,0:0:0:0:
304,224,134300,1,0,0:0:0:0:
344,240,134420,1,12,0:0:0:0:
280,144,134540,1,8,0:0:0:0:
280,144,134660,1,8,0:0:0:0:
280,144,134780,1,8,0:0:0:0:
280,144,134900,1,8,0:0:0:0:
280,144,135020,1,8,0:0:0:0:
304,128,135140,1,8,0:0:0:0:
304,120,135260,1,8,0:0:0:0:
304,120,135380,1,8,0:0:0:0:
304,120,135500,1,8,0:0:0:0:
304,128,135620,1,8,0:0:0:0:
304,128,135740,1,8,0:0:0:0:
304,128,135860,1,8,0:0:0:0:
304,128,135980,1,8,0:0:0:0:
304,128,136100,1,8,0:0:0:0:
304,128,136220,1,8,0:0:0:0:
256,192,136340,12,4,137660,0:0:0:0:
320,176,138200,5,4,0:0:0:0:
320,176,138316,1,8,0:0:0:0:
328,176,138375,1,8,0:0:0:0:
328,176,138433,1,8,0:0:0:0:
328,184,138550,1,8,0:0:0:0:
336,176,138667,1,0,0:0:0:0:
296,216,138726,1,0,0:0:0:0:
312,192,138784,1,0,0:0:0:0:
336,184,138901,1,8,0:0:0:0:
304,192,138960,1,8,0:0:0:0:
312,192,139018,1,8,0:0:0:0:
312,184,139135,1,0,0:0:0:0:
336,176,139194,1,0,0:0:0:0:
328,168,139252,1,0,0:0:0:0:
328,168,139369,1,8,0:0:0:0:
352,152,139428,1,8,0:0:0:0:
384,152,139486,1,8,0:0:0:0:
304,200,139603,1,0,0:0:0:0:
328,168,139661,1,0,0:0:0:0:
328,168,139720,1,0,0:0:0:0:
328,168,139837,1,8,0:0:0:0:
304,200,139895,1,0,0:0:0:0:
328,168,139954,1,8,0:0:0:0:
304,200,140071,1,0,0:0:0:0:
328,232,140129,1,0,0:0:0:0:
344,248,140188,1,0,0:0:0:0:
360,256,140246,1,0,0:0:0:0:
344,256,140305,1,8,0:0:0:0:
344,256,140422,1,0,0:0:0:0:
344,248,140480,1,0,0:0:0:0:
304,208,140539,1,8,0:0:0:0:
344,248,140656,1,8,0:0:0:0:
344,248,140773,1,8,0:0:0:0:
344,248,140831,1,8,0:0:0:0:
344,248,140890,1,8,0:0:0:0:
344,248,141007,1,0,0:0:0:0:
344,248,141065,1,0,0:0:0:0:
344,248,141123,1,0,0:0:0:0:
320,200,141240,1,8,0:0:0:0:
320,200,141357,1,8,0:0:0:0:
320,200,141416,1,8,0:0:0:0:
312,200,141474,1,8,0:0:0:0:
336,192,141591,1,8,0:0:0:0:
336,192,141708,1,4,0:0:0:0:
288,208,141942,1,4,0:0:0:0:
288,192,142059,1,8,0:0:0:0:
272,216,142176,1,8,0:0:0:0:
272,208,142293,1,0,0:0:0:0:
376,200,142352,1,0,0:0:0:0:
272,216,142410,1,0,0:0:0:0:
304,192,142469,1,0,0:0:0:0:
288,192,142527,1,0,0:0:0:0:
304,192,142644,1,8,0:0:0:0:
304,192,142702,1,8,0:0:0:0:
304,192,142761,1,0,0:0:0:0:
304,192,142878,1,0,0:0:0:0:
304,192,142936,1,0,0:0:0:0:
304,192,142995,1,0,0:0:0:0:
304,192,143112,1,8,0:0:0:0:
352,216,143170,1,8,0:0:0:0:
344,208,143229,1,0,0:0:0:0:
344,208,143346,1,0,0:0:0:0:
288,144,143404,1,0,0:0:0:0:
336,224,143463,1,0,0:0:0:0:
320,160,143580,1,8,0:0:0:0:
320,152,143638,1,8,0:0:0:0:
280,152,143697,1,0,0:0:0:0:
304,160,143814,1,0,0:0:0:0:
304,152,143872,1,0,0:0:0:0:
280,152,143930,1,0,0:0:0:0:
296,200,144047,1,8,0:0:0:0:
296,200,144106,1,0,0:0:0:0:
296,208,144164,1,8,0:0:0:0:
296,208,144281,1,0,0:0:0:0:
272,152,144340,1,0,0:0:0:0:
272,152,144398,1,0,0:0:0:0:
280,144,144515,1,8,0:0:0:0:
280,144,144574,1,0,0:0:0:0:
280,144,144632,1,8,0:0:0:0:
280,144,144691,1,0,0:0:0:0:
280,144,144749,1,8,0:0:0:0:
280,152,144866,1,8,0:0:0:0:
288,152,144925,1,8,0:0:0:0:
288,152,144983,1,8,0:0:0:0:
272,136,145100,1,8,0:0:0:0:
272,136,145159,1,8,0:0:0:0:
272,144,145217,1,8,0:0:0:0:
280,168,145334,1,8,0:0:0:0:
280,192,145451,1,4,0:0:0:0:
280,208,145685,1,4,0:0:0:0:
264,208,145802,1,8,0:0:0:0:
264,208,145919,1,8,0:0:0:0:
256,192,146036,1,0,0:0:0:0:
256,192,146094,1,0,0:0:0:0:
256,192,146153,1,8,0:0:0:0:
256,192,146211,1,8,0:0:0:0:
256,192,146270,1,0,0:0:0:0:
256,184,146387,1,8,0:0:0:0:
256,184,146445,1,8,0:0:0:0:
256,184,146504,1,0,0:0:0:0:
256,184,146621,1,0,0:0:0:0:
256,184,146679,1,8,0:0:0:0:
256,184,146738,1,8,0:0:0:0:
216,160,146854,1,8,0:0:0:0:
216,168,146913,1,8,0:0:0:0:
216,168,146971,1,0,0:0:0:0:
216,168,147088,1,0,0:0:0:0:
216,168,147147,1,8,0:0:0:0:
216,168,147205,1,8,0:0:0:0:
224,168,147322,1,8,0:0:0:0:
224,168,147381,1,8,0:0:0:0:
224,168,147439,1,0,0:0:0:0:
224,168,147556,1,0,0:0:0:0:
224,168,147615,1,0,0:0:0:0:
192,144,147673,1,8,0:0:0:0:
320,176,147732,1,8,0:0:0:0:
184,168,147790,1,0,0:0:0:0:
264,176,147907,1,0,0:0:0:0:
184,168,148024,1,8,0:0:0:0:
216,240,148083,1,8,0:0:0:0:
184,168,148141,1,8,0:0:0:0:
256,208,148258,1,8,0:0:0:0:
304,208,148316,1,8,0:0:0:0:
304,208,148375,1,8,0:0:0:0:
304,208,148492,1,0,0:0:0:0:
312,208,148550,1,0,0:0:0:0:
312,208,148609,1,0,0:0:0:0:
312,208,148667,1,0,0:0:0:0:
312,208,148726,1,8,0:0:0:0:
288,184,148843,1,8,0:0:0:0:
272,192,148901,1,8,0:0:0:0:
272,192,148960,1,8,0:0:0:0:
264,200,149077,1,8,0:0:0:0:
264,200,149194,1,4,0:0:0:0:
320,152,149428,1,4,0:0:0:0:
312,176,149545,1,8,0:0:0:0:
320,152,149661,1,0,0:0:0:0:
320,152,149778,1,8,0:0:0:0:
320,152,149895,1,0,0:0:0:0:
320,152,150012,1,8,0:0:0:0:
280,192,150129,1,8,0:0:0:0:
280,192,150246,1,8,0:0:0:0:
272,184,150363,1,4,0:0:0:0:
288,192,150480,1,8,0:0:0:0:
288,192,150597,1,8,0:0:0:0:
288,168,150714,1,8,0:0:0:0:
288,168,150831,1,4,0:0:0:0:
248,224,151065,1,0,0:0:0:0:
248,232,151182,1,0,0:0:0:0:
232,168,151416,1,0,0:0:0:0:
232,168,151533,1,8,0:0:0:0:
224,144,151767,1,8,0:0:0:0:
224,144,152001,1,0,0:0:0:0:
304,96,152235,2,4,L|184:200,3,140
296,248,153170,1,4,0:0:0:0:
336,136,153404,1,0,0:0:0:0:
336,136,153521,1,8,0:0:0:0:
336,160,153638,1,8,0:0:0:0:
336,160,153697,1,8,0:0:0:0:
336,160,153755,1,8,0:0:0:0:
336,160,153872,1,0,0:0:0:0:
336,160,153989,1,8,0:0:0:0:
336,160,154106,1,8,0:0:0:0:
336,160,154164,1,8,0:0:0:0:
336,160,154223,1,8,0:0:0:0:
336,160,154340,1,0,0:0:0:0:
336,160,154457,1,8,0:0:0:0:
336,160,154574,1,8,0:0:0:0:
320,216,154632,1,8,0:0:0:0:
272,168,154691,1,8,0:0:0:0:
328,216,154749,1,0,0:0:0:0:
288,168,154808,1,8,0:0:0:0:
304,208,154866,1,8,0:0:0:0:
312,184,154925,1,0,0:0:0:0:
344,168,155042,1,4,0:0:0:0:
264,224,155159,1,0,0:0:0:0:
264,224,155217,1,0,0:0:0:0:
264,224,155276,1,8,0:0:0:0:
280,208,155392,1,8,0:0:0:0:
272,200,155509,1,0,0:0:0:0:
416,256,155626,1,8,0:0:0:0:
416,256,155685,1,8,0:0:0:0:
392,248,155743,1,8,0:0:0:0:
360,240,155860,1,0,0:0:0:0:
320,192,155977,1,8,0:0:0:0:
312,200,156036,1,8,0:0:0:0:
312,208,156094,1,0,0:0:0:0:
304,216,156153,1,0,0:0:0:0:
304,216,156211,1,8,0:0:0:0:
192,160,156328,1,8,0:0:0:0:
200,144,156445,1,4,0:0:0:0:
256,152,156679,1,12,0:0:0:0:
264,152,156913,1,4,0:0:0:0:
368,224,157147,1,4,0:0:0:0:
368,224,157264,1,8,0:0:0:0:
368,224,157381,1,8,0:0:0:0:
368,216,157439,1,8,0:0:0:0:
368,216,157498,1,8,0:0:0:0:
368,216,157615,1,0,0:0:0:0:
368,216,157732,1,8,0:0:0:0:
320,200,157849,1,8,0:0:0:0:
320,216,157907,1,8,0:0:0:0:
320,224,157966,1,8,0:0:0:0:
232,184,158083,1,0,0:0:0:0:
232,184,158200,1,8,0:0:0:0:
280,200,158316,1,8,0:0:0:0:
280,200,158375,1,8,0:0:0:0:
280,200,158433,1,8,0:0:0:0:
280,200,158492,1,0,0:0:0:0:
280,200,158550,1,8,0:0:0:0:
344,192,158609,1,8,0:0:0:0:
280,200,158667,1,0,0:0:0:0:
296,208,158726,1,0,0:0:0:0:
280,200,158784,1,8,0:0:0:0:
280,200,158843,1,0,0:0:0:0:
280,200,158901,1,8,0:0:0:0:
328,224,158960,1,0,0:0:0:0:
336,200,159018,1,8,0:0:0:0:
336,200,159135,1,0,0:0:0:0:
336,200,159252,1,8,0:0:0:0:
352,176,159311,1,0,0:0:0:0:
336,200,159369,1,8,0:0:0:0:
336,208,159428,1,0,0:0:0:0:
336,200,159486,1,8,0:0:0:0:
256,208,159545,1,0,0:0:0:0:
296,216,159603,1,8,0:0:0:0:
304,216,159720,1,12,0:0:0:0:
280,184,159954,1,12,0:0:0:0:
288,192,160188,1,12,0:0:0:0:
280,200,160422,1,12,0:0:0:0:
248,184,160656,1,4,0:0:0:0:
272,176,160773,1,8,0:0:0:0:
304,208,160890,1,12,0:0:0:0:
240,160,161007,1,0,0:0:0:0:
240,160,161123,1,0,0:0:0:0:
240,160,161182,1,0,0:0:0:0:
240,160,161240,1,0,0:0:0:0:
280,160,161357,1,8,0:0:0:0:
296,160,161474,1,0,0:0:0:0:
296,160,161591,1,0,0:0:0:0:
288,160,161650,1,0,0:0:0:0:
288,160,161708,1,0,0:0:0:0:
304,200,161825,1,8,0:0:0:0:
304,200,161942,1,0,0:0:0:0:
304,200,162059,1,8,0:0:0:0:
304,200,162118,1,0,0:0:0:0:
304,200,162176,1,8,0:0:0:0:
304,200,162235,1,0,0:0:0:0:
304,200,162293,1,8,0:0:0:0:
304,200,162352,1,0,0:0:0:0:
304,200,162410,1,8,0:0:0:0:
248,192,162527,1,8,0:0:0:0:
304,152,162644,1,8,0:0:0:0:
304,152,162761,1,8,0:0:0:0:
336,152,162878,1,8,0:0:0:0:
336,152,162995,1,4,0:0:0:0:
320,128,163229,1,4,0:0:0:0:
328,128,163463,1,4,0:0:0:0:
328,128,163697,1,4,0:0:0:0:
328,128,163814,1,8,0:0:0:0:
328,128,163930,1,8,0:0:0:0:
328,128,164047,1,8,0:0:0:0:
328,128,164164,1,4,0:0:0:0:
288,192,164398,1,4,0:0:0:0:
288,192,164515,1,8,0:0:0:0:
248,120,164632,1,8,0:0:0:0:
280,152,164749,1,0,0:0:0:0:
312,144,164866,1,0,0:0:0:0:
304,144,164925,1,0,0:0:0:0:
304,144,164983,1,0,0:0:0:0:
296,136,165100,1,8,0:0:0:0:
208,112,165217,1,0,0:0:0:0:
208,112,165334,1,0,0:0:0:0:
208,112,165392,1,0,0:0:0:0:
208,112,165451,1,0,0:0:0:0:
216,160,165568,1,8,0:0:0:0:
216,160,165685,1,0,0:0:0:0:
216,144,165802,1,8,0:0:0:0:
240,112,165860,1,8,0:0:0:0:
240,112,165919,1,8,0:0:0:0:
240,112,166036,1,0,0:0:0:0:
240,112,166153,1,8,0:0:0:0:
240,112,166270,1,0,0:0:0:0:
240,112,166328,1,0,0:0:0:0:
240,112,166387,1,0,0:0:0:0:
304,200,166504,1,8,0:0:0:0:
264,176,166621,1,0,0:0:0:0:
264,176,166738,1,8,0:0:0:0:
264,176,166796,1,8,0:0:0:0:
264,176,166854,1,8,0:0:0:0:
264,176,166971,1,0,0:0:0:0:
264,176,167088,1,8,0:0:0:0:
264,176,167205,1,0,0:0:0:0:
264,176,167264,1,0,0:0:0:0:
272,176,167322,1,0,0:0:0:0:
280,192,167439,1,8,0:0:0:0:
280,192,167556,1,0,0:0:0:0:
280,192,167673,1,8,0:0:0:0:
280,192,167732,1,8,0:0:0:0:
280,192,167790,1,8,0:0:0:0:
256,208,167907,1,8,0:0:0:0:
264,208,168024,1,8,0:0:0:0:
264,192,168141,1,4,0:0:0:0:
352,152,168609,1,4,0:0:0:0:
304,224,168726,1,8,0:0:0:0:
304,224,168843,1,8,0:0:0:0:
304,224,168960,1,8,0:0:0:0:
312,224,169077,1,4,0:0:0:0:
288,200,169538,1,4,0:0:0:0:
288,200,169653,1,0,0:0:0:0:
288,200,169769,1,8,0:0:0:0:
288,200,169884,1,8,0:0:0:0:
288,200,170000,1,4,0:0:0:0:
320,192,170444,1,4,0:0:0:0:
304,168,170555,1,8,0:0:0:0:
352,176,170666,1,8,0:0:0:0:
352,176,170777,1,8,0:0:0:0:
352,176,170888,1,4,0:0:0:0:
352,176,170995,1,8,0:0:0:0:
352,176,171048,1,8,0:0:0:0:
352,176,171102,1,8,0:0:0:0:
352,176,171209,1,8,0:0:0:0:
352,176,171316,1,4,0:0:0:0:
352,184,171530,1,0,0:0:0:0:
320,144,171745,1,4,0:0:0:0:
320,144,171848,1,8,0:0:0:0:
320,144,171951,1,8,0:0:0:0:
320,152,172055,1,8,0:0:0:0:
336,144,172158,1,4,0:0:0:0:
264,160,172262,1,0,0:0:0:0:
264,160,172313,1,0,0:0:0:0:
264,160,172365,1,8,0:0:0:0:
288,128,172469,1,8,0:0:0:0:
288,128,172572,1,4,0:0:0:0:
288,136,172672,1,8,0:0:0:0:
296,136,172772,1,8,0:0:0:0:
304,128,172872,1,8,0:0:0:0:
304,128,172972,1,4,0:0:0:0:
288,200,173172,1,0,0:0:0:0:
280,184,173372,1,4,0:0:0:0:
304,208,173468,1,8,0:0:0:0:
288,192,173565,1,8,0:0:0:0:
288,192,173662,1,8,0:0:0:0:
288,192,173759,1,4,0:0:0:0:
288,176,173855,1,0,0:0:0:0:
288,192,173904,1,0,0:0:0:0:
280,192,173952,1,8,0:0:0:0:
280,192,174049,1,8,0:0:0:0:
280,192,174146,1,4,0:0:0:0:
280,192,174239,1,8,0:0:0:0:
288,192,174286,1,8,0:0:0:0:
280,184,174333,1,8,0:0:0:0:
280,184,174427,1,8,0:0:0:0:
288,184,174521,1,4,0:0:0:0:
272,184,174708,1,0,0:0:0:0:
272,176,174896,1,4,0:0:0:0:
248,168,174988,1,8,0:0:0:0:
360,112,175080,1,8,0:0:0:0:
256,160,175172,1,8,0:0:0:0:
360,112,175265,1,8,0:0:0:0:
248,136,175357,1,8,0:0:0:0:
352,160,175449,1,0,0:0:0:0:
280,160,175542,1,8,0:0:0:0:
312,176,175634,1,0,0:0:0:0:
280,168,175726,1,8,0:0:0:0:
296,208,175819,1,8,0:0:0:0:
232,224,175911,1,8,0:0:0:0:
304,208,176003,1,0,0:0:0:0:
376,200,176096,1,8,0:0:0:0:
312,208,176188,1,8,0:0:0:0:
328,152,176280,1,8,0:0:0:0:
312,208,176372,1,0,0:0:0:0:
240,128,176465,1,8,0:0:0:0:
312,208,176557,1,8,0:0:0:0:
288,104,176649,1,8,0:0:0:0:
312,208,176742,1,8,0:0:0:0:
248,152,176834,1,8,0:0:0:0:
312,216,176926,1,0,0:0:0:0:
248,152,177019,1,8,0:0:0:0:
288,168,177111,1,0,0:0:0:0:
288,168,177203,1,8,0:0:0:0:
312,208,177296,1,8,0:0:0:0:
240,112,177388,1,8,0:0:0:0:
312,208,177480,1,0,0:0:0:0:
256,200,177572,1,8,0:0:0:0:
312,208,177665,1,8,0:0:0:0:
256,120,177757,1,8,0:0:0:0:
312,208,177849,1,0,0:0:0:0:
312,208,177942,1,8,0:0:0:0:
312,208,178034,1,8,0:0:0:0:
312,208,178126,1,8,0:0:0:0:
320,216,178219,1,8,0:0:0:0:
320,216,178311,1,8,0:0:0:0:
312,216,178403,1,8,0:0:0:0:
320,216,178496,1,8,0:0:0:0:
320,216,178588,1,8,0:0:0:0:
224,160,178680,1,8,0:0:0:0:
216,168,178772,1,8,0:0:0:0:
216,168,178865,1,8,0:0:0:0:
208,168,178957,1,8,0:0:0:0:
176,136,179049,1,8,0:0:0:0:
232,80,179142,1,8,0:0:0:0:
256,192,179234,12,4,180249,0:0:0:0:
352,192,180580,5,8,0:0:0:0:
352,192,180637,1,0,0:0:0:0:
352,200,180694,1,0,0:0:0:0:
352,192,180752,1,8,0:0:0:0:
352,192,180809,1,0,0:0:0:0:
352,192,180867,1,0,0:0:0:0:
344,200,180924,1,8,0:0:0:0:
352,192,180982,1,0,0:0:0:0:
392,240,181039,1,0,0:0:0:0:
392,240,181097,1,0,0:0:0:0:
384,240,181154,1,0,0:0:0:0:
376,240,181212,1,0,0:0:0:0:
376,240,181269,1,8,0:0:0:0:
360,240,181327,1,0,0:0:0:0:
352,232,181384,1,0,0:0:0:0:
352,232,181442,1,8,0:0:0:0:
256,144,181499,1,0,0:0:0:0:
256,144,181557,1,0,0:0:0:0:
256,144,181614,1,8,0:0:0:0:
264,160,181671,1,0,0:0:0:0:
264,160,181729,1,0,0:0:0:0:
264,160,181786,1,8,0:0:0:0:
256,160,181844,1,0,0:0:0:0:
256,160,181901,1,0,0:0:0:0:
256,160,181959,1,8,0:0:0:0:
344,224,182131,1,8,0:0:0:0:
320,200,182189,1,0,0:0:0:0:
320,200,182246,1,0,0:0:0:0:
320,200,182304,1,8,0:0:0:0:
312,200,182361,1,0,0:0:0:0:
320,200,182419,1,0,0:0:0:0:
320,200,182476,1,8,0:0:0:0:
176,216,182648,1,8,0:0:0:0:
176,216,182706,1,0,0:0:0:0:
176,216,182763,1,0,0:0:0:0:
184,216,182821,1,8,0:0:0:0:
184,216,182993,1,4,0:0:0:0:
256,208,183166,1,12,0:0:0:0:
160,128,183338,1,4,0:0:0:0:
304,184,183683,1,8,0:0:0:0:
288,208,183740,1,0,0:0:0:0:
328,176,183798,1,0,0:0:0:0:
328,176,183855,1,8,0:0:0:0:
328,176,184028,1,8,0:0:0:0:
296,104,184085,1,0,0:0:0:0:
288,104,184143,1,0,0:0:0:0:
288,224,184200,1,8,0:0:0:0:
280,224,184258,1,0,0:0:0:0:
272,224,184315,1,0,0:0:0:0:
256,200,184373,1,8,0:0:0:0:
256,200,184545,1,8,0:0:0:0:
256,200,184602,1,0,0:0:0:0:
256,200,184660,1,0,0:0:0:0:
256,200,184717,1,8,0:0:0:0:
256,192,184775,1,0,0:0:0:0:
256,192,184832,1,0,0:0:0:0:
256,192,184890,1,8,0:0:0:0:
264,192,184947,1,0,0:0:0:0:
256,192,185005,1,0,0:0:0:0:
256,192,185062,1,8,0:0:0:0:
256,192,185120,1,0,0:0:0:0:
256,192,185177,1,0,0:0:0:0:
256,200,185235,1,0,0:0:0:0:
256,200,185292,1,0,0:0:0:0:
256,200,185350,1,0,0:0:0:0:
256,200,185407,1,8,0:0:0:0:
312,200,185580,1,8,0:0:0:0:
304,192,185752,1,8,0:0:0:0:
312,192,185924,1,8,0:0:0:0:
312,192,186097,1,4,0:0:0:0:
336,160,186442,1,8,0:0:0:0:
328,176,186499,1,0,0:0:0:0:
328,192,186557,1,0,0:0:0:0:
328,216,186614,1,8,0:0:0:0:
320,216,186786,1,8,0:0:0:0:
304,144,186844,1,0,0:0:0:0:
304,144,186901,1,0,0:0:0:0:
344,184,186959,1,8,0:0:0:0:
344,184,187016,1,0,0:0:0:0:
344,184,187074,1,0,0:0:0:0:
352,184,187131,1,8,0:0:0:0:
328,120,187189,1,0,0:0:0:0:
320,112,187246,1,0,0:0:0:0:
256,176,187304,1,8,0:0:0:0:
240,160,187361,1,0,0:0:0:0:
256,176,187419,1,0,0:0:0:0:
256,176,187476,1,8,0:0:0:0:
312,176,187534,1,8,0:0:0:0:
312,176,187591,1,0,0:0:0:0:
240,168,187648,1,8,0:0:0:0:
320,136,187706,1,8,0:0:0:0:
320,136,187763,1,0,0:0:0:0:
272,192,187821,1,8,0:0:0:0:
256,200,187878,1,8,0:0:0:0:
256,200,187936,1,0,0:0:0:0:
328,152,187993,1,8,0:0:0:0:
352,192,188051,1,8,0:0:0:0:
352,192,188108,1,0,0:0:0:0:
392,184,188166,1,8,0:0:0:0:
328,128,188223,1,8,0:0:0:0:
328,136,188281,1,8,0:0:0:0:
272,112,188338,1,8,0:0:0:0:
352,192,188396,1,0,0:0:0:0:
264,144,188511,1,0,0:0:0:0:
360,176,188568,1,0,0:0:0:0:
248,176,188683,1,8,0:0:0:0:
296,168,188740,1,8,0:0:0:0:
304,144,188855,1,4,0:0:0:0:
328,168,189200,1,8,0:0:0:0:
328,168,189258,1,0,0:0:0:0:
328,168,189315,1,0,0:0:0:0:
328,168,189373,1,8,0:0:0:0:
328,168,189430,1,0,0:0:0:0:
328,168,189488,1,0,0:0:0:0:
328,168,189545,1,8,0:0:0:0:
232,192,189717,1,0,0:0:0:0:
264,192,189775,1,0,0:0:0:0:
264,144,189890,1,8,0:0:0:0:
280,128,189947,1,8,0:0:0:0:
248,224,190062,1,8,0:0:0:0:
264,224,190120,1,0,0:0:0:0:
264,224,190235,1,0,0:0:0:0:
264,224,190292,1,0,0:0:0:0:
272,200,190407,1,4,0:0:0:0:
288,160,190579,1,4,0:0:0:0:
296,160,190752,1,4,0:0:0:0:
304,160,190924,2,4,L|232:160,4,56
328,160,191614,1,4,0:0:0:0:
328,160,191700,1,8,0:0:0:0:
328,160,191786,1,8,0:0:0:0:
336,160,191873,1,8,0:0:0:0:
336,168,191959,1,8,0:0:0:0:
272,200,192045,1,8,0:0:0:0:
272,192,192131,1,8,0:0:0:0:
328,176,192217,1,8,0:0:0:0:
336,176,192304,1,4,0:0:0:0:
224,120,192476,1,8,0:0:0:0:
224,120,192648,1,8,0:0:0:0:
232,120,192821,1,8,0:0:0:0:
224,112,192993,1,0,0:0:0:0:
224,112,193079,1,8,0:0:0:0:
224,120,193166,1,8,0:0:0:0:
224,120,193252,1,8,0:0:0:0:
264,144,193338,1,0,0:0:0:0:
264,152,193424,1,8,0:0:0:0:
304,192,193511,1,8,0:0:0:0:
312,200,193597,1,8,0:0:0:0:
312,200,193683,1,0,0:0:0:0:
296,88,193769,1,8,0:0:0:0:
272,88,193855,1,8,0:0:0:0:
280,88,193942,1,8,0:0:0:0:
272,88,194028,1,0,0:0:0:0:
248,112,194200,1,0,0:0:0:0:
296,120,194373,1,4,0:0:0:0:
304,176,194459,1,8,0:0:0:0:
312,176,194545,1,8,0:0:0:0:
312,176,194631,1,8,0:0:0:0:
312,176,194717,1,8,0:0:0:0:
312,176,194804,1,8,0:0:0:0:
312,176,194890,1,8,0:0:0:0:
328,184,194976,1,8,0:0:0:0:
328,184,195062,1,4,0:0:0:0:
296,208,195235,1,8,0:0:0:0:
296,152,195407,1,8,0:0:0:0:
296,160,195579,1,8,0:0:0:0:
304,168,195752,1,0,0:0:0:0:
368,160,195838,1,8,0:0:0:0:
368,160,195924,1,8,0:0:0:0:
344,160,196011,1,8,0:0:0:0:
344,160,196097,1,0,0:0:0:0:
344,160,196183,1,8,0:0:0:0:
344,160,196269,1,8,0:0:0:0:
344,160,196355,1,8,0:0:0:0:
352,160,196442,1,0,0:0:0:0:
304,104,196614,1,8,0:0:0:0:
288,136,196786,1,8,0:0:0:0:
320,144,196959,1,8,0:0:0:0:
320,152,197131,1,4,0:0:0:0:
312,144,197217,1,8,0:0:0:0:
312,152,197304,1,8,0:0:0:0:
312,152,197390,1,8,0:0:0:0:
312,152,197476,1,8,0:0:0:0:
288,168,197562,1,8,0:0:0:0:
288,176,197648,1,8,0:0:0:0:
288,176,197735,1,8,0:0:0:0:
248,160,197821,2,4,L|176:160,7,52.5000020027161
248,168,198511,1,4,0:0:0:0:
312,160,198683,1,8,0:0:0:0:
312,160,198855,1,12,0:0:0:0:
320,160,199028,1,8,0:0:0:0:
320,152,199200,1,4,0:0:0:0:
336,192,199373,1,8,0:0:0:0:
336,176,199545,1,12,0:0:0:0:
336,176,199717,1,8,0:0:0:0:
320,136,199890,1,4,0:0:0:0:
320,136,199976,1,8,0:0:0:0:
320,136,200062,1,8,0:0:0:0:
320,136,200148,1,8,0:0:0:0:
320,136,200235,1,8,0:0:0:0:
320,136,200321,1,8,0:0:0:0:
320,136,200407,1,8,0:0:0:0:
320,136,200493,1,8,0:0:0:0:
256,144,200579,2,0,L|200:144,7,52.5000020027161
208,152,201269,1,4,0:0:0:0:
272,136,201442,1,12,0:0:0:0:
216,136,201614,1,12,0:0:0:0:
304,176,201786,1,4,0:0:0:0:
256,192,201959,12,4,202476,0:0:0:0:
296,208,202648,5,4,0:0:0:0:
288,176,202993,1,8,0:0:0:0:
296,176,203166,1,8,0:0:0:0:
280,152,203511,1,8,0:0:0:0:
280,152,203683,1,8,0:0:0:0:
288,152,204028,1,8,0:0:0:0:
280,136,204200,1,0,0:0:0:0:
240,168,204373,1,0,0:0:0:0:
248,80,204545,1,0,0:0:0:0:
288,152,204717,1,8,0:0:0:0:
208,128,205062,1,8,0:0:0:0:
296,144,205407,1,4,0:0:0:0:
296,152,205752,1,0,0:0:0:0:
296,152,205924,1,0,0:0:0:0:
248,144,206269,1,0,0:0:0:0:
248,112,206442,1,0,0:0:0:0:
248,112,206786,1,0,0:0:0:0:
272,144,206959,1,8,0:0:0:0:
272,160,207131,1,8,0:0:0:0:
272,160,207304,1,8,0:0:0:0:
328,160,207476,1,0,0:0:0:0:
328,136,207821,1,0,0:0:0:0:
328,136,208166,1,4,0:0:0:0:
328,128,208511,1,0,0:0:0:0:
336,128,208683,1,8,0:0:0:0:
328,160,209028,1,8,0:0:0:0:
376,160,209200,1,8,0:0:0:0:
384,136,209545,1,8,0:0:0:0:
344,160,209717,1,8,0:0:0:0:
352,168,209890,1,0,0:0:0:0:
352,168,210062,1,0,0:0:0:0:
352,168,210235,1,8,0:0:0:0:
352,168,210407,1,0,0:0:0:0:
352,168,210579,1,8,0:0:0:0:
352,168,210752,1,8,0:0:0:0:
352,168,210924,1,4,0:0:0:0:
360,144,211269,1,0,0:0:0:0:
360,144,211442,1,0,0:0:0:0:
360,144,211786,1,0,0:0:0:0:
360,152,211959,1,0,0:0:0:0:
368,176,212304,1,0,0:0:0:0:
368,176,212476,1,8,0:0:0:0:
352,112,212648,1,8,0:0:0:0:
304,160,212821,1,8,0:0:0:0:
320,112,212993,1,8,0:0:0:0:
368,176,213166,1,8,0:0:0:0:
288,184,213338,1,8,0:0:0:0:
352,184,213511,1,8,0:0:0:0:
328,200,213683,1,4,0:0:0:0:
256,192,213726,12,4,222002,0:0:0:0:
