osu file format v6

[General]
AudioFilename: Excel Saga OST Jikken 1 - 29 - Ai (Chuuseishin).mp3
AudioLeadIn: 0
PreviewTime: -1
Countdown: 1
SampleSet: None
StackLeniency: 0.7
Mode: 0
LetterboxInBreaks: 1

[Editor]
DistanceSpacing: 0.800000011920929
BeatDivisor: 1
GridSize: 32

[Metadata]
Title:Ai (Chuuseishin)
Artist:
Creator:camBARZ
Version:Normal
Source:OST
Tags:

[Difficulty]
HPDrainRate:3
CircleSize:6
OverallDifficulty:2
SliderMultiplier:1.4
SliderTickRate:1

[Events]
//Background and Video events
//Break Periods
2,36546,37666
2,102421,110627
//Storyboard Layer 0 (Background)
//Storyboard Layer 1 (Fail)
//Storyboard Layer 2 (Pass)
//Storyboard Layer 3 (Foreground)
//Storyboard Sound Samples
//Background Colour Transformations
3,100,163,162,255

[TimingPoints]
10905.805888743,480.009625625945,4,0,0,100,1,0

[HitObjects]
128,256,7065,1,0
320,224,8025,1,0
96,288,8985,1,0
288,224,9945,1,0
64,288,10905,1,0
288,224,11865,1,0
64,288,12825,1,0
256,224,13785,1,0
224,160,14745,1,0
224,160,15705,1,0
512,128,17145,1,0
352,160,18105,1,0
160,160,19065,1,0
352,160,20025,1,0
448,128,21946,6,0,B|128:224,3,280
64,96,25786,2,0,B|288:320,4,280
128,96,30106,2,0,B|352:224,1,140
256,224,31546,2,0,B|512:224,1,140
352,160,32506,2,0,B|128:160,1,140
416,192,33946,2,0,B|64:128,1,280
288,96,35386,1,0
192,160,35866,1,0
256,192,36346,1,0
224,192,39226,5,0
480,160,40186,1,0
224,160,41146,1,0
320,160,43066,1,0
256,192,44506,1,0
256,192,45946,1,0
32,128,46906,1,0
192,160,47866,1,0
128,192,48346,1,0
192,160,48826,1,0
128,192,49306,1,0
224,192,49786,1,0
320,224,50266,1,0
320,128,50746,1,0
320,288,51226,1,0
320,128,51706,1,0
320,224,52186,1,0
320,128,52666,1,0
352,96,57466,1,0
0,160,58906,2,0,B|448:320,1,420
416,128,60346,2,0,B|64:288,1,280
160,64,62266,1,0
128,192,62746,1,0
288,192,63226,1,0
64,256,64186,1,0
128,224,64666,1,0
192,224,65146,1,0
384,96,66106,2,0,B|288:352|128:256|128:192,2,280
96,96,69466,5,0
224,96,69946,1,0
480,128,70907,1,0
224,224,71867,1,0
384,32,72827,1,0
224,224,73787,1,0
160,256,76187,1,0
416,64,77627,2,0,B|32:256,1,420
224,352,79067,2,0,B|512:224,1,280
448,224,80027,2,0,B|96:192,1,280
128,32,81947,2,0,B|128:320|256:320|384:288,1,420
64,128,84827,1,0
288,224,85787,1,0
128,160,86267,1,0
288,192,86747,1,0
128,160,87227,1,0
256,256,87707,1,0
128,288,88187,1,0
224,256,88667,1,0
256,192,90107,2,0,B|32:320,1,140
288,256,91067,2,0,B|96:32,1,280
320,64,92987,2,0,B|160:288,2,140
256,192,94907,12,0,98747
256,192,99227,12,0,101147
256,192,102219,12,0,102221
160,96,112187,5,0
416,96,113627,2,0,B|128:256,1,280
96,128,116987,2,0,B|416:288,1,280
352,256,117947,2,0,B|64:224,1,280
160,192,118907,2,0,B|416:160,1,140
320,160,119387,2,0,B|128:256,1,140
224,224,119867,2,0,B|448:224,1,140
320,192,120348,2,0,B|96:224,1,140
96,192,121308,2,0,B|352:256,1,140
384,224,121788,2,0,B|160:64,1,140
192,192,124188,1,0
352,160,125628,1,0
224,224,126108,1,0
352,160,126588,1,0
224,224,127068,1,0
128,128,127548,1,0
160,256,128028,1,0
288,288,128508,1,0
352,160,128988,1,0
192,128,129948,1,0
192,352,130908,1,0
320,224,131388,1,0
160,224,132348,1,0
224,192,132828,1,0
384,128,133788,2,0,B|64:320,1,280
96,288,135228,2,0,B|416:224,1,280
384,192,136188,2,0,B|64:96,2,280
320,160,138588,2,0,B|32:352,1,280
0,352,140028,2,0,B|416:192,1,420
384,192,141468,2,0,B|32:96,1,280
352,224,143388,1,0
352,128,144348,1,0
64,96,145788,1,0
128,256,146748,1,0
320,256,147708,1,0
480,64,148668,2,0,B|128:192,3,280
128,192,151548,2,0,B|480:320,1,280
320,224,152028,2,0,B|32:96,1,280
128,128,153948,1,0
192,160,154428,1,0
160,224,154908,1,0
288,288,155388,1,0
0,256,156348,2,0,B|416:160,1,420
192,192,158748,1,0
320,288,159228,1,0
192,288,159708,1,0
32,256,160188,2,0,B|512:32,1,420
256,192,163068,12,0,164508
256,192,164508,12,0,165468
256,192,165468,12,0,165948
256,192,165948,12,0,166908
32,192,166908,6,0,B|480:192,1,420
64,384,170269,2,0,B|512:0,2,560
128,128,176029,1,0
448,288,177469,1,0
224,224,178429,1,0
320,160,178909,1,0
160,288,179869,1,0
320,128,180829,1,0
160,288,181789,1,0
320,128,182749,1,0
128,256,183709,1,0
224,192,184189,1,0
224,192,184669,1,0
224,192,185149,1,0
416,160,186589,2,0,B|64:224,1,280
128,224,187549,2,0,B|480:320,1,280
320,256,188509,2,0,B|160:128,1,140
192,160,188989,2,0,B|384:256,4,140
224,192,190909,2,0,B|0:352,2,140
224,256,192349,2,0,B|480:32,1,280
32,96,195229,1,0
192,192,196189,1,0
96,288,196669,1,0
416,288,198109,1,0
288,224,198589,1,0
320,160,200509,1,0
128,192,201469,1,0
0,288,201949,2,0,B|480:256,1,420
416,128,203389,2,0,B|0:320,1,420
256,192,205789,12,0,208189
0,224,208669,6,0,B|512:96,1,420
