osu file format v5

[General]
AudioFilename: Excel Girls - Ai (Chuuseishin).mp3
AudioLeadIn: 0
PreviewTime: 34196
Countdown: 0
SampleSet: Normal
StackLeniency: 0.7
Mode: 0
LetterboxInBreaks: 1
EditorBookmarks: 10920

[Metadata]
Title:Ai (Chuuseishin)
Artist:Excel Girls
Creator:Sinistro
Version:Easy
Source:
Tags:

[Difficulty]
HPDrainRate:3
CircleSize:4
OverallDifficulty:3
SliderMultiplier:1.4
SliderTickRate:1

[Events]
//Background and Video events
0,0,"Excel.jpg"
1,-80,"excel.avi"
//Break Periods
//Storyboard Layer 0 (Background)
//Storyboard Layer 1 (Failing)
//Storyboard Layer 2 (Passing)
//Storyboard Layer 3 (Foreground)
//Storyboard Sound Samples
//Background Colour Transformations
3,100,128,128,255

[TimingPoints]
3540,492.82996223937,4,1,0,50,1

[Colours]
Combo1 : 120,14,216
Combo2 : 128,255,255
Combo3 : 254,225,24
Combo4 : 237,71,179

[HitObjects]
64,304,10932,1,0
144,304,11425,2,2,B|432:304,1,280
424,151,13396,1,0
271,149,14382,1,0
272,80,14875,5,0
192,80,15367,2,2,B|192:368,1,280
32,352,17339,1,0
32,192,18324,1,0
32,32,19310,6,0,B|176:32,1,140
240,32,20296,2,0,B|384:32,1,140
384,112,21281,2,0,B|240:112,1,140
160,112,22267,2,0,B|16:112,1,140
20,188,23253,5,0
20,188,23746,1,2
191,186,24731,5,0
267,186,25224,1,0
342,186,25717,1,0
418,186,26210,1,4
418,262,26703,5,0
341,263,27195,2,2,B|41:263,1,280
62,111,29167,1,0
214,112,30152,1,0
215,35,30645,5,0
290,35,31138,2,2,B|291:322,1,280
138,316,33109,1,0
81,265,33602,1,0
24,213,34095,1,0
175,209,35081,6,0,B|284:318,2,140
175,132,36559,1,2
251,132,37052,2,0,B|360:241,2,140
252,55,38530,1,2
328,54,39023,6,0,B|474:54,1,140
470,206,40502,5,0
469,282,40995,1,0
392,282,41487,1,0
393,206,41980,2,2,B|393:57,1,140
316,64,42966,5,0
315,140,43459,2,0,B|320:218|307:265|266:294|217:323|186:325|141:329,1,280
78,326,44937,5,0
78,249,45430,1,0
82,97,46416,1,4
135,43,46909,5,0
210,43,47401,1,0
210,119,47894,2,0,B|205:197|218:244|259:273|308:302|339:304|384:308,1,280
446,306,49373,1,0
447,248,49742,2,0,B|452:170|439:123|406:82|357:51|309:41|260:39,1,315
189,38,51344,5,0
112,36,51837,2,0,B|9:139,1,140
13,211,52822,1,0
14,287,53315,1,0
23,350,53685,1,4
119,232,54794,6,0,B|516:232,1,385
505,137,56765,1,0
371,138,57628,1,4
200,139,58736,5,0
123,139,59229,1,2
123,139,59599,1,2
125,310,60708,5,0
201,310,61201,1,2
201,310,61570,1,2
371,310,62679,5,0
294,310,63172,1,2
294,310,63542,1,2
250,144,64650,5,2
250,219,65143,5,2
250,295,65636,5,6
98,293,66622,6,0,B|99:230|115:196|133:156|159:131|181:102|214:92|252:76,1,280
323,77,68100,1,0
399,79,68593,2,0,B|399:368,1,280
209,356,70811,5,0
209,356,71057,1,0
209,280,71550,1,0
56,281,72536,2,2,B|264:71,1,280
329,81,74014,5,0
404,82,74507,2,0,B|404:235,1,140
480,224,75493,2,0,B|480:375,1,140
403,362,76478,2,0,B|257:362,3,140
263,285,78450,5,4
152,180,79435,5,4
145,41,80421,6,2,B|350:240,1,280
256,192,82392,12,0,86335
64,64,88306,5,0
144,64,88799,5,0
224,64,89292,5,0
304,64,89785,5,0
256,208,90770,1,4
