osu file format v14

[General]
AudioFilename: 06 - Circles.mp3
AudioLeadIn: 0
PreviewTime: -1
Countdown: 1
SampleSet: Normal
StackLeniency: 0.7
Mode: 0
LetterboxInBreaks: 1
WidescreenStoryboard: 1

[Editor]
DistanceSpacing: 0.8
BeatDivisor: 6
GridSize: 4
TimelineZoom: 0.5

[Metadata]
Title:Circles
TitleUnicode:Circles
Artist:Ewert and the Two Dragons
ArtistUnicode:Ewert and the Two Dragons
Creator:Dota sucks
Version:Easy
Source:Band's site
Tags:
BeatmapID:686225
BeatmapSetID:306586

[Difficulty]
HPDrainRate:5
CircleSize:4
OverallDifficulty:5
ApproachRate:5
SliderMultiplier:1.4
SliderTickRate:2

[Events]
//Background and Video events
0,0,"osu background.jpg",0,0
//Break Periods
2,165506,173786
2,179859,188140
2,193795,206248
//Storyboard Layer 0 (Background)
//Storyboard Layer 1 (Fail)
//Storyboard Layer 2 (Pass)
//Storyboard Layer 3 (Foreground)
//Storyboard Sound Samples

[TimingPoints]
28614.2647789369,500.703278688529,4,1,0,100,1,0

[Colours]
Combo1 : 255,192,0
Combo2 : 0,202,0
Combo3 : 18,124,255
Combo4 : 242,24,57

[HitObjects]
72,100,1910,5,0,0:0:0:0:
364,120,3161,1,0,0:0:0:0:
272,240,3579,2,0,L|224:208,1,46.6666666666667
144,148,4330,1,0,0:0:0:0:
236,64,4747,2,0,L|272:120|272:120,1,46.6666666666667
364,228,5498,1,0,0:0:0:0:
152,144,6666,1,0,0:0:0:0:
240,140,7584,2,0,L|212:92,1,46.6666666666667
260,72,8252,2,0,L|288:124|288:124,1,46.6666666666667
324,200,9003,1,0,0:0:0:0:
156,176,10255,1,0,0:0:0:0:
272,72,11173,2,0,L|320:144,1,70
344,136,11840,2,0,L|312:104|312:104,1,23.3333333333333
84,88,12508,1,0,0:0:0:0:
104,204,13009,2,0,L|156:216,1,46.6666666666667
256,192,13843,5,0,0:0:0:0:
248,80,14844,1,0,0:0:0:0:
256,72,16013,2,0,P|384:292|108:196,1,700
252,200,20269,2,0,B|472:196|464:348|224:344,1,396.666666666667
152,168,22272,1,0,0:0:0:0:
400,100,23440,1,0,0:0:0:0:
200,168,25109,2,0,B|472:20|452:320,1,396.666666666667
220,132,28697,2,0,B|616:56|228:320,1,466.666666666667
260,32,33621,2,0,P|472:48|360:276,1,536.666666666667
200,276,36959,2,0,P|120:96|304:80,1,443.333333333333
348,184,39045,1,0,0:0:0:0:
216,304,40631,2,0,P|64:144|136:72,1,373.333333333333
204,184,42717,1,0,0:0:0:0:
360,176,44302,2,0,L|320:208,1,46.6666666666667
160,204,45471,2,0,L|124:156,1,46.6666666666667
272,180,46222,5,0,0:0:0:0:
236,100,48642,2,0,L|456:100,1,210
404,168,49894,1,0,0:0:0:0:
332,172,50227,2,0,L|288:152,1,46.6666666666667
240,184,50728,2,0,L|288:224,1,46.6666666666667
280,312,51396,1,0,0:0:0:0:
136,256,51896,2,0,P|156:200|168:192,1,70
232,156,52648,1,0,0:0:0:0:
332,108,53315,1,0,0:0:0:0:
416,160,53816,1,0,0:0:0:0:
388,264,54066,1,0,0:0:0:0:
308,312,54567,1,0,0:0:0:0:
224,300,54901,2,0,L|160:300,1,46.6666666666667
92,308,55735,2,0,P|44:152|160:72,1,326.666666666667
224,84,57237,2,0,L|296:88,1,70
304,128,57905,2,0,L|324:188,1,46.6666666666667
312,272,58489,1,0,0:0:0:0:
224,296,58990,2,0,L|144:296,1,70
136,216,59824,2,0,P|144:48|332:24,1,373.333333333333
376,208,62077,2,0,L|340:260,1,46.6666666666667
288,304,62828,2,0,P|64:224|324:76,1,676.666666666667
392,108,65582,1,0,0:0:0:0:
396,196,66167,2,0,L|388:276,1,70
360,296,66918,2,0,B|-88:376|84:52,1,536.666666666667
228,64,69338,2,0,P|476:88|448:220,1,443.333333333333
376,256,71340,1,0,0:0:0:0:
288,280,71758,2,0,L|212:280|216:280,1,70
152,276,72342,2,0,L|128:212,1,46.6666666666667
140,152,72843,1,0,0:0:0:0:
212,96,73427,1,0,0:0:0:0:
212,96,73677,1,0,0:0:0:0:
424,104,74011,1,0,0:0:0:0:
424,104,74178,1,0,0:0:0:0:
320,232,74929,5,0,0:0:0:0:
204,232,75513,1,0,0:0:0:0:
96,228,76097,1,0,0:0:0:0:
84,112,76681,1,0,0:0:0:0:
196,64,77265,1,0,0:0:0:0:
320,116,77850,1,0,0:0:0:0:
376,176,78434,1,0,0:0:0:0:
292,260,78934,1,0,0:0:0:0:
292,260,79101,1,0,0:0:0:0:
296,264,79268,1,0,0:0:0:0:
300,268,79435,1,0,0:0:0:0:
308,276,80019,1,0,0:0:0:0:
148,96,80770,1,0,0:0:0:0:
236,56,81355,2,0,P|480:160|472:196,1,373.333333333333
388,260,83107,1,0,0:0:0:0:
284,288,83524,2,0,P|52:196|88:128,1,420
136,96,85444,1,0,0:0:0:0:
216,80,86028,1,0,0:0:0:0:
300,80,86195,1,0,0:0:0:0:
376,128,86445,1,0,0:0:0:0:
400,204,86612,1,0,0:0:0:0:
380,276,87029,1,0,0:0:0:0:
364,284,87113,1,0,0:0:0:0:
228,288,87780,1,0,0:0:0:0:
116,288,88197,2,0,P|100:64|232:64,1,396.666666666667
296,80,90117,1,0,0:0:0:0:
384,168,90701,2,0,P|336:348|208:316,1,350
164,256,92453,1,0,0:0:0:0:
172,84,93038,1,0,0:0:0:0:
180,84,93204,1,0,0:0:0:0:
188,88,93371,1,0,0:0:0:0:
192,96,93538,1,0,0:0:0:0:
288,104,93956,2,0,L|396:104,1,93.3333333333333
296,220,94790,1,0,0:0:0:0:
256,320,95374,2,0,P|32:208|160:56,1,513.333333333333
240,56,97544,2,0,P|464:60|520:216,1,396.666666666667
456,248,99547,1,0,0:0:0:0:
344,256,100131,1,0,0:0:0:0:
224,244,100715,1,0,0:0:0:0:
136,204,101299,1,0,0:0:0:0:
144,120,101883,1,0,0:0:0:0:
200,56,102301,2,0,P|448:68|420:256,2,490
156,120,108893,5,0,0:0:0:0:
184,272,109561,1,0,0:0:0:0:
244,104,110145,1,0,0:0:0:0:
276,264,110479,2,0,L|364:264,1,70
372,208,111063,2,0,L|372:128,1,70
280,136,111647,1,0,0:0:0:0:
200,136,112231,2,0,L|200:64,1,70
200,64,112899,2,0,P|28:276|180:356,1,513.333333333333
220,352,115152,2,0,L|304:352,1,70
348,336,115986,2,0,P|452:172|324:48,2,396.666666666667
260,344,119241,2,0,L|168:344,1,70
108,324,119992,2,0,P|40:160|188:32,1,396.666666666667
352,68,122245,2,0,L|384:136,1,70
412,236,122996,2,0,P|232:364|172:32,1,700
252,32,125834,2,0,L|416:32,1,163.333333333333
432,144,127085,2,0,P|356:348|180:356,1,396.666666666667
124,204,129422,2,0,P|216:36|352:72,1,350
384,196,131675,2,0,L|384:268,1,70
328,272,132259,2,0,L|248:272,1,70
240,140,133177,2,0,L|360:140,1,116.666666666667
364,208,134179,5,0,0:0:0:0:
352,300,134763,1,0,0:0:0:0:
248,312,135347,1,0,0:0:0:0:
180,248,135931,1,0,0:0:0:0:
160,148,136432,1,0,0:0:0:0:
248,72,136933,1,0,0:0:0:0:
336,124,137684,1,0,0:0:0:0:
340,128,138184,1,0,0:0:0:0:
348,136,138768,1,0,0:0:0:0:
348,136,138935,1,0,0:0:0:0:
348,136,139102,1,0,0:0:0:0:
348,136,139269,1,0,0:0:0:0:
368,280,139937,1,0,0:0:0:0:
288,284,140521,1,0,0:0:0:0:
184,280,141022,2,0,P|92:96|352:72,1,536.666666666667
400,104,143358,2,0,P|400:292|264:344,1,350
96,248,145778,1,0,0:0:0:0:
96,248,145945,1,0,0:0:0:0:
96,248,146112,1,0,0:0:0:0:
96,248,146279,1,0,0:0:0:0:
96,48,146780,2,0,L|272:48,1,163.333333333333
259,48,147865,2,0,P|111:264|263:48,1,980
68,60,152037,1,0,0:0:0:0:
172,56,152621,1,0,0:0:0:0:
172,56,152788,1,0,0:0:0:0:
180,64,152955,1,0,0:0:0:0:
180,64,153122,1,0,0:0:0:0:
256,56,153706,1,0,0:0:0:0:
256,56,154290,1,0,0:0:0:0:
256,56,154874,2,0,P|108:184|264:56,1,956.666666666667
252,100,158964,1,0,0:0:0:0:
252,100,159548,1,0,0:0:0:0:
252,100,160132,1,0,0:0:0:0:
176,64,160633,2,0,P|196:156|324:56,4,326.666666666667
256,72,174986,6,0,P|256:288|260:72,2,653.333333333333
472,320,189340,6,0,B|-156:256|-116:76|612:272|660:44|4:48,1,1190
120,72,207448,5,0,0:0:0:0:
236,68,207949,1,0,0:0:0:0:
328,84,208533,1,0,0:0:0:0:
440,104,209117,1,0,0:0:0:0:
440,208,209701,1,0,0:0:0:0:
412,296,210202,1,0,0:0:0:0:
304,308,210786,2,0,L|240:308,1,46.6666666666667
192,312,211370,2,0,B|120:244|152:92|196:24|264:24|312:24,1,373.333333333333
464,52,213206,2,0,L|264:284,1,303.333333333333
164,124,215376,1,0,0:0:0:0:
208,168,215543,1,0,0:0:0:0:
208,168,215710,1,0,0:0:0:0:
208,168,215877,1,0,0:0:0:0:
208,168,216044,1,0,0:0:0:0:
208,168,216211,1,0,0:0:0:0:
208,168,216377,1,0,0:0:0:0:
208,168,216544,1,0,0:0:0:0:
208,168,216711,1,0,0:0:0:0:
208,168,216878,1,0,0:0:0:0:
208,168,217045,1,0,0:0:0:0:
208,168,217212,1,0,0:0:0:0:
208,168,217629,2,0,P|496:240|208:136,1,956.666666666667
208,136,221468,1,0,0:0:0:0:
212,140,222052,1,0,0:0:0:0:
216,144,222219,1,0,0:0:0:0:
220,148,222386,1,0,0:0:0:0:
224,152,222553,1,0,0:0:0:0:
232,160,222720,1,0,0:0:0:0:
232,160,222887,1,0,0:0:0:0:
236,164,223054,1,0,0:0:0:0:
240,168,223220,1,0,0:0:0:0:
244,172,223387,1,0,0:0:0:0:
248,176,223554,1,0,0:0:0:0:
252,180,223721,1,0,0:0:0:0:
256,184,223888,1,0,0:0:0:0:
260,188,224055,1,0,0:0:0:0:
264,192,224305,2,0,P|148:268|264:188,1,513.333333333333
268,184,226392,2,0,P|355:235|267:175,1,373.333333333333
268,184,228394,1,0,0:0:0:0:
192,184,228979,1,0,0:0:0:0:
116,184,229563,1,0,0:0:0:0:
116,104,230063,1,0,0:0:0:0:
192,104,230648,1,0,0:0:0:0:
264,108,231232,2,0,P|420:128|264:120,2,466.666666666667
