osu file format v9

[General]
AudioFilename: Suklaapallit.mp3
AudioLeadIn: 0
PreviewTime: 16667
Countdown: 0
SampleSet: Soft
StackLeniency: 0.7
Mode: 0
LetterboxInBreaks: 1

[Editor]
DistanceSpacing: 1
BeatDivisor: 4
GridSize: 8

[Metadata]
Title:Suklaapallit
Artist:Evoluutiomies
Creator:LunaticMara
Version:Mukun Suklaapallit
Source:
Tags:finnish mukku

[Difficulty]
HPDrainRate:6
CircleSize:4
OverallDifficulty:6
ApproachRate:8
SliderMultiplier:2.3
SliderTickRate:1

[Events]
//Background and Video events
0,0,"ippensuklaapallit.jpg"
//Break Periods
2,45952,52874
2,72057,75031
2,97215,105959
//Storyboard Layer 0 (Background)
//Storyboard Layer 1 (Fail)
//Storyboard Layer 2 (Pass)
//Storyboard Layer 3 (Foreground)
//Storyboard Sound Samples
//Background Colour Transformations
3,100,128,0,0

[TimingPoints]
1906,461.538461538462,4,2,0,70,1,0
23573,-100,4,2,0,39,0,0
23711,-100,4,2,0,67,0,0
31333,-100,4,2,0,47,0,0
31563,-100,4,2,0,67,0,0
38700,-100,4,2,0,47,0,0
38873,-100,4,2,0,67,0,0
53624,461.609478381289,4,2,0,70,1,0
61007,-100,4,2,0,44,0,0
61065,-100,4,2,0,67,0,0
83065,-100,4,2,0,52,0,0
83296,-100,4,2,0,67,0,0
121469,-100,4,2,0,67,0,0

[Colours]
Combo1 : 128,255,128
Combo2 : 128,64,64
Combo3 : 255,0,128
Combo4 : 128,255,255

[HitObjects]
160,128,16675,2,0,B|176:104|208:88|240:104|256:128,1,115,0|2
320,224,17136,1,8
256,40,17367,1,2
192,224,17598,5,0
352,128,17829,1,2
160,128,18059,1,8
320,224,18290,1,2
256,320,18521,6,0,B|208:328|176:296|176:256,1,115,0|2
216,216,18867,1,0
264,184,18982,2,0,B|272:136|240:104|200:104,1,115,8|2
152,136,19329,1,0
104,168,19444,2,0,B|67:168|35:136|43:88,1,115,0|2
160,200,19906,1,8
256,64,20367,5,0
336,152,20598,1,2
256,240,20829,1,8
176,152,21059,1,2
336,64,21290,5,0
336,240,21521,1,2
168,240,21752,1,8
168,64,21982,1,2
384,96,22213,5,0
120,96,22444,1,2
384,168,22675,1,8
120,168,22906,1,2
256,248,23136,6,0,B|264:232|272:200|256:192|240:184|248:152|256:136,2,115,0|4|4
128,56,24059,6,0,B|152:72|168:104|152:136|128:152,1,115,0|2
200,240,24521,2,0,B|176:256|160:288|176:320|200:336,1,115,8|2
384,56,24982,6,0,B|360:72|344:104|360:136|384:152,1,115,0|2
312,240,25444,2,0,B|336:256|352:288|336:320|312:336,1,115,8|2
312,240,25906,5,0
392,152,26136,1,2
312,64,26367,1,8
152,240,26598,5,2
80,152,26829,1,0
152,64,27059,1,2
232,152,27290,5,8
80,192,27752,5,0
168,272,27982,1,2
256,192,28213,1,8
344,272,28444,1,2
432,192,28675,5,0
344,112,28906,1,2
256,192,29136,1,8
344,272,29367,1,2
432,192,29598,6,0,B|432:144|408:112|360:104,1,115,0|2
288,192,30059,1,8
288,192,30290,1,2
208,104,30521,1,0
164,141,30636,1,0
136,192,30752,1,2
164,242,30867,1,0
208,280,30982,1,4
416,192,31444,5,4
328,272,31675,1,2
240,192,31906,1,0
152,272,32136,1,2
64,192,32367,5,0
152,112,32598,1,2
240,192,32829,1,0
328,112,33059,1,2
328,224,33290,6,0,B|448:224,1,115,0|2
152,224,33752,2,0,B|32:224,1,115,0|2
40,112,34213,5,0
152,152,34444,1,2
224,56,34675,1,0
336,96,34906,1,2
408,192,35136,5,0
392,248,35252,1,0
336,272,35367,1,2
280,248,35482,1,0
264,192,35598,1,0
408,192,35829,5,2
264,192,36059,5,0
248,136,36175,1,0
192,112,36290,1,2
136,136,36406,1,0
120,192,36521,1,0
264,192,36752,5,2
408,192,36982,5,0
336,288,37213,1,2
336,96,37444,5,0
264,192,37675,1,2
192,288,37906,1,0
192,96,38136,5,2
120,192,38367,1,4
264,192,38598,1,2
376,192,38829,6,0,B|288:288,1,115,4|2
400,288,39290,1,0
264,192,39521,1,2
152,192,39752,2,0,B|232:104,1,115,0|2
128,104,40213,1,0
264,192,40444,1,2
376,192,40675,6,0,B|280:296,1,115,0|2
152,192,41136,2,0,B|232:104,1,115,0|2
376,192,41598,2,0,B|280:296,2,115,0|2|0
264,192,42290,1,2
176,272,42521,5,0
352,272,42752,1,2
344,112,42982,1,8
184,112,43213,1,2
264,288,43444,5,0
368,192,43675,1,2
264,96,43906,1,8
160,192,44136,1,2
264,176,44367,5,0
268,171,44482,1,0
272,166,44598,1,2
276,161,44713,1,0
280,156,44829,1,8
285,152,44944,1,0
290,147,45059,1,2
295,143,45175,1,0
300,139,45290,1,0
306,136,45406,1,0
312,134,45521,1,2
318,133,45636,1,0
324,133,45752,1,12
160,104,53624,6,0,B|184:64|224:48|256:40|288:48|328:64|352:104,2,230,0|0|0
256,192,55008,1,8
352,280,55470,6,0,B|328:320|288:336|256:344|224:336|184:320|160:280,2,230
256,192,56855,1,8
144,80,57316,6,0,B|168:72|200:60|232:72|256:80,1,115,0|0
256,80,57778,2,0,B|280:88|312:100|344:88|368:80,1,115,0|0
368,304,58240,6,0,B|344:312|312:324|280:312|256:304,1,115,0|0
256,304,58701,2,0,B|232:296|200:284|168:296|144:304,1,115,8|0
312,192,59163,6,0,B|440:192,1,115
200,192,59624,2,0,B|80:192,1,115
256,120,60086,1,0
256,264,60317,1,0
256,72,60548,1,8
256,312,60778,1,0
144,288,61009,6,0,B|104:264|88:224|80:192|88:160|104:120|144:96,2,230,4|0|0
256,192,62394,1,8
368,96,62856,6,0,B|408:120|424:160|432:192|424:224|408:264|368:288,2,230,4|0|0
256,192,64241,1,8
104,120,64702,6,0,B|80:136|48:192|80:256|104:272,1,172.5
104,272,65164,1,2
216,272,65395,1,0
216,160,65625,1,0
328,160,65856,1,0
328,272,66087,1,2
216,272,66318,1,0
272,96,66549,5,0
392,216,66779,1,0
272,328,67010,1,2
160,216,67241,1,0
272,96,67472,5,0
360,264,67703,1,0
176,168,67933,1,2
272,328,68164,1,0
272,200,68395,6,0,B|296:176|296:136|272:120|248:104|248:64|272:40,1,172.5
270,41,68857,1,2
360,112,69087,1,0
184,192,69318,1,0
360,264,69549,1,0
184,336,69780,1,2
360,264,70011,1,0
184,264,70241,5,0
184,88,70472,1,0
360,88,70703,1,2
360,264,70934,1,0
184,176,71165,5,0
360,88,71395,1,0
360,264,71626,1,2
184,176,71857,1,0
88,152,75781,5,4
200,192,76012,1,2
312,152,76242,1,0
416,192,76473,1,2
312,232,76704,5,0
200,120,76935,1,2
88,232,77166,1,0
200,344,77396,1,2
312,232,77627,5,0
368,80,77858,1,2
312,232,78089,1,0
256,80,78320,1,2
312,232,78550,2,0,B|312:352,2,115,0|2|0
136,112,79474,6,0,B|184:120|216:152|200:200,1,115,0|2
88,216,79935,1,0
256,80,80166,1,2
376,112,80397,6,0,B|328:120|296:152|312:200,1,115,0|2
424,216,80858,1,0
256,80,81089,1,2
309,188,81320,6,0,B|301:228|333:268|373:268,1,115,0|2
203,188,81782,2,0,B|211:228|179:268|139:268,1,115,0|2
256,192,82243,5,0
400,192,82474,1,2
112,192,82705,1,4
328,80,83167,5,4
328,192,83397,1,2
328,304,83628,1,8
328,192,83859,1,2
184,80,84090,5,0
184,192,84321,1,2
184,304,84551,1,8
184,192,84782,1,2
328,80,85013,5,0
184,304,85244,1,2
184,80,85475,1,8
328,304,85705,1,2
256,192,85936,5,0
400,192,86167,1,2
112,192,86398,1,8
256,192,86629,1,2
328,104,86859,6,0,B|320:64|360:24|408:40,1,115,0|2
184,112,87321,2,0,B|192:72|152:32|104:48,1,115,8|2
184,192,87783,1,0
256,88,88013,1,2
328,192,88244,1,8
256,288,88475,1,0
120,192,88706,5,0
256,88,88937,1,2
256,288,89167,1,8
392,192,89398,1,2
256,88,89629,5,0
144,288,89860,1,2
368,288,90091,1,8
256,192,90552,12,4,97015
256,120,106709,6,0,B|304:112|336:152|336:184,1,115,4|2
256,264,107170,2,0,B|208:272|176:232|176:200,1,115,0|2
336,264,107632,5,0
176,120,107863,1,2
336,120,108093,1,0
184,264,108324,1,2
88,200,108555,5,0
120,88,108786,1,2
176,72,108901,1,0
232,88,109017,1,0
264,200,109247,1,2
320,216,109363,1,0
376,200,109478,1,0
432,304,109709,1,2
320,336,109940,1,2
344,168,110401,5,0
168,168,110632,1,2
344,232,110863,2,0,B|336:280|296:296|256:296|216:296|176:280|168:232,1,230,0|0
256,88,111555,5,2
344,232,111786,1,0
168,234,112017,1,2
256,88,112248,5,0
344,232,112479,1,2
168,234,112710,1,0
256,88,112940,1,2
368,120,113171,5,0
256,296,113402,1,2
144,120,113633,1,4
400,64,114094,5,0
336,160,114325,1,2
330,160,114441,1,0
324,160,114556,1,8
256,256,114787,1,2
256,64,115018,5,0
192,160,115248,1,2
186,160,115364,1,0
180,160,115479,1,8
112,256,115710,1,2
112,64,115941,5,0
186,160,116172,1,2
191,160,116287,1,0
196,160,116402,1,8
256,256,116633,1,2
256,64,116864,5,0
328,160,117095,1,2
333,160,117210,1,0
338,161,117326,1,8
400,256,117556,1,2
400,64,117787,5,0
288,64,118018,1,2
282,64,118133,1,0
276,64,118249,1,8
160,64,118480,1,2
160,256,118710,5,0
264,256,118941,1,2
269,256,119057,1,0
274,256,119172,1,8
392,256,119403,1,2
160,256,119634,5,0
392,256,119864,1,2
160,192,120095,1,8
392,192,120326,1,2
272,80,120557,5,0
160,256,120788,1,2
392,256,121018,1,12
352,96,121480,6,0,B|328:56|288:40|256:32|224:40|184:56|160:96,2,230,4|0|0
256,192,122865,1,8
160,288,123327,6,0,B|184:328|224:344|256:352|288:344|328:328|352:288,2,230
256,224,124481,1,0
256,192,124942,12,4,128866
