osu file format v9

[General]
AudioFilename: Suklaapallit.mp3
AudioLeadIn: 0
PreviewTime: 16665
Countdown: 0
SampleSet: Normal
StackLeniency: 0.3
Mode: 0
LetterboxInBreaks: 1

[Editor]
DistanceSpacing: 0.9
BeatDivisor: 2
GridSize: 8

[Metadata]
Title:Suklaapallit
Artist:Evoluutiomies
Creator:LunaticMara
Version:Mansikkapallit
Source:
Tags:finnish mukku

[Difficulty]
HPDrainRate:4
CircleSize:4
OverallDifficulty:4
ApproachRate:5
SliderMultiplier:1.4
SliderTickRate:1

[Events]
//Background and Video events
0,0,"ippensuklaapallit.jpg"
//Break Periods
2,45951,52424
2,68595,74581
2,90752,96276
//Storyboard Layer 0 (Background)
//Storyboard Layer 1 (Fail)
//Storyboard Layer 2 (Pass)
//Storyboard Layer 3 (Foreground)
//Storyboard Sound Samples
//Background Colour Transformations
3,100,128,0,0

[TimingPoints]
1906,461.538461538462,4,1,0,70,1,0
53624,461.609478381289,4,1,0,70,1,0

[Colours]
Combo1 : 128,255,128
Combo2 : 128,64,64
Combo3 : 255,0,128
Combo4 : 128,255,255

[HitObjects]
112,88,16675,1,0
152,136,16905,1,0
192,88,17136,1,0
320,88,17598,2,0,B|352:144|312:224,1,140
248,224,18290,1,0
184,224,18521,2,2,B|104:256|40:216,1,140
56,160,19213,1,0
120,160,19444,1,0
88,104,19675,2,2,B|88:24,1,70
216,32,20367,5,0
216,96,20598,1,0
216,160,20829,2,0,B|216:232,1,70
216,296,21290,2,0,B|306:297,1,70
352,296,21752,1,0
352,168,22213,2,2,B|368:48|296:48,1,140
272,104,22905,1,0
232,152,23136,1,2
192,104,23367,1,0
152,152,23598,1,2
152,280,24059,6,0,B|152:360,2,70
280,280,24982,1,0
344,280,25213,1,0
392,232,25444,1,0
392,168,25675,2,2,B|304:112,1,70
272,112,26136,2,2,B|192:112,1,70
144,128,26598,2,2,B|88:168,1,70
120,224,27059,2,0,B|168:288,1,70
280,328,27752,5,0
344,328,27982,1,0
280,328,28213,1,0
152,328,28675,2,0,B|72:328|72:288|72:240|72:200,1,140
72,176,29367,1,0
72,112,29598,2,2,B|72:48|120:48,1,70
160,56,30059,1,0
224,56,30290,2,0,B|272:56|272:120,1,70
272,160,30752,1,2
272,224,30982,1,6
400,224,31444,5,0
440,176,31675,1,0
400,128,31905,1,0
288,72,32367,2,0,B|216:24|152:72|144:88,1,140
152,136,33059,1,0
152,200,33290,2,2,B|232:248|296:192,1,140
312,256,33982,1,0
336,312,34213,2,2,B|256:344|256:336,1,70
208,336,34675,1,2
104,264,35136,5,0
72,208,35367,1,0
104,152,35598,1,0
232,152,36059,1,0
192,200,36290,1,0
232,248,36521,1,0
280,200,36752,1,0
344,200,36982,2,2,B|344:112,1,70
408,128,37444,2,2,B|408:48,1,70
472,56,37906,2,0,B|472:160,1,70
472,192,38367,1,2
344,200,38829,6,0,B|296:264,1,70
240,256,39290,1,0
240,128,39752,1,0
368,128,40213,1,0
368,256,40675,1,2
240,256,41136,1,0
112,256,41598,1,0
112,192,41829,2,2,B|184:192,1,70
288,256,42521,5,0
328,208,42752,1,0
288,160,42982,1,0
160,152,43444,2,0,B|80:152,1,70
88,216,43906,1,0
88,280,44136,2,0,B|216:280,1,70
224,280,44598,2,2,B|320:280,1,70
336,232,45059,1,0
296,184,45290,1,0
336,136,45521,2,6,B|280:48,1,70
72,64,53624,5,0
120,104,53854,1,2
72,144,54085,1,0
120,184,54316,1,2
72,224,54547,1,0
136,328,55008,1,2
248,272,55470,5,2
296,232,55701,1,0
328,176,55932,1,2
336,112,56162,1,0
312,56,56393,1,2
184,40,56855,1,0
80,104,57316,5,0
104,160,57547,1,2
136,216,57778,1,0
176,168,58009,1,2
208,112,58240,1,0
336,112,58701,1,2
384,232,59163,5,2
320,232,59394,1,0
272,272,59624,1,2
224,232,59855,1,0
160,232,60086,1,2
72,144,60548,1,0
144,40,61009,6,0,B|224:40,1,70
216,104,61471,2,2,B|264:176,1,70
320,168,61932,2,0,B|400:168,2,70,0|2|0
288,288,62856,6,2,B|264:216,1,70
200,224,63317,2,0,B|96:224,1,70
64,224,63779,2,0,B|64:136,2,70,0|2|0
144,320,64702,6,0,B|232:320,1,70
280,312,65164,2,2,B|352:248,1,70
336,200,65625,2,0,B|264:136,1,70
224,152,66087,1,2
96,152,66549,6,2,B|96:64,2,70
128,208,67241,1,0
88,256,67472,1,2
128,304,67703,1,0
192,304,67933,1,2
280,208,68395,1,4
256,120,75781,6,0,B|256:232,2,70
352,32,76704,1,0
384,88,76935,1,0
352,144,77166,1,0
384,200,77396,1,0
448,200,77627,2,2,B|448:288|384:288,1,70
368,272,78089,2,2,B|368:344|320:344,1,70
280,336,78550,2,0,B|280:264|232:264,1,70
192,272,79012,1,0
200,144,79474,5,0
240,96,79704,1,0
280,144,79935,1,0
408,144,80397,1,0
440,200,80628,1,0
408,256,80858,1,0
280,256,81320,2,2,B|184:256,1,70
208,192,81782,2,2,B|280:192,1,70
280,128,82243,2,0,B|184:128,2,70
152,128,83167,5,0
88,128,83397,1,0
88,192,83628,1,0
88,320,84090,1,0
152,320,84321,1,0
152,256,84551,1,0
280,256,85013,5,6
376,176,85475,1,4
280,88,85936,1,6
192,176,86398,1,4
64,176,86859,5,0
64,240,87090,1,0
64,304,87321,1,0
192,312,87783,1,0
240,264,88013,1,0
192,224,88244,1,0
272,128,88706,2,2,B|352:128,1,70
408,128,89167,1,0
408,256,89629,2,0,B|344:312|248:240,2,140
408,72,97476,5,0
376,128,97707,1,0
408,184,97938,1,0
48,72,99323,5,2
88,120,99554,1,2
48,168,99784,1,2
120,272,100246,1,0
168,312,100477,1,0
296,312,100938,2,2,B|352:256,1,70
256,192,101631,12,0,105324
152,104,106709,5,0
200,144,106939,1,0
232,200,107170,1,0
344,256,107632,1,0
376,200,107863,1,0
392,136,108093,1,0
296,56,108555,2,2,B|224:48,1,70
160,48,109017,2,2,B|64:64,1,70
88,120,109478,2,0,B|144:216,1,70
128,240,109940,1,2
208,336,110401,6,0,B|312:208,1,140
200,152,111325,2,0,B|88:288,1,140
216,328,112248,1,2
256,280,112479,1,0
296,328,112710,1,2
360,328,112940,2,0,B|424:264,1,70
328,176,113633,1,2
200,176,114094,5,0
72,176,114556,1,0
136,64,115018,1,0
264,64,115479,1,0
328,176,115941,1,2
392,64,116402,1,2
456,176,116864,1,0
456,240,117095,1,0
456,304,117326,2,2,B|376:336,1,70
328,328,117787,5,0
264,328,118018,1,0
264,264,118249,1,0
328,152,118710,1,0
200,152,119172,1,0
264,40,119634,1,2
392,40,120095,2,2,B|392:128,1,70
440,152,120557,1,0
392,200,120788,1,0
328,200,121018,1,2
232,120,121480,5,4
128,192,121942,1,0
232,264,122403,1,6
336,192,122865,1,0
440,120,123327,1,4
336,48,123788,1,0
232,120,124250,1,6
232,184,124481,2,0,B|312:184,1,70
304,248,124942,2,0,B|384:248,1,70
376,120,125635,1,0
248,120,126096,1,4
256,192,127019,12,0,128866
