osu file format v14

[General]
AudioFilename: zenzen.mp3
AudioLeadIn: 0
PreviewTime: 67699
Countdown: 0
SampleSet: Soft
StackLeniency: 0.5
Mode: 0
LetterboxInBreaks: 0
WidescreenStoryboard: 1

[Editor]
Bookmarks: 42,10147,20252,45515,55620,68252,87199,93515,103620,109936
DistanceSpacing: 1
BeatDivisor: 4
GridSize: 4
TimelineZoom: 1

[Metadata]
Title:Zen Zen Zense
TitleUnicode:前前前世
Artist:EvilServant
ArtistUnicode:EvilServant
Creator:Sonnyc
Version:Hard
Source:君の名は。
Tags:Kimi no Na wa your name. RADWIMPS bakayaroid 바카야로이드 matsuda tota yagami light death note デスノート
BeatmapID:1115630
BeatmapSetID:524537

[Difficulty]
HPDrainRate:5
CircleSize:4
OverallDifficulty:6
ApproachRate:7
SliderMultiplier:1.6
SliderTickRate:1

[Events]
//Background and Video events
0,0,"bg.jpg",0,0
Video,0,"mv.avi"
//Break Periods
//Storyboard Layer 0 (Background)
//Storyboard Layer 1 (Fail)
//Storyboard Layer 2 (Pass)
//Storyboard Layer 3 (Foreground)
//Storyboard Sound Samples

[TimingPoints]
42,315.789473684211,4,2,1,60,1,0
8884,-100,4,2,1,50,0,0
8936,-100,4,2,1,5,0,0
9094,-100,4,2,1,55,0,0
9147,-100,4,2,1,5,0,0
9305,-100,4,2,1,60,0,0
9357,-100,4,2,1,5,0,0
9515,-100,4,2,1,65,0,0
9568,-100,4,2,1,5,0,0
9726,-100,4,2,1,70,0,0
9778,-100,4,2,1,5,0,0
9936,-100,4,2,1,80,0,0
9989,-100,4,2,1,5,0,0
10147,-100,4,2,1,70,0,0
20252,-100,4,3,1,50,0,0
45515,-100,4,2,1,70,0,0
55620,-100,4,2,1,60,0,0
67620,-100,4,2,1,40,0,0
68252,-100,4,2,1,70,0,1
77410,-100,4,2,1,60,0,0
78357,-100,4,2,1,70,0,1
91147,-100,4,2,1,70,0,0
91226,-100,4,2,1,50,0,0
92884,-100,4,2,1,60,0,0
93515,-100,4,2,1,70,0,0
103620,-100,4,3,1,60,0,0
106068,-100,4,2,1,30,0,0
107410,-100,4,2,1,20,0,0
108673,-100,4,2,1,10,0,0
109936,-100,4,2,1,5,0,0

[Colours]
Combo1 : 255,213,170
Combo2 : 170,255,213
Combo3 : 170,213,255
Combo4 : 255,170,213

[HitObjects]
148,56,43,6,0,L|228:64,2,80,4|0|0,0:0|0:0|1:0,0:0:0:0:
84,104,516,1,0,0:0:0:0:
156,136,674,2,0,L|172:296,1,160,2|0,0:0|1:0,0:0:0:0:
100,332,1148,2,0,P|148:372|244:332,1,160,2|0,0:0|0:0,0:0:0:0:
252,268,1621,2,0,L|244:188,1,80,0|0,1:0|0:0,0:0:0:0:
292,124,1937,22,0,P|328:109|367:115,1,80,2|0,0:0|0:0,0:0:0:0:
436,156,2253,1,0,1:0:0:0:
384,308,2569,22,0,P|420:323|459:317,2,80,4|0|0,0:0|0:0|1:0,0:0:0:0:
320,260,3043,1,0,0:0:0:0:
248,292,3200,2,0,L|88:276,1,160,2|0,0:0|1:0,0:0:0:0:
37,338,3674,2,0,P|8:267|52:204,1,160,2|0,0:0|0:0,0:0:0:0:
127,176,4148,2,0,L|207:184,1,80,0|0,1:0|0:0,0:0:0:0:
284,215,4464,22,0,P|291:176|276:140,1,80,2|0,0:0|0:0,0:0:0:0:
232,76,4779,1,0,1:0:0:0:
380,16,5095,22,0,P|364:52|371:91,2,80,4|0|0,0:0|0:0|1:0,0:0:0:0:
445,63,5569,1,0,0:0:0:0:
436,140,5727,2,0,L|420:300,1,160,2|0,0:0|1:0,0:0:0:0:
491,329,6200,2,0,P|419:299|356:343,1,160,2|0,0:0|0:0,0:0:0:0:
284,316,6674,2,0,L|204:324,1,80,0|0,1:0|0:0,0:0:0:0:
127,355,6990,22,0,P|120:315|135:279,1,80,2|0,0:0|0:0,0:0:0:0:
180,216,7305,1,0,1:0:0:0:
372,148,7621,5,2,0:0:0:0:
372,148,7700,1,0,0:0:0:0:
372,148,7779,2,0,L|380:228,2,80,2|0|2,0:0|1:0|0:0,0:0:0:0:
432,96,8253,1,2,0:0:0:0:
360,68,8411,1,0,0:0:0:0:
296,116,8569,2,0,P|256:123|220:108,1,80,0|2,1:0|0:0,0:0:0:0:
268,44,8885,22,0,P|220:28|152:68,2,106.666666666667,2|2|2,0:1|0:1|0:1,0:0:0:0:
296,116,9516,2,0,L|284:233,2,106.666666666667,2|2|2,0:1|0:1|0:1,0:0:0:0:
360,68,10148,38,0,L|440:60,2,80,4|0|2,1:2|0:0|1:2,0:0:0:0:
296,116,10621,1,0,0:0:0:0:
268,44,10779,2,0,P|231:29|192:36,1,80,2|0,1:2|0:0,0:0:0:0:
124,76,11095,2,0,L|44:68,1,80,2|0,1:2|0:0,0:0:0:0:
12,144,11411,22,0,L|172:160,1,160,2|2,1:2|1:2,0:0:0:0:
240,120,11885,1,0,0:0:0:0:
240,120,12043,2,0,B|217:165|217:165|227:274,1,160,2|2,1:0|1:2,0:0:0:0:
363,358,12674,22,0,L|443:366,2,80,4|0|2,1:2|0:0|1:2,0:0:0:0:
295,318,13148,1,0,0:0:0:0:
362,273,13306,2,0,P|294:237|227:274,2,160,2|2|2,1:2|1:2|1:2,0:0:0:0:
315,111,14253,6,0,P|278:126|239:119,1,80,2|0,1:2|0:0,0:0:0:0:
270,45,14569,2,0,P|347:31|420:61,1,160,2|2,1:2|1:2,0:0:0:0:
388,216,15200,38,0,L|308:224,2,80,4|0|2,1:2|0:0|1:2,0:0:0:0:
464,240,15674,1,0,0:0:0:0:
406,295,15832,2,0,B|297:305|297:305|252:282,2,160,2|2|2,1:2|1:2|1:2,0:0:0:0:
464,240,16621,1,0,0:0:0:0:
388,216,16779,22,0,L|396:136,1,80,2|0,1:2|0:0,0:0:0:0:
456,83,17095,2,0,B|411:60|411:60|302:70,1,160,2|0,1:0|1:0,0:0:0:0:
149,134,17727,5,2,0:0:0:0:
149,134,17806,1,0,0:0:0:0:
149,134,17885,2,0,L|141:214,2,80,2|0|2,0:0|1:0|0:0,0:0:0:0:
89,82,18357,1,2,0:0:0:0:
161,54,18515,1,0,0:0:0:0:
225,102,18673,2,0,P|239:138|232:177,1,80,0|2,1:0|0:0,0:0:0:0:
201,250,18990,21,2,3:1:0:0:
256,192,19069,12,2,19937,0:0:0:0:
328,176,20253,38,0,P|427:144|465:256,1,240,4|2,0:0|0:0,0:0:0:0:
396,284,20885,2,0,L|236:268,2,160,4|4|4,0:0|0:0|0:0,0:0:0:0:
192,179,21990,5,0,0:0:0:0:
128,228,22148,2,0,P|116:152|156:108,2,120,4|0|0,0:0|0:0|0:0,0:0:0:0:
180,288,22779,6,0,B|287:278|287:278|340:292,2,160,4|4|2,0:0|0:0|0:2,0:0:0:0:
128,228,23569,1,0,0:0:0:0:
192,179,23727,2,0,L|276:183,1,80,4|0,0:0|0:0,0:0:0:0:
348,211,24043,6,0,P|355:172|340:136,1,80,2|0,0:2|0:0,0:0:0:0:
288,76,24358,2,0,P|359:105|422:61,2,160,4|4|8,0:0|0:0|0:0,0:0:0:0:
152,164,25306,38,0,L|68:160,2,80,4|2|4,0:2|0:0|0:0,0:0:0:0:
220,120,25779,1,2,0:0:0:0:
292,156,25937,2,0,L|296:240,2,80,4|2|4,0:0|0:0|0:0,0:0:0:0:
220,120,26411,1,2,0:0:0:0:
288,76,26569,38,0,L|367:79,1,80,4|2,0:0|0:0,0:0:0:0:
436,36,26885,2,0,P|451:72|444:111,1,80,4|2,0:0|0:0,0:0:0:0:
408,184,27200,1,4,0:0:0:0:
408,184,27358,2,0,L|424:344,1,160,2|2,0:0|0:0,0:0:0:0:
344,336,27832,6,0,L|328:176,2,160,4|4|4,0:2|0:0|0:0,0:0:0:0:
264,328,28621,1,0,0:0:0:0:
184,320,28778,2,0,L|105:323,1,80,4|0,0:0|0:0,0:0:0:0:
36,368,29094,6,0,P|21:290|50:216,1,160,2|4,0:2|0:0,0:0:0:0:
104,160,29568,1,0,0:0:0:0:
104,160,29648,1,0,0:0:0:0:
104,160,29727,2,0,L|101:81,1,80,4|2,0:0|0:2,0:0:0:0:
260,208,30200,5,0,0:0:0:0:
328,167,30358,2,0,P|229:135|191:247,1,240,4|2,0:0|0:0,0:0:0:0:
224,312,30990,2,0,L|384:296,2,160,4|4|4,0:0|0:0|0:0,0:0:0:0:
412,200,32095,5,0,0:0:0:0:
476,249,32253,2,0,P|488:173|448:129,2,120,4|0|0,0:0|0:0|0:0,0:0:0:0:
424,309,32885,6,0,B|317:299|317:299|264:313,2,160,4|4|2,0:0|0:0|0:2,0:0:0:0:
476,249,33674,1,0,0:0:0:0:
412,201,33832,2,0,L|328:205,1,80,4|0,0:0|0:0,0:0:0:0:
256,233,34148,6,0,P|249:194|264:158,1,80,2|0,0:2|0:0,0:0:0:0:
316,98,34463,2,0,P|245:127|182:83,2,160,4|4|8,0:0|0:0|0:0,0:0:0:0:
188,192,35411,38,0,L|104:188,2,80,4|2|4,0:2|0:0|0:0,0:0:0:0:
256,233,35885,1,0,0:0:0:0:
312,177,36043,2,0,L|315:97,2,80,4|2|4,0:0|0:0|0:0,0:0:0:0:
256,233,36516,1,2,0:0:0:0:
324,274,36674,38,0,L|403:277,1,80,4|2,0:0|0:0,0:0:0:0:
472,236,36990,2,0,P|487:272|480:311,1,80,4|2,0:0|0:0,0:0:0:0:
440,380,37306,2,0,L|280:372,1,160,4|4,0:0|0:0,0:0:0:0:
200,368,37779,1,2,0:0:0:0:
244,300,37937,6,0,P|184:288|120:364,2,160,4|4|4,0:2|0:0|0:0,0:0:0:0:
320,276,38727,1,0,0:0:0:0:
396,252,38885,2,0,L|475:255,1,80,4|0,0:0|0:0,0:0:0:0:
460,176,39200,6,0,L|380:172,1,80,4|2,0:0|0:0,0:0:0:0:
304,196,39516,2,0,L|224:192,1,80,2|2,0:0|0:0,0:0:0:0:
157,148,39832,2,0,P|142:184|149:223,2,80,6|2|10,0:0|0:0|0:0,0:0:0:0:
272,36,40464,38,0,L|352:40,1,80,4|2,0:2|0:0,0:0:0:0:
416,88,40779,2,0,P|431:124|424:163,1,80,4|2,0:0|0:0,0:0:0:0:
357,208,41095,2,0,P|342:172|349:133,2,80,4|2|4,0:0|0:0|0:0,0:0:0:0:
404,272,41569,1,2,0:0:0:0:
344,324,41727,38,0,P|305:331|268:316,2,80,4|2|4,0:2|0:0|0:0,0:0:0:0:
404,272,42200,1,2,0:0:0:0:
357,208,42358,2,0,L|197:216,1,160,4|4,0:0|0:0,0:0:0:0:
117,220,42832,1,2,0:0:0:0:
67,282,42990,6,0,P|38:211|82:148,2,160,4|4|4,0:2|0:0|0:0,0:0:0:0:
224,252,43937,6,0,L|220:172,1,80,4|10,0:0|0:0,0:0:0:0:
256,100,44253,1,4,0:0:0:0:
256,192,44332,12,8,45200,0:0:0:0:
160,340,45516,6,0,P|121:347|84:332,2,80,0|0|2,1:2|0:0|1:2,0:0:0:0:
129,266,45990,2,0,L|133:186,2,80,0|0|2,0:0|1:0|0:0,0:0:0:0:
207,272,46464,2,0,L|211:192,1,80,0|2,1:0|0:0,0:0:0:0:
176,119,46779,6,0,P|139:104|101:112,2,80,2|0|0,1:2|0:0|1:2,0:0:0:0:
211,192,47253,1,2,0:0:0:0:
280,232,47411,2,0,P|318:239|355:224,1,80,0|2,1:0|0:0,0:0:0:0:
387,150,47727,2,0,P|348:142|311:157,1,80,2|0,1:2|0:0,0:0:0:0:
256,100,48043,6,0,P|376:64|500:192,1,320,2|2,1:2|1:2,0:0:0:0:
400,316,48990,1,0,1:0:0:0:
400,316,49148,2,0,P|327:346|249:334,1,160,0|2,0:0|0:0,0:0:0:0:
180,296,49621,6,0,L|188:136,1,160,2|2,1:2|1:2,0:0:0:0:
268,128,50095,2,0,L|264:208,1,80,0|2,0:0|1:2,0:0:0:0:
352,340,50568,6,0,P|391:347|428:332,2,80,0|0|2,1:2|0:0|1:2,0:0:0:0:
383,266,51042,2,0,L|379:186,2,80,0|0|2,0:0|1:0|0:0,0:0:0:0:
305,272,51515,2,0,L|301:192,1,80,0|2,1:0|0:0,0:0:0:0:
336,119,51831,6,0,P|373:104|411:112,2,80,2|0|0,1:2|0:0|1:2,0:0:0:0:
301,192,52305,1,2,0:0:0:0:
232,232,52463,2,0,P|194:239|157:224,1,80,0|2,1:0|0:0,0:0:0:0:
125,150,52778,2,0,P|164:142|201:157,1,80,2|0,1:2|0:0,0:0:0:0:
256,100,53094,6,0,P|136:64|12:192,1,320,2|2,1:2|1:2,0:0:0:0:
112,316,54042,1,0,1:0:0:0:
112,316,54199,2,0,P|185:346|263:334,1,160,0|2,0:0|0:0,0:0:0:0:
332,296,54674,6,0,L|324:136,1,160,2|2,1:2|1:2,0:0:0:0:
244,128,55148,2,0,L|248:208,2,80,0|2|0,0:0|1:2|0:0,0:0:0:0:
292,64,55621,6,0,P|216:52|164:128,1,160,4|0,0:0|0:0,0:0:0:0:
244,128,56095,2,0,L|56:84,1,160,4|0,0:3|0:0,0:0:0:0:
36,32,56569,2,0,P|-8:141|8:258,1,240,2|0,0:0|0:0,0:0:0:0:
56,324,57200,2,0,P|132:312|184:388,1,160,4|0,0:3|1:0,0:0:0:0:
380,232,57990,5,0,0:0:0:0:
332,296,58148,2,0,P|408:308|460:232,1,160,2|0,0:0|0:0,0:0:0:0:
464,172,58621,2,0,L|456:12,1,160,4|0,0:3|0:0,0:0:0:0:
380,40,59095,2,0,L|385:157,1,80,4|4,0:3|0:3,0:0:0:0:
328,176,59411,2,0,P|208:212|84:84,1,320,4|0,0:0|1:0,0:0:0:0:
0,336,60516,5,0,0:0:0:0:
64,288,60674,2,0,P|142:275|215:305,1,160,4|0,0:0|1:0,0:0:0:0:
272,360,61148,2,0,L|432:352,1,160,4|0,0:3|0:0,0:0:0:0:
504,384,61621,2,0,P|512:345|497:308,1,80,4|4,0:3|0:3,0:0:0:0:
436,256,61937,6,0,L|444:96,2,160,4|0|8,0:0|0:0|0:3,0:0:0:0:
360,228,62727,2,0,L|243:233,1,80,4|4,0:3|0:3,0:0:0:0:
232,384,63200,6,0,B|290:344|283:258|217:216|155:240|155:240|93:264|27:222|20:136|78:96,1,480,4|0,0:0|1:0,0:0:0:0:
148,60,64306,1,2,0:0:0:0:
224,32,64464,6,0,P|408:88|384:336,1,480,0|0,0:0|1:0,0:0:0:0:
316,372,65569,1,2,0:0:0:0:
240,344,65727,6,0,L|80:352,2,160,4|2|2,1:2|1:2|1:2,0:0:0:0:
304,296,66516,1,0,0:0:0:0:
248,240,66674,2,0,L|253:123,1,80,2|0,1:2|0:0,0:0:0:0:
204,96,66990,6,0,P|251:160|236:40,1,320,2|4,0:0|0:0,0:0:0:0:
40,176,68253,6,0,L|45:293,1,80,4|0,1:0|0:0,0:0:0:0:
120,240,68569,2,0,L|206:319,1,80,2|0,1:2|0:0,0:0:0:0:
221,228,68885,2,0,L|381:221,1,160,0|2,1:0|1:2,0:0:0:0:
460,216,69358,5,0,0:0:0:0:
416,148,69516,1,0,1:2:0:0:
478,96,69674,2,0,P|406:66|343:110,1,160,2|2,0:0|0:0,0:0:0:0:
324,188,70148,1,0,1:0:0:0:
324,188,70306,2,0,L|329:305,2,80,2|0|2,0:0|1:0|0:0,0:0:0:0:
268,132,70779,5,4,1:2:0:0:
216,192,70937,1,0,0:0:0:0:
142,161,71095,1,2,1:2:0:0:
149,81,71253,1,0,0:0:0:0:
228,65,71411,1,0,1:2:0:0:
268,132,71569,2,0,L|385:127,1,80,0|2,0:0|1:2,0:0:0:0:
400,68,71885,2,0,P|444:177|428:294,1,240,4|2,0:0|0:0,0:0:0:0:
384,364,72516,22,0,L|304:360,1,80,0|0,0:0|1:0,0:0:0:0:
240,312,72832,2,0,L|160:315,1,80,2|0,0:0|1:0,0:0:0:0:
92,356,73148,2,0,P|122:284|78:221,1,160,2|2,0:0|0:0,0:0:0:0:
32,156,73621,2,0,P|24:117|39:80,1,80,0|2,1:2|0:0,0:0:0:0:
92,20,73937,5,0,1:0:0:0:
152,74,74095,1,2,0:0:0:0:
230,90,74253,1,2,1:2:0:0:
305,64,74411,2,0,P|377:34|440:78,1,160,2|0,0:0|0:0,0:0:0:0:
460,152,74885,2,0,L|457:232,1,80,2|0,1:2|0:0,0:0:0:0:
408,296,75200,2,0,L|411:376,2,80,0|2|2,1:2|0:0|1:2,0:0:0:0:
300,176,75832,6,0,P|236:218|165:188,1,160,2|0,1:2|1:0,0:0:0:0:
229,140,76306,2,0,L|226:60,1,80,2|0,0:2|1:0,0:0:0:0:
305,64,76621,2,0,P|377:34|440:78,1,160,2|4,0:0|0:0,0:0:0:0:
476,248,77885,5,0,0:0:0:0:
408,204,78042,1,2,0:0:0:0:
480,168,78199,1,0,0:0:0:0:
476,248,78358,6,0,L|471:365,1,80,4|0,1:0|0:0,0:0:0:0:
396,312,78674,2,0,L|310:391,1,80,2|0,1:2|0:0,0:0:0:0:
295,300,78990,2,0,L|135:293,1,160,0|2,1:0|1:2,0:0:0:0:
56,288,79463,5,0,0:0:0:0:
100,220,79621,1,0,1:2:0:0:
38,168,79779,2,0,P|110:138|173:182,2,160,2|0|2,0:0|1:0|0:0,0:0:0:0:
92,108,80569,2,0,L|87:-9,1,80,0|2,1:0|0:0,0:0:0:0:
168,44,80885,6,0,P|231:1|302:31,1,160,0|2,1:0|1:2,0:0:0:0:
348,96,81358,2,0,L|343:213,1,80,0|0,0:0|1:0,0:0:0:0:
292,236,81674,2,0,L|297:353,1,80,0|0,0:0|1:0,0:0:0:0:
352,372,81990,2,0,P|243:328|126:344,1,240,4|2,0:0|0:0,0:0:0:0:
56,384,82621,22,0,P|52:312|144:268,1,160
196,252,83095,1,0,1:0:0:0:
248,312,83253,2,0,P|320:342|383:298,1,160,2|0,0:0|0:0,0:0:0:0:
412,224,83727,2,0,L|408:144,1,80,0|2,1:0|0:0,0:0:0:0:
420,64,84043,5,0,1:0:0:0:
348,92,84200,1,2,0:0:0:0:
271,80,84358,1,2,1:2:0:0:
211,32,84516,2,0,P|139:2|76:46,1,160,2|0,0:0|0:0,0:0:0:0:
52,120,84990,2,0,L|56:200,1,80,0|2,1:0|0:0,0:0:0:0:
104,264,85306,6,0,L|101:344,2,80,0|2|2,1:2|0:0|1:2,0:0:0:0:
140,192,85779,2,0,P|212:162|275:206,1,160,2|0,0:0|0:0,0:0:0:0:
203,247,86253,6,0,B|257:242|257:242|305:259|305:259|359:254,2,160,2|2|2,1:2|0:0|0:0,0:0:0:0:
124,260,87043,1,0,0:2:0:0:
408,316,87674,22,0,P|438:244|394:181,1,160,2|2,0:0|0:0,0:0:0:0:
359,253,88148,1,2,1:2:0:0:
359,254,88306,2,0,B|305:259|305:259|257:242|257:242|203:247,1,160,2|0,0:2|0:0,0:0:0:0:
144,300,88779,2,0,P|105:308|68:293,1,80,2|0,1:2|0:0,0:0:0:0:
1,249,89095,5,0,1:0:0:0:
45,182,89253,1,2,0:0:0:0:
112,226,89411,1,2,1:2:0:0:
68,293,89569,1,2,0:0:0:0:
301,325,90043,5,0,1:0:0:0:
280,250,90200,1,2,0:0:0:0:
299,174,90358,1,0,1:0:0:0:
354,119,90516,2,0,L|434:123,1,80,2|2,0:0|1:2,0:0:0:0:
484,60,90832,2,0,P|516:112|440:200,1,160,2|4,0:0|0:0,0:0:0:0:
256,192,91227,12,4,92885,0:3:0:0:
152,68,93516,6,0,L|72:60,2,80,4|0|2,1:2|0:0|1:2,0:0:0:0:
216,116,93989,1,0,0:0:0:0:
244,44,94147,2,0,P|281:29|320:36,1,80,2|0,1:2|0:0,0:0:0:0:
388,76,94463,2,0,L|468:68,1,80,2|0,1:2|0:0,0:0:0:0:
500,144,94779,22,0,L|340:160,1,160,2|2,1:2|1:2,0:0:0:0:
272,120,95253,1,0,0:0:0:0:
272,120,95411,2,0,B|295:165|295:165|285:274,1,160,2|2,1:0|1:2,0:0:0:0:
149,358,96042,22,0,L|69:366,2,80,4|0|2,1:2|0:0|1:2,0:0:0:0:
217,318,96516,1,0,0:0:0:0:
150,273,96674,2,0,P|218:237|285:274,2,160,2|2|2,1:2|1:2|1:2,0:0:0:0:
197,111,97621,6,0,P|234:126|273:119,1,80,2|0,1:2|0:0,0:0:0:0:
242,45,97937,2,0,P|164:31|91:61,1,160,2|2,1:2|1:2,0:0:0:0:
124,216,98568,38,0,L|204:224,2,80,4|0|2,1:2|0:0|1:2,0:0:0:0:
48,240,99042,1,0,0:0:0:0:
106,295,99200,2,0,B|215:305|215:305|260:282,2,160,2|2|2,1:2|1:2|1:2,0:0:0:0:
48,240,99989,1,0,0:0:0:0:
124,216,100147,22,0,L|116:136,1,80,2|0,1:2|0:0,0:0:0:0:
56,83,100463,2,0,B|101:60|101:60|210:70,1,160,2|0,1:0|1:0,0:0:0:0:
363,134,101095,5,2,0:0:0:0:
363,134,101174,1,0,0:0:0:0:
363,134,101253,2,0,L|371:214,2,80,2|0|2,0:0|1:0|0:0,0:0:0:0:
423,82,101727,1,2,0:0:0:0:
351,54,101885,1,0,0:0:0:0:
287,102,102042,2,0,P|273:138|280:177,1,80,0|2,1:0|0:0,0:0:0:0:
256,192,102358,12,0,103306,0:0:0:0:
94,225,103621,5,4,0:0:0:0:
89,302,103779,1,0,0:0:0:0:
161,330,103937,1,0,0:0:0:0:
209,270,104095,1,8,0:0:0:0:
169,206,104253,2,0,P|228:196|279:294,1,160,2|0,0:0|0:0,0:0:0:0:
304,344,104727,2,0,P|303:264|345:199,1,160,2|4,0:2|0:0,0:0:0:0:
420,228,105200,2,0,P|427:189|412:153,1,80,8|4,0:0|0:0,0:0:0:0:
360,92,105516,5,2,0:2:0:0:
294,132,105674,1,8,0:0:0:0:
294,132,105753,1,4,0:0:0:0:
294,132,105832,1,4,0:0:0:0:
216,100,105990,5,4,0:2:0:0:
256,192,106069,12,0,109937,0:0:0:0:
