osu file format v5

[General]
AudioFilename: Asshole Mastered.mp3
AudioLeadIn: 0
PreviewTime: -1
Countdown: 1
SampleSet: Normal
StackLeniency: 0.7
Mode: 0
LetterboxInBreaks: 1

[Metadata]
Title:Asshole!
Artist:Evil-Dog
Creator:nobodyhere
Version:Easy Combo
Source:
Tags:

[Difficulty]
HPDrainRate:4
CircleSize:4
OverallDifficulty:3
SliderMultiplier:1.4
SliderTickRate:1

[Events]
//Background and Video events
0,0,"306450348_c483940518.jpg"
//Break Periods
2,33524,35078
2,63042,70693
//Storyboard Layer 0 (Background)
//Storyboard Layer 1 (Failing)
//Storyboard Layer 2 (Passing)
//Storyboard Layer 3 (Foreground)
//Storyboard Sound Samples
//Background Colour Transformations
3,100,163,162,255

[TimingPoints]
1000,387.121749790309,4,1,0,100,1

[Colours]
Combo1 : 17,126,14
Combo2 : 167,130,88
Combo3 : 159,39,205
Combo4 : 165,3,3

[HitObjects]
128,128,5548,5,0
224,128,6226,5,0
320,128,7000,5,0
416,128,7774,5,0
416,224,8548,5,0
320,224,9323,5,0
224,224,10097,5,0
128,224,10871,5,0
128,128,11645,5,0
224,128,12420,5,0
320,128,13194,5,0
416,128,13968,5,0
416,224,14742,5,0
320,224,15517,5,0
224,224,16291,5,0
128,224,17065,5,0
64,160,17839,5,0
64,64,18614,5,0
160,96,19388,5,0
256,96,20162,5,0
256,192,20646,12,0,23356
128,192,24130,5,0
160,192,24904,2,8,B|416:192,1,245
384,192,27227,1,0
384,160,28001,2,8,B|256:64|128:128,1,245
128,128,29259,5,2
128,160,29453,1,2
128,192,29647,1,2
128,256,30130,2,8,B|224:256,1,70,4|8
256,192,30905,12,0,33324
96,160,36518,5,0
128,160,36711,1,0
224,160,37292,1,0
320,160,37970,1,0
416,160,38744,1,2
416,160,39615,5,2
384,160,39808,5,2
288,160,40389,5,2
256,160,40583,5,2
160,160,41163,5,2
128,160,41357,5,2
64,160,41938,6,0,B|416:160,1,315
352,160,43486,1,2
384,160,43680,1,2
416,160,43873,1,2
448,160,44067,1,2
416,96,45809,5,2
384,96,46002,1,2
320,96,46486,1,8
256,96,46777,1,8
416,160,47357,1,2
384,160,47551,1,2
320,160,48035,1,8
256,160,48325,1,8
416,224,48906,1,2
384,224,49100,1,2
320,224,49584,1,8
256,224,49874,1,8
256,192,50551,12,0,51422
96,96,52003,5,2
128,96,52196,1,2
192,96,52680,1,8
256,96,52971,1,8
96,160,53551,1,2
128,160,53745,1,2
192,160,54229,1,8
256,160,54519,1,8
96,224,55100,1,2
128,224,55294,1,2
192,224,55778,1,8
256,224,56068,1,8
256,192,56842,12,8,58003
256,192,58294,5,0
256,192,58584,1,0
256,192,58874,1,0
256,192,59165,1,0
256,192,59455,1,0
256,192,59745,2,0,B|256:128,14,35
128,160,61681,2,0,B|288:160,1,140
268,160,62455,2,8,B|96:160,1,140
128,96,72133,6,0,B|352:96,1,210
338,96,72811,2,0,B|352:224,1,105
320,224,73391,1,8
288,224,73682,2,0,B|160:224,4,105
256,192,75327,12,4,77456
96,128,78327,5,0
192,128,79005,1,0
288,128,79779,1,0
384,128,80553,1,0
448,192,81327,1,0
384,256,82102,1,0
288,256,82876,2,2,B|288:192,11,35
96,128,84521,2,4,B|544:128,1,420
512,128,86070,2,0,B|64:128,1,420
96,128,87521,2,4,B|224:32|160:320|448:128|384:352|384:352|512:224|416:192,1,595
416,160,89360,1,4
352,96,89747,1,4
320,64,89941,1,4
256,192,90618,12,0,95360
256,192,96909,12,4,101554
64,224,103103,6,0,B|320:128|352:128|384:224,1,350
416,256,104361,1,8
416,256,104555,1,8
416,256,105909,2,0,B|192:32|64:288,1,420
128,288,107361,2,8,B|224:288,2,70
128,288,108232,2,8,B|128:192,2,70
128,288,109103,2,0,B|256:256|384:320|0:0,2,490
96,288,112200,1,2
96,288,112394,1,2
256,192,112878,12,14,114523
96,128,115491,5,0
224,128,116265,1,0
352,128,117038,1,0
448,128,117813,1,0
448,224,118491,1,0
352,224,119265,1,0
256,224,120039,1,0
160,224,120814,1,0
160,192,121685,2,0,B|160:320|160:352,1,140
160,288,122459,1,8
224,192,123136,2,0,B|224:320|224:352,1,140
224,288,123910,1,8
288,192,124588,2,0,B|288:320|288:352,1,140
288,288,125362,1,4
256,192,126137,12,6,127782
256,192,127975,5,4
256,192,128653,12,6,129427
256,192,129621,5,4
256,192,130298,12,2,131072
256,192,131266,5,4
256,192,131750,12,4,132040
256,192,132427,12,8,134073
256,192,134266,5,8
224,192,134557,1,8
192,192,134750,1,8
128,192,135040,1,8
64,192,135331,1,8
32,192,135524,1,4
