osu file format v8

[General]
AudioFilename: Evil Activities - Never Fall Asleep.mp3
AudioLeadIn: 3000
PreviewTime: 147116
Countdown: 0
SampleSet: Normal
StackLeniency: 0.7
Mode: 0
LetterboxInBreaks: 0
SkinPreference:Default
EpilepsyWarning: 1

[Editor]
DistanceSpacing: 0.8
BeatDivisor: 4
GridSize: 8

[Metadata]
Title:Never Fall Asleep
Artist:Evil Activities & DJ Panic ft MC Alee
Creator:adron zhero
Version:Normal+
Source:
Tags:Evilution Hardstyle Hardcore

[Difficulty]
HPDrainRate:4
CircleSize:4
OverallDifficulty:4
ApproachRate:4
SliderMultiplier:1.5
SliderTickRate:1

[Events]
//Background and Video events
0,0,"never.jpg"
//Break Periods
2,12149,21912
2,34737,44500
2,82737,92500
2,124736,126383
//Storyboard Layer 0 (Background)
//Storyboard Layer 1 (Fail)
//Storyboard Layer 2 (Pass)
//Storyboard Layer 3 (Foreground)
//Storyboard Sound Samples
//Background Colour Transformations
3,100,163,162,255

[TimingPoints]
655,352.941938937585,4,1,0,69,1,0
14762,352.941938937585,4,1,0,69,1,0
67700,-200,4,1,0,0,0,0
82706,-100,4,1,0,70,0,0
93620,-100,4,1,0,20,0,0
104910,-100,4,1,0,71,0,0
105262,-100,4,2,0,71,0,0
105615,-100,4,1,0,71,0,0
105968,-100,4,2,0,71,0,0
106321,-100,4,1,0,71,0,0
106674,-100,4,2,0,71,0,0
107027,-100,4,1,0,71,0,0
107379,-100,4,2,0,71,0,0
107746,-100,4,1,0,71,0,0
108099,-100,4,2,0,71,0,0
108452,-100,4,1,0,71,0,0
108805,-100,4,2,0,71,0,0
109157,-100,4,1,0,71,0,0
109510,-100,4,2,0,71,0,0
109863,-100,4,1,0,71,0,0
110216,-100,4,2,0,71,0,0
110569,-100,4,1,0,71,0,0
110922,-100,4,2,0,71,0,0
111274,-100,4,1,0,71,0,0
111627,-100,4,2,0,71,0,0
111980,-100,4,1,0,71,0,0
112333,-100,4,2,0,71,0,0
112686,-100,4,1,0,71,0,0
113038,-100,4,2,0,71,0,0
113391,-100,4,1,0,71,0,0
113744,-100,4,2,0,71,0,0
114097,-100,4,1,0,71,0,0
114450,-100,4,2,0,71,0,0
114803,-100,4,1,0,71,0,0
115155,-100,4,2,0,71,0,0
115508,-100,4,1,0,71,0,0
115861,-100,4,2,0,71,0,0
116214,-100,4,1,0,71,0,0
116567,-100,4,2,0,71,0,0
116919,-100,4,1,0,71,0,0
117272,-100,4,2,0,71,0,0
117625,-100,4,1,0,71,0,0
117978,-100,4,2,0,71,0,0
118331,-100,4,1,0,71,0,0
118683,-100,4,2,0,71,0,0
119036,-100,4,1,0,71,0,0
119389,-100,4,2,0,71,0,0
119742,-100,4,1,0,71,0,0
120095,-100,4,2,0,71,0,0
120448,-100,4,1,0,71,0,0
120800,-100,4,2,0,71,0,0
121153,-100,4,1,0,71,0,0
121506,-100,4,2,0,71,0,0
121859,-100,4,1,0,71,0,0
122212,-100,4,2,0,71,0,0
122564,-100,4,1,0,71,0,0
122917,-100,4,2,0,71,0,0
123270,-100,4,1,0,71,0,0
123623,-100,4,2,0,71,0,0
123976,-100,4,1,0,71,0,0
124329,-100,4,2,0,71,0,0
124681,-100,4,1,0,80,0,0

[Colours]
Combo1 : 99,97,120
Combo2 : 232,232,232
SliderBorder : 60,60,60

[HitObjects]
104,112,655,1,0
40,216,1007,1,0
160,200,1360,2,0,B|96:264|168:344,1,150
248,256,2066,2,0,B|296:320|392:320,2,150
224,136,3125,1,0
144,48,3478,6,0,B|64:72|32:144,1,150
152,160,4184,1,0
72,256,4537,1,0
192,232,4890,2,0,B|248:320|152:360,2,150
200,112,5949,1,0
256,112,6125,1,0
312,112,6302,5,0
320,232,6655,2,0,B|264:320|360:360,2,150
440,256,7713,1,0
368,160,8066,1,0
488,144,8419,2,0,B|440:80|352:40,1,150
288,136,9125,5,0
264,256,9478,2,0,B|216:320|120:320,2,150
160,200,10537,2,0,B|96:184|72:256,2,100
192,128,11243,1,0
432,112,11949,1,0
72,248,23232,6,0,B|152:264|184:352,1,150
192,224,23938,1,0
88,160,24291,1,0
96,40,24644,2,0,B|184:56|216:136,1,150
128,216,25350,1,0
192,320,25703,1,0
312,320,26056,5,0
368,216,26409,1,0
296,120,26762,2,0,B|336:56|448:32,1,150
432,160,27467,1,0
328,224,27820,1,0
448,256,28173,2,0,B|360:272|320:360,1,150
272,344,28703,1,0
208,344,28879,5,0
144,240,29232,2,0,B|128:288|72:304|40:264|48:208,2,150
96,128,30291,2,0,B|48:104|32:48|80:16|136:32|136:24,2,150
192,200,31350,1,0
312,200,31703,5,0
416,128,32056,2,0,B|464:104|480:48|432:16|376:32|376:24,2,150
368,240,33114,2,0,B|384:288|440:304|472:264|464:208,2,150
256,192,34173,1,0
256,192,34526,1,0
88,320,45820,5,0
144,304,45997,1,0
216,208,46350,1,0
160,184,46526,1,0
152,128,46703,2,0,B|128:96|168:56,2,75
256,72,47409,5,0
360,128,47762,2,0,B|384:96|344:56,2,75
352,184,48291,1,0
296,208,48467,1,0
208,128,48820,5,0
104,184,49173,2,0,B|48:184|32:224,1,75
48,272,49526,2,0,B|40:312|88:344,1,75
136,352,49879,1,0
256,336,50232,5,0
376,352,50585,1,0
432,328,50762,2,0,B|472:296|480:256,1,75
440,216,51115,2,0,B|416:184|368:184,1,75
256,160,51644,6,0,B|304:88|392:64,1,150
360,128,52173,1,0
400,176,52350,1,0
376,232,52526,1,0
320,264,52703,1,0
256,160,53056,6,0,B|216:80|128:64,1,150
152,128,53585,1,0
120,176,53762,1,0
144,232,53938,1,0
192,264,54115,1,0
104,352,54467,5,0
224,360,54820,1,0
288,360,54997,1,0
256,312,55173,1,0
256,248,55350,1,0
256,248,55526,1,0
256,248,55703,6,0,B|304:184|208:136|280:80,1,150
256,104,56409,1,0
192,208,56762,1,0
312,208,57115,1,0
136,304,58526,6,0,B|96:272|96:232,1,75
376,304,59938,6,0,B|416:272|416:232,1,75
256,32,61350,6,0,B|224:56|224:104,1,75
280,88,61703,2,0,B|304:120|312:160,1,75
248,160,62056,2,0,B|224:200|232:248,1,75
288,216,62409,2,0,B|320:248|320:288,1,75
256,288,62762,6,0,B|232:320|232:376,1,75
112,72,64173,6,0,B|80:104|80:152,1,75
400,72,65585,6,0,B|432:104|432:152,1,75
256,280,66997,5,0
256,192,68409,12,0,74056
256,192,74144,12,0,78291
256,192,78379,12,0,82526
256,192,93820,5,0
40,192,95232,1,0
480,192,96644,5,0
256,40,98056,1,0
256,344,99468,5,0
192,240,100879,1,0
320,240,102291,5,0
256,128,103703,1,0
256,192,105115,5,0
136,168,105468,2,0,B|32:152|48:48,2,150,2|0|2
56,256,106526,5,0
176,240,106879,2,0,B|168:344|64:352,2,150,2|0|2
264,312,107938,5,0
336,240,108291,2,0,B|344:344|448:352,2,150,2|0|2
456,256,109350,5,0
376,168,109703,2,0,B|480:152|464:48,2,150,2|0|2
320,64,110762,5,0
320,64,111115,1,2
424,128,111468,1,0
320,64,111821,1,2
200,64,112173,5,0
200,64,112526,1,2
96,128,112879,1,0
200,64,113232,1,2
200,184,113585,5,0
256,288,113938,1,2
144,336,114291,1,0
256,288,114644,1,2
256,288,114997,5,0
368,336,115350,1,2
256,288,115703,1,0
320,184,116056,1,2
208,152,116409,6,0,B|120:104|56:184,1,150,0|2
168,240,117115,2,0,B|160:320|272:352,1,150,0|2
254,346,117821,6,0,B|360:304|352:224,1,150,0|2
448,168,118526,2,0,B|360:120|288:160,1,150,0|2
224,64,119232,5,0
184,176,119585,1,2
184,176,119938,1,0
256,272,120291,1,2
256,272,120644,5,0
328,176,120997,1,2
328,176,121350,1,0
296,64,121703,1,2
200,136,122056,6,0,B|192:240|88:208,2,150,0|2|0
200,136,123115,1,2
320,136,123468,5,0
320,136,123821,2,0,B|328:240|432:208,2,150,2|0|2
456,280,127703,6,0,B|352:256|336:368,2,150
360,208,128762,1,0
368,88,129115,2,0,B|472:136|488:16,2,150
256,136,130174,1,0
256,256,130526,5,0
144,296,130879,2,0,B|40:248|24:368,2,150
152,176,131938,1,0
56,104,132291,2,0,B|160:128|176:16,2,150
80,224,133350,5,0
192,176,133703,1,0
176,296,134056,1,0
192,176,134409,1,0
312,176,134762,1,0
424,224,135115,1,0
312,176,135468,1,0
336,296,135821,1,0
256,320,136174,5,0
256,320,136526,1,0
256,200,136879,2,0,B|168:232|128:328,1,150
256,320,137585,1,0
256,320,137938,1,0
256,200,138291,2,0,B|344:232|384:328,1,150
472,232,138997,5,0
360,192,139350,1,0
368,72,139703,1,0
256,112,140056,1,0
256,112,140409,1,0
144,72,140762,1,0
176,192,141115,1,0
64,232,141468,1,0
184,256,141821,6,0,B|160:344|56:328,2,150
184,256,142879,2,0,B|264:296|336:248,1,150
328,256,143585,2,0,B|352:344|456:328,2,150
376,144,144644,5,0
256,144,144997,1,0
320,40,145350,2,0,B|248:-8|160:48,1,150
256,144,146056,1,0
136,144,146409,1,0
256,144,146762,1,0
256,192,147468,12,0,150291
184,64,150997,5,0
136,104,151350,1,0
96,144,151703,1,0
320,64,152409,1,0
368,104,152762,1,0
416,144,153115,1,0
328,320,153821,5,0
376,280,154174,1,0
416,240,154527,1,0
192,320,155232,1,0
144,280,155585,1,0
96,240,155938,1,0
256,64,156644,6,0,B|256:144|184:200,2,150
256,64,158056,2,0,B|256:144|328:200,2,150
256,304,159468,6,0,B|256:224|328:168,2,150
256,304,160879,2,0,B|256:224|184:168,2,150
376,320,161938,5,0
480,256,162291,1,0
360,264,162644,1,0
432,168,162997,2,0,B|504:96|416:32,2,150
312,136,164056,1,0
192,136,164409,5,0
72,168,164762,2,0,B|0:96|88:32,2,150
144,264,165821,1,0
32,256,166174,1,0
136,320,166527,1,0
256,304,166879,1,0
256,304,167056,1,0
256,304,167232,5,0
168,224,167585,2,0,B|136:128|56:112,1,150
192,96,168291,2,0,B|120:40|40:40,1,150
55,40,168997,1,0
136,128,169350,2,0,B|176:192|272:216,1,150
256,211,170056,6,0,B|344:184|392:120,1,150
464,40,170762,1,0
464,40,171115,2,0,B|368:48|304:128,1,150
448,120,171821,2,0,B|376:152|328:248,1,150
256,304,172527,1,0
200,200,172879,5,0
96,256,173232,1,0
32,352,173585,1,0
96,256,173938,1,0
96,136,174291,1,0
32,32,174644,1,0
96,136,174997,1,0
200,200,175350,1,0
320,200,175703,5,0
424,136,176056,1,0
488,32,176409,1,0
424,136,176762,1,0
424,256,177115,1,0
496,352,177468,1,0
424,256,177821,1,0
320,200,178174,1,0
256,104,178527,6,0,B|344:104|400:32,1,150
472,128,179232,1,0
360,168,179585,1,0
256,232,179938,1,0
152,168,180291,1,0
40,128,180644,1,0
128,40,180997,2,0,B|168:104|272:104,1,150
288,224,181703,5,0
400,176,182056,2,0,B|480:240|400:312,2,150
280,160,183115,1,0
328,48,183468,2,0,B|248:0|160:64,1,150
232,160,184174,1,0
112,176,184527,6,0,B|32:240|112:312,2,150
224,224,185585,1,0
192,336,185938,2,0,B|240:368|264:280|336:344,3,150
256,248,187350,6,0,B|160:248|144:328,2,150
256,248,188409,2,0,B|352:248|368:328,2,150
256,128,189468,1,0
256,248,189821,5,0
24,192,190527,1,0
256,248,191232,1,0
488,192,191938,1,0
256,128,192644,5,0
24,192,193350,1,0
256,128,194056,1,0
488,192,194762,1,0
256,192,195468,5,4
