osu file format v12

[General]
AudioFilename: 10 Grip! (TV-Size).mp3
AudioLeadIn: 0
PreviewTime: 57668
Countdown: 0
SampleSet: Soft
StackLeniency: 0.9
Mode: 0
LetterboxInBreaks: 0

[Editor]
Bookmarks: 23668,39668,119668
DistanceSpacing: 1.5
BeatDivisor: 4
GridSize: 8

[Metadata]
Title:Grip! (TV Size)
TitleUnicode:Grip! (TV Size)
Artist:Every Little Thing
ArtistUnicode:Every Little Thing
Creator:S o r d a
Version:yuca
Source:InuYasha
Tags:犬夜叉 yuca holysoup sorda opening
BeatmapID:251646
BeatmapSetID:93223

[Difficulty]
HPDrainRate:6
CircleSize:4
OverallDifficulty:6
ApproachRate:7
SliderMultiplier:1.4
SliderTickRate:1

[Events]
//Background and Video events
0,0,"BG.jpg",0,0
//Break Periods
//Storyboard Layer 0 (Background)
//Storyboard Layer 1 (Fail)
//Storyboard Layer 2 (Pass)
//Storyboard Layer 3 (Foreground)
//Storyboard Sound Samples
//Background Colour Transformations
3,100,163,162,255

[TimingPoints]
3668,500,4,2,1,70,1,0
23543,-100,4,2,1,70,0,0
57668,-100,4,2,1,80,0,1
73168,-100,4,2,1,80,0,0
73668,-100,4,2,1,80,0,1
93168,-100,4,2,1,80,0,0
113543,-100,4,2,1,10,0,0
118168,-100,4,2,1,5,0,0

[Colours]
Combo1 : 175,192,184
Combo2 : 68,0,136
Combo3 : 135,46,99
Combo4 : 73,82,116

[HitObjects]
256,344,3668,5,4,0:0:0:0:
40,192,4168,1,4,0:0:0:0:
256,40,4668,1,4,0:0:0:0:
256,40,5668,5,4,0:0:0:0:
472,192,6168,1,4,0:0:0:0:
256,344,6668,1,4,0:0:0:0:
256,344,7418,5,0,0:0:0:0:
256,344,7668,2,0,L|144:344,2,105,4|0|0,0:0|0:0|0:0,0:0:0:0:
256,136,8918,1,0,0:0:0:0:
192,80,9168,1,8,0:0:0:0:
256,24,9418,1,0,0:0:0:0:
320,80,9668,2,0,L|448:80,1,105,0|8,0:0|0:0,0:0:0:0:
472,192,10418,1,8,0:0:0:0:
392,192,10668,2,0,L|248:192,1,140,0|0,0:0|0:0,0:0:0:0:
24,192,11668,5,4,0:0:0:0:
256,48,12168,1,4,0:0:0:0:
480,192,12668,1,4,0:0:0:0:
480,192,13668,5,4,0:0:0:0:
256,344,14168,1,4,0:0:0:0:
24,192,14668,1,4,0:0:0:0:
24,192,15418,5,0,0:0:0:0:
24,192,15668,2,0,L|24:296,2,105,4|0|0,0:0|0:0|0:0,0:0:0:0:
256,272,16918,1,0,0:0:0:0:
192,216,17168,1,8,0:0:0:0:
256,160,17418,1,0,0:0:0:0:
320,216,17668,2,0,L|424:216,1,105,0|8,0:0|0:0,0:0:0:0:
464,96,18418,1,8,0:0:0:0:
384,96,18668,2,0,L|232:96,1,140,0|8,0:0|0:0,0:0:0:0:
244,96,19418,1,0,0:0:0:0:
244,96,19668,5,2,0:0:0:0:
120,96,20043,2,0,P|104:152|128:208,1,105,2|2,0:0|0:0,0:0:0:0:
248,192,20793,1,10,0:0:0:0:
288,192,20918,2,0,L|368:192,1,70,0|10,0:0|0:0,0:0:0:0:
440,192,21418,1,0,0:0:0:0:
440,192,21668,1,2,0:0:0:0:
400,312,22043,1,2,0:0:0:0:
272,312,22418,2,0,L|152:312,1,105,2|8,0:0|0:0,0:0:0:0:
167,312,22918,1,0,0:0:0:0:
80,312,23168,2,0,P|56:240|80:168,1,140,10|4,0:0|0:0,0:0:0:0:
104,56,24043,5,0,0:0:0:0:
224,96,24418,1,0,0:0:0:0:
344,64,24793,1,0,0:0:0:0:
472,88,25168,2,0,L|496:176,1,70,8|0,0:0|0:0,0:0:0:0:
504,240,25668,1,0,0:0:0:0:
384,280,26043,1,0,0:0:0:0:
264,248,26418,1,0,0:0:0:0:
144,280,26793,1,8,0:0:0:0:
144,280,26918,2,0,L|128:208,1,70,0|8,0:0|0:0,0:0:0:0:
48,224,27418,6,0,L|32:144,1,70
16,32,28043,1,0,0:0:0:0:
136,8,28418,1,0,0:0:0:0:
256,56,28793,1,0,0:0:0:0:
256,184,29168,2,0,L|256:264,2,70,8|0|0,0:0|0:0|0:0,0:0:0:0:
256,56,30043,1,0,0:0:0:0:
376,8,30418,1,0,0:0:0:0:
496,32,30793,1,8,0:0:0:0:
496,32,30918,2,0,L|496:120,1,70,0|8,0:0|0:0,0:0:0:0:
496,184,31418,5,0,0:0:0:0:
456,184,31543,1,0,0:0:0:0:
416,184,31668,2,0,P|368:200|312:176,1,105,4|0,0:0|0:0,0:0:0:0:
320,56,32418,2,0,P|368:40|424:64,2,105,0|0|8,0:0|0:0|0:0,0:0:0:0:
232,56,33418,1,0,0:0:0:0:
192,56,33543,1,0,0:0:0:0:
152,56,33668,2,0,P|104:40|48:64,1,105
56,184,34418,2,0,P|104:200|160:176,2,105,0|0|8,0:0|0:0|0:0,0:0:0:0:
104,112,35418,5,0,0:0:0:0:
144,112,35543,1,0,0:0:0:0:
184,112,35668,2,0,L|288:112,1,105
384,192,36418,2,0,L|224:192,1,140
176,248,37168,1,8,0:0:0:0:
112,192,37418,1,0,0:0:0:0:
176,144,37668,2,0,P|160:96|184:24,2,105
240,192,38668,1,8,0:0:0:0:
312,144,38918,1,8,0:0:0:0:
384,192,39168,1,8,0:0:0:0:
384,192,39293,2,0,P|400:240|376:312,1,105,0|4,0:0|0:0,0:0:0:0:
256,296,40043,5,0,0:0:0:0:
128,296,40418,1,0,0:0:0:0:
128,168,40793,1,0,0:0:0:0:
256,168,41168,2,0,L|336:168,1,70,8|0,0:0|0:0,0:0:0:0:
408,168,41668,1,0,0:0:0:0:
408,40,42043,1,0,0:0:0:0:
280,40,42418,1,0,0:0:0:0:
280,168,42793,1,8,0:0:0:0:
280,168,42918,2,0,L|280:248,1,70,0|8,0:0|0:0,0:0:0:0:
280,320,43418,5,0,0:0:0:0:
280,320,43668,2,0,P|216:344|136:304,1,140,0|0,0:0|0:0,0:0:0:0:
232,64,44668,2,0,P|296:40|376:80,1,140,0|8,0:0|0:0,0:0:0:0:
208,192,45668,2,0,L|96:192,2,105
288,192,46668,1,0,0:0:0:0:
328,192,46793,1,8,0:0:0:0:
368,192,46918,2,0,L|448:192,1,70,0|8,0:0|0:0,0:0:0:0:
472,272,47418,5,0,0:0:0:0:
408,328,47668,2,0,L|288:328,1,105,4|0,0:0|0:0,0:0:0:0:
256,208,48418,2,0,B|248:160|272:120|256:64,1,140
257,68,49168,1,8,0:0:0:0:
48,112,49668,6,0,L|48:264,1,140,4|0,0:0|0:0,0:0:0:0:
464,112,50668,2,0,L|464:264,1,140,0|8,0:0|0:0,0:0:0:0:
256,312,51668,2,0,L|256:200,1,105,4|0,0:0|0:0,0:0:0:0:
256,80,52418,2,0,P|192:72|136:88,2,105,0|0|8,0:0|0:0|0:0,0:0:0:0:
256,168,53418,1,0,0:0:0:0:
256,248,53668,2,0,P|328:272|400:224,1,140,4|0,0:0|0:0,0:0:0:0:
320,184,54418,1,0,0:0:0:0:
384,128,54668,2,0,P|312:104|240:152,1,140
256,296,55668,5,0,0:0:0:0:
88,296,56168,1,8,0:0:0:0:
56,88,56668,1,8,0:0:0:0:
256,32,57168,1,8,0:0:0:0:
464,80,57668,5,4,0:0:0:0:
472,184,57918,1,0,0:0:0:0:
472,184,58043,2,0,L|480:272,1,70
456,304,58418,2,0,P|400:336|304:336,1,140
224,320,59168,1,8,0:0:0:0:
136,264,59418,1,0,0:0:0:0:
112,160,59668,2,0,P|96:104|112:48,2,105,0|0|0,0:0|0:0|0:0,0:0:0:0:
216,184,60668,1,0,0:0:0:0:
216,184,60793,1,8,0:0:0:0:
216,184,61168,5,8,0:0:0:0:
296,256,61418,1,0,0:0:0:0:
400,224,61668,1,4,0:0:0:0:
464,136,61918,1,0,0:0:0:0:
464,136,62043,2,0,L|440:64,1,70
400,40,62418,2,0,P|328:32|256:40,1,140
232,136,63168,5,0,1:0:0:0:
264,240,63418,1,0,0:0:0:0:
192,312,63668,1,0,0:0:0:0:
88,312,63918,1,0,0:0:0:0:
88,312,64043,1,0,0:0:0:0:
24,232,64293,1,0,0:0:0:0:
24,232,64418,1,0,0:0:0:0:
24,128,64668,1,0,0:0:0:0:
24,128,64793,2,0,P|0:80|32:24,1,105,8|8,0:0|0:0,0:0:0:0:
120,32,65418,5,8,0:0:0:0:
120,32,65543,1,0,0:0:0:0:
120,32,65668,2,0,L|224:32,2,105,4|0|0,0:0|0:0|0:0,0:0:0:0:
304,224,66918,1,0,0:0:0:0:
304,328,67168,1,8,0:0:0:0:
408,328,67418,1,0,0:0:0:0:
408,224,67668,2,0,L|504:200,1,70
472,152,68043,2,0,P|472:96|512:48,1,105,0|0,0:0|0:0,0:0:0:0:
392,40,68668,1,0,0:0:0:0:
392,40,68793,2,0,L|280:40,1,105,8|8,0:0|0:0,0:0:0:0:
256,144,69418,5,0,0:0:0:0:
256,144,69668,2,0,P|264:200|256:256,2,105
216,48,70668,1,0,0:0:0:0:
112,56,70918,1,0,0:0:0:0:
72,152,71168,1,8,0:0:0:0:
160,208,71418,1,0,0:0:0:0:
264,208,71668,2,0,L|416:208,1,140,4|8,0:0|0:0,0:0:0:0:
480,280,72418,1,0,0:0:0:0:
408,352,72668,1,0,0:0:0:0:
408,352,72793,2,0,L|280:352,1,105,8|8,0:0|0:0,0:0:0:0:
248,152,73668,5,4,0:0:0:0:
248,48,73918,1,0,0:0:0:0:
248,48,74043,2,0,L|160:48,1,70
128,64,74418,2,0,P|112:128|32:152,1,140
0,248,75168,1,8,0:0:0:0:
56,336,75418,1,0,0:0:0:0:
160,336,75668,2,0,L|272:336,2,105,0|0|0,0:0|0:0|0:0,0:0:0:0:
104,248,76668,1,0,0:0:0:0:
104,248,76793,1,8,0:0:0:0:
104,248,77168,5,8,0:0:0:0:
80,144,77418,1,0,0:0:0:0:
184,120,77668,1,0,0:0:0:0:
208,224,77918,1,0,0:0:0:0:
208,224,78043,2,0,L|296:232,1,70,0|0,0:0|0:0,0:0:0:0:
320,264,78418,2,0,P|344:296|336:352,1,70,0|0,0:0|0:0,0:0:0:0:
448,352,78918,1,0,0:0:0:0:
472,248,79168,2,0,P|448:216|456:160,1,70,8|0,0:0|0:0,0:0:0:0:
376,112,79668,6,0,P|312:88|232:144,1,140,0|8,0:0|0:0,0:0:0:0:
160,168,80418,1,0,0:0:0:0:
88,240,80668,1,8,0:0:0:0:
160,312,80918,1,8,0:0:0:0:
240,240,81168,1,8,0:0:0:0:
336,288,81418,1,8,0:0:0:0:
384,312,81543,1,8,0:0:0:0:
432,336,81668,5,12,0:0:0:0:
432,336,82168,1,8,0:0:0:0:
432,336,82668,2,0,L|432:176,1,140,8|0,0:0|0:0,0:0:0:0:
80,336,83668,1,8,0:0:0:0:
80,336,84168,1,8,0:0:0:0:
80,336,84668,2,0,L|80:176,1,140,8|0,0:0|0:0,0:0:0:0:
256,88,85668,6,0,L|256:224,2,105,4|0|0,0:0|0:0|0:0,0:0:0:0:
256,88,86918,1,0,0:0:0:0:
168,24,87168,1,8,0:0:0:0:
88,96,87418,1,0,0:0:0:0:
168,168,87668,2,0,L|168:312,1,140,0|8,0:0|0:0,0:0:0:0:
264,344,88418,1,0,0:0:0:0:
264,344,88543,1,8,0:0:0:0:
264,344,88668,2,0,L|264:184,1,140,0|8,0:0|0:0,0:0:0:0:
360,160,89418,1,0,0:0:0:0:
360,160,89668,6,0,P|416:176|480:152,2,105,2|2|2,0:0|0:0|0:0,0:0:0:0:
256,40,90793,1,8,0:0:0:0:
256,40,90918,1,2,0:0:0:0:
272,144,91168,1,8,0:0:0:0:
168,160,91418,1,2,0:0:0:0:
144,56,91668,2,0,P|88:48|24:64,2,105,2|2|2,0:0|0:0|0:0,0:0:0:0:
272,144,92793,1,8,0:0:0:0:
272,144,92918,2,0,L|272:224,1,70,2|8,0:0|0:0,0:0:0:0:
448,328,93668,5,12,0:0:0:0:
448,328,94168,1,8,0:0:0:0:
448,328,94668,2,0,L|296:328,1,140,8|0,0:0|0:0,0:0:0:0:
64,56,95668,1,8,0:0:0:0:
64,56,96168,1,8,0:0:0:0:
64,56,96668,2,0,L|216:56,1,140,8|0,0:0|0:0,0:0:0:0:
256,152,97418,5,0,0:0:0:0:
256,152,97668,2,0,L|256:256,2,105,4|2|2,0:0|0:0|0:0,0:0:0:0:
256,152,98918,1,2,0:0:0:0:
176,80,99168,1,8,0:0:0:0:
256,8,99418,1,2,0:0:0:0:
336,72,99668,2,0,P|400:56|480:80,1,140,0|8,0:0|0:0,0:0:0:0:
472,184,100418,1,2,0:0:0:0:
472,184,100543,1,8,0:0:0:0:
472,184,100668,2,0,P|408:200|328:176,1,140,2|8,0:0|0:0,0:0:0:0:
256,120,101418,1,2,0:0:0:0:
152,120,101668,6,0,L|32:120,2,105,2|2|2,0:0|0:0|0:0,0:0:0:0:
256,240,102793,1,8,0:0:0:0:
256,240,102918,1,2,0:0:0:0:
176,304,103168,1,8,0:0:0:0:
256,368,103418,1,2,0:0:0:0:
336,304,103668,2,0,L|456:304,2,105,2|2|2,0:0|0:0|0:0,0:0:0:0:
256,168,104793,1,8,0:0:0:0:
256,168,104918,1,2,0:0:0:0:
256,64,105168,1,8,0:0:0:0:
256,64,105668,5,4,0:0:0:0:
488,192,106168,1,4,0:0:0:0:
256,328,106668,1,4,0:0:0:0:
256,328,107668,5,4,0:0:0:0:
24,192,108168,1,4,0:0:0:0:
256,64,108668,1,4,0:0:0:0:
256,64,109418,5,0,0:0:0:0:
256,64,109668,2,0,P|312:56|376:72,2,105,4|0|0,0:0|0:0|0:0,0:0:0:0:
256,272,110918,1,0,0:0:0:0:
176,272,111168,1,8,0:0:0:0:
176,352,111418,1,0,0:0:0:0:
256,352,111668,2,0,P|312:360|376:344,1,105,0|8,0:0|0:0,0:0:0:0:
360,224,112418,1,8,0:0:0:0:
360,224,112668,2,0,P|288:208|200:232,1,140,0|8,0:0|0:0,0:0:0:0:
223,220,113418,1,0,0:0:0:0:
256,192,113668,12,0,119668,0:0:0:0:
