osu file format v12

[General]
AudioFilename: 10 Grip! (TV-Size).mp3
AudioLeadIn: 0
PreviewTime: 57668
Countdown: 0
SampleSet: Soft
StackLeniency: 0.7
Mode: 0
LetterboxInBreaks: 0

[Editor]
Bookmarks: 23668,39668,119668
DistanceSpacing: 1
BeatDivisor: 4
GridSize: 4

[Metadata]
Title:Grip! (TV Size)
TitleUnicode:Grip! (TV Size)
Artist:Every Little Thing
ArtistUnicode:Every Little Thing
Creator:S o r d a
Version:hoLysoup
Source:InuYasha
Tags:犬夜叉 yuca holysoup sorda opening
BeatmapID:260009
BeatmapSetID:93223

[Difficulty]
HPDrainRate:4
CircleSize:3
OverallDifficulty:3
ApproachRate:4
SliderMultiplier:1.2
SliderTickRate:1

[Events]
//Background and Video events
0,0,"BG.jpg",0,0
//Break Periods
//Storyboard Layer 0 (Background)
//Storyboard Layer 1 (Fail)
//Storyboard Layer 2 (Pass)
//Storyboard Layer 3 (Foreground)
//Storyboard Sound Samples
//Background Colour Transformations
3,100,163,162,255

[TimingPoints]
3668,500,4,2,1,70,1,0
23543,-100,4,2,1,55,0,0
57668,-100,4,2,1,70,0,1
62543,-100,4,2,1,50,0,1
62793,-100,4,2,1,70,0,1
63543,-100,4,2,1,50,0,1
63793,-100,4,2,1,70,0,1
73168,-100,4,2,1,70,0,0
73668,-100,4,2,1,70,0,1
93168,-100,4,2,1,80,0,0
113543,-100,4,2,1,10,0,0
118168,-100,4,2,1,5,0,0

[Colours]
Combo1 : 175,192,184
Combo2 : 68,0,136
Combo3 : 135,46,99
Combo4 : 73,82,116

[HitObjects]
152,168,3668,2,0,B|128:232|152:288|152:288,2,120,4|8|8,0:0|0:0|0:0,0:0:0:0:
256,104,5168,1,8,0:0:0:0:
360,168,5668,2,0,B|384:232|360:288|360:288,2,120,4|8|8,0:0|0:0|0:0,0:0:0:0:
256,104,7168,1,8,0:0:0:0:
196,208,7668,6,0,B|196:288|132:288|132:376,2,180,4|8|8,0:0|0:0|0:0,0:0:0:0:
316,208,9668,2,0,B|316:288|380:288|380:376,2,180,2|8|8,0:0|0:0|0:0,0:0:0:0:
436,192,11668,6,0,P|452:128|440:76,1,120,4|8,0:0|0:0,0:0:0:0:
320,76,12668,2,0,P|304:140|316:192,1,120,8|8,0:0|0:0,0:0:0:0:
196,192,13668,2,0,P|212:128|200:76,1,120,4|8,0:0|0:0,0:0:0:0:
80,76,14668,2,0,P|64:140|76:192,1,120,8|8,0:0|0:0,0:0:0:0:
180,248,15668,6,0,B|272:248|272:296|360:296,2,180,4|8|8,0:0|0:0|0:0,0:0:0:0:
180,128,17668,2,0,B|272:128|272:80|360:80,2,180,2|8|8,0:0|0:0|0:0,0:0:0:0:
76,192,19668,6,0,P|68:288|144:336,2,180,4|8|8,0:0|0:0|0:0,0:0:0:0:
188,148,21668,2,0,P|248:193|240:289,2,180,2|8|8,0:0|0:0|0:0,0:0:0:0:
256,48,23668,6,0,L|380:48,1,120,4|8,0:0|0:0,0:0:0:0:
456,136,24668,2,0,P|464:200|456:256,1,120,0|8,0:0|0:0,0:0:0:0:
372,340,25668,2,0,L|248:340,1,120,0|8,0:0|0:0,0:0:0:0:
172,252,26668,2,0,P|164:188|172:132,1,120,0|8,0:0|0:0,0:0:0:0:
292,136,27668,6,0,P|300:200|292:256,1,120,0|8,0:0|0:0,0:0:0:0:
204,336,28668,2,0,L|72:344,1,120,0|8,0:0|0:0,0:0:0:0:
20,240,29668,2,0,P|12:176|20:120,1,120,0|8,0:0|0:0,0:0:0:0:
108,40,30668,2,0,L|240:32,1,120,0|8,0:0|0:0,0:0:0:0:
324,104,31668,6,0,L|464:100,1,120,4|8,0:0|0:0,0:0:0:0:
484,144,32418,2,0,P|504:216|488:268,1,120,2|0,0:0|0:0,0:0:0:0:
452,304,33168,1,8,0:0:0:0:
332,316,33668,6,0,L|208:320,1,120,2|8,0:0|0:0,0:0:0:0:
152,304,34418,2,0,P|132:248|140:184,1,120,2|0,0:0|0:0,0:0:0:0:
176,144,35168,1,8,0:0:0:0:
296,144,35668,6,0,B|360:144|360:176|428:176,1,120,2|8,0:0|0:0,0:0:0:0:
472,176,36418,2,0,P|480:240|472:296,1,120,2|0,0:0|0:0,0:0:0:0:
428,336,37168,1,8,0:0:0:0:
316,296,37668,6,0,B|240:276|216:316|136:296,2,180,2|8|8,0:0|0:0|0:0,0:0:0:0:
408,220,39668,6,0,P|416:160|408:100,1,120,4|8,0:0|0:0,0:0:0:0:
316,24,40668,2,0,P|256:16|196:24,1,120,0|8,0:0|0:0,0:0:0:0:
104,100,41668,2,0,P|96:160|104:220,1,120,0|8,0:0|0:0,0:0:0:0:
196,296,42668,2,0,P|256:304|316:296,1,120,0|8,0:0|0:0,0:0:0:0:
376,192,43668,6,0,P|432:176|492:192,2,120,0|8|0,0:0|0:0|0:0,0:0:0:0:
264,152,45168,2,0,P|222:111|205:51,2,120,8|0|8,0:0|0:0|0:0,0:0:0:0:
288,268,46668,2,0,P|273:324|230:368,1,120,0|8,0:0|0:0,0:0:0:0:
112,364,47668,6,0,P|69:320|55:264,1,120,4|8,0:0|0:0,0:0:0:0:
108,236,48418,2,0,P|128:176|120:116,1,120,2|0,0:0|0:0,0:0:0:0:
136,64,49168,1,8,0:0:0:0:
252,100,49668,6,0,L|384:92,1,120,4|8,0:0|0:0,0:0:0:0:
308,196,50668,2,0,L|440:188,2,120,2|8|4,0:0|0:0|0:0,0:0:0:0:
244,300,52168,6,0,P|184:336|128:328,1,120,8|0,0:0|0:0,0:0:0:0:
48,248,53168,2,0,P|108:212|164:220,1,120,8|4,0:0|0:0,0:0:0:0:
276,204,54168,2,0,P|332:224|388:208,2,120,8|0|8,0:0|0:0|0:0,0:0:0:0:
192,116,55668,5,8,0:0:0:0:
160,232,56168,1,8,0:0:0:0:
276,264,56668,1,8,0:0:0:0:
308,148,57168,1,8,0:0:0:0:
192,116,57668,6,0,B|116:116|116:164|16:164,2,180,4|8|8,0:0|0:0|0:0,0:0:0:0:
288,184,59668,2,0,B|364:184|364:136|464:136,2,180,2|8|8,0:0|0:0|0:0,0:0:0:0:
196,260,61668,6,0,P|180:320|196:380,1,120,4|8,0:0|0:0,0:0:0:0:
312,376,62668,2,0,P|328:316|312:256,1,120,4|8,0:0|0:0,0:0:0:0:
196,260,63668,2,0,L|72:272,1,120,4|8,0:0|0:0,0:0:0:0:
80,152,64668,2,0,L|204:140,1,120,0|8,0:0|0:0,0:0:0:0:
304,200,65668,6,0,P|336:256|336:312,1,120,4|8,0:0|0:0,0:0:0:0:
376,356,66418,2,0,P|436:372|500:348,1,120,2|0,0:0|0:0,0:0:0:0:
500,296,67168,1,8,0:0:0:0:
488,176,67668,6,0,P|476:104|448:64,1,120,2|8,0:0|0:0,0:0:0:0:
396,44,68418,2,0,B|344:80|280:84|280:84,1,120,2|0,0:0|0:0,0:0:0:0:
276,144,69168,1,8,0:0:0:0:
320,256,69668,2,0,P|276:340|180:332,2,180,4|8|8,0:0|0:0|0:0,0:0:0:0:
296,140,71668,5,4,0:0:0:0:
176,140,72168,1,8,0:0:0:0:
176,260,72668,1,8,0:0:0:0:
296,260,73168,1,8,0:0:0:0:
296,140,73668,6,0,B|340:104|432:176|488:124,2,180,4|8|8,0:0|0:0|0:0,0:0:0:0:
196,204,75668,2,0,B|152:240|60:168|4:220,2,180,2|8|8,0:0|0:0|0:0,0:0:0:0:
316,204,77668,6,0,P|332:272|308:324,1,120,2|8,0:0|0:0,0:0:0:0:
200,316,78668,2,0,P|181:271|197:203,1,120,0|8,0:0|0:0,0:0:0:0:
316,204,79668,2,0,L|440:196,1,120,2|8,0:0|0:0,0:0:0:0:
436,76,80668,2,0,L|312:84,1,120,0|8,0:0|0:0,0:0:0:0:
196,92,81668,6,0,P|140:112|72:104,2,120,4|8|8,0:0|0:0|0:0,0:0:0:0:
264,192,83168,1,8,0:0:0:0:
196,292,83668,2,0,P|140:272|72:280,2,120,4|8|8,0:0|0:0|0:0,0:0:0:0:
264,192,85168,1,8,0:0:0:0:
336,96,85668,6,0,P|392:76|456:92,1,120,4|8,0:0|0:0,0:0:0:0:
496,128,86418,2,0,L|488:256,1,120,2|0,0:0|0:0,0:0:0:0:
452,296,87168,1,8,0:0:0:0:
336,268,87668,6,0,P|276:256|216:264,1,120,2|8,0:0|0:0,0:0:0:0:
160,248,88418,2,0,P|132:192|140:132,1,120,2|0,0:0|0:0,0:0:0:0:
176,88,89168,1,8,0:0:0:0:
292,120,89668,6,0,L|408:116,2,90,4|0|0,0:0|0:0|0:0,0:0:0:0:
240,192,90793,2,8,L|124:196,1,90,0|8,0:0|0:0,0:0:0:0:
92,212,91418,1,0,0:0:0:0:
80,272,91668,6,0,L|88:372,2,90,4|0|0,0:0|0:0|0:0,0:0:0:0:
4,224,92793,2,0,L|11:134,1,90,0|8,0:0|0:0,0:0:0:0:
48,84,93418,1,8,0:0:0:0:
104,104,93668,6,0,L|224:84,1,120,4|8,0:0|0:0,0:0:0:0:
184,196,94668,2,0,L|304:176,1,120,8|8,0:0|0:0,0:0:0:0:
404,116,95668,2,0,L|428:236,1,120,4|8,0:0|0:0,0:0:0:0:
312,204,96668,2,0,L|336:324,1,120,8|8,0:0|0:0,0:0:0:0:
216,324,97668,6,0,B|124:324|124:372|28:372,2,180,4|8|8,0:0|0:0|0:0,0:0:0:0:
320,264,99668,2,0,B|412:264|412:312|508:312,2,180,2|8|8,0:0|0:0|0:0,0:0:0:0:
212,216,101668,6,0,L|96:232,2,90,4|0|0,0:0|0:0|0:0,0:0:0:0:
296,188,102793,2,0,L|412:204,1,90,0|8,0:0|0:0,0:0:0:0:
432,236,103418,1,0,0:0:0:0:
452,292,103668,6,0,L|440:384,2,90,4|0|0,0:0|0:0|0:0,0:0:0:0:
512,224,104793,2,0,L|500:132,1,90,0|8,0:0|0:0,0:0:0:0:
460,92,105418,1,8,0:0:0:0:
404,112,105668,6,0,P|348:128|280:120,1,120,4|8,0:0|0:0,0:0:0:0:
168,104,106668,2,0,P|160:168|172:224,1,120,8|8,0:0|0:0,0:0:0:0:
132,336,107668,2,0,P|188:320|256:328,1,120,4|8,0:0|0:0,0:0:0:0:
368,344,108668,2,0,P|376:280|364:224,1,120,8|8,0:0|0:0,0:0:0:0:
284,136,109668,6,0,P|352:76|456:92,2,180,4|8|8,0:0|0:0|0:0,0:0:0:0:
184,72,111668,2,0,P|116:132|12:116,2,180,4|8|8,0:0|0:0|0:0,0:0:0:0:
256,192,113668,12,0,119668,0:0:0:0:
